  0
SECTION
  2
HEADER
  9
$ACADVER
  1
AC1015
  9
$ACADMAINTVER
 70
     6
  9
$DWGCODEPAGE
  3
ANSI_1252
  9
$INSBASE
 10
1.966843444085657
 20
17.63308002514998
 30
0.0
  9
$EXTMIN
 10
-3.868532848261531
 20
3.209169506195531
 30
-0.00000001
  9
$EXTMAX
 10
3.401467151738468
 20
13.26416950619553
 30
12.12190901
  9
$LIMMIN
 10
0.0
 20
0.0
  9
$LIMMAX
 10
34.0
 20
22.0
  9
$ORTHOMODE
 70
     0
  9
$REGENMODE
 70
     1
  9
$FILLMODE
 70
     1
  9
$QTEXTMODE
 70
     0
  9
$MIRRTEXT
 70
     1
  9
$LTSCALE
 40
1.0
  9
$ATTMODE
 70
     1
  9
$TEXTSIZE
 40
0.1875
  9
$TRACEWID
 40
0.05
  9
$TEXTSTYLE
  7
style1
  9
$CLAYER
  8
DIM
  9
$CELTYPE
  6
BYLAYER
  9
$CECOLOR
 62
   256
  9
$CELTSCALE
 40
1.0
  9
$DISPSILH
 70
     0
  9
$DIMSCALE
 40
1.0
  9
$DIMASZ
 40
0.125
  9
$DIMEXO
 40
0.125
  9
$DIMDLI
 40
0.375
  9
$DIMRND
 40
0.0
  9
$DIMDLE
 40
0.0
  9
$DIMEXE
 40
0.125
  9
$DIMTP
 40
0.0
  9
$DIMTM
 40
0.0
  9
$DIMTXT
 40
0.125
  9
$DIMCEN
 40
0.0625
  9
$DIMTSZ
 40
0.0
  9
$DIMTOL
 70
     0
  9
$DIMLIM
 70
     0
  9
$DIMTIH
 70
     0
  9
$DIMTOH
 70
     0
  9
$DIMSE1
 70
     0
  9
$DIMSE2
 70
     0
  9
$DIMTAD
 70
     1
  9
$DIMZIN
 70
     0
  9
$DIMBLK
  1

  9
$DIMASO
 70
     1
  9
$DIMSHO
 70
     1
  9
$DIMPOST
  1

  9
$DIMAPOST
  1

  9
$DIMALT
 70
     0
  9
$DIMALTD
 70
     1
  9
$DIMALTF
 40
25.4
  9
$DIMLFAC
 40
1.0
  9
$DIMTOFL
 70
     0
  9
$DIMTVP
 40
0.0
  9
$DIMTIX
 70
     1
  9
$DIMSOXD
 70
     0
  9
$DIMSAH
 70
     1
  9
$DIMBLK1
  1
ARCHTICK
  9
$DIMBLK2
  1
ARCHTICK
  9
$DIMSTYLE
  2
STANDARD
  9
$DIMCLRD
 70
     0
  9
$DIMCLRE
 70
     0
  9
$DIMCLRT
 70
     0
  9
$DIMTFAC
 40
1.0
  9
$DIMGAP
 40
0.0625
  9
$DIMJUST
 70
     0
  9
$DIMSD1
 70
     0
  9
$DIMSD2
 70
     0
  9
$DIMTOLJ
 70
     1
  9
$DIMTZIN
 70
     0
  9
$DIMALTZ
 70
     0
  9
$DIMALTTZ
 70
     0
  9
$DIMUPT
 70
     0
  9
$DIMDEC
 70
     3
  9
$DIMTDEC
 70
     3
  9
$DIMALTU
 70
     2
  9
$DIMALTTD
 70
     1
  9
$DIMTXSTY
  7
STANDARD
  9
$DIMAUNIT
 70
     0
  9
$DIMADEC
 70
     0
  9
$DIMALTRND
 40
0.0
  9
$DIMAZIN
 70
     0
  9
$DIMDSEP
 70
    46
  9
$DIMATFIT
 70
     3
  9
$DIMFRAC
 70
     0
  9
$DIMLDRBLK
  1

  9
$DIMLUNIT
 70
     2
  9
$DIMLWD
 70
    -2
  9
$DIMLWE
 70
    -2
  9
$DIMTMOVE
 70
     2
  9
$LUNITS
 70
     2
  9
$LUPREC
 70
     5
  9
$SKETCHINC
 40
0.1
  9
$FILLETRAD
 40
0.0
  9
$AUNITS
 70
     0
  9
$AUPREC
 70
     2
  9
$MENU
  1
acad
  9
$ELEVATION
 40
0.0
  9
$PELEVATION
 40
0.0
  9
$THICKNESS
 40
0.0
  9
$LIMCHECK
 70
     0
  9
$CHAMFERA
 40
0.0
  9
$CHAMFERB
 40
0.0
  9
$CHAMFERC
 40
0.0
  9
$CHAMFERD
 40
0.0
  9
$SKPOLY
 70
     0
  9
$TDCREATE
 40
2449909.393659606
  9
$TDUCREATE
 40
2449909.518659606
  9
$TDUPDATE
 40
2453214.392641053
  9
$TDUUPDATE
 40
2453214.517641053
  9
$TDINDWG
 40
2.9337541898
  9
$TDUSRTIMER
 40
2.9337541898
  9
$USRTIMER
 70
     1
  9
$ANGBASE
 50
0.0
  9
$ANGDIR
 70
     0
  9
$PDMODE
 70
     0
  9
$PDSIZE
 40
0.0
  9
$PLINEWID
 40
0.02
  9
$SPLFRAME
 70
     0
  9
$SPLINETYPE
 70
     6
  9
$SPLINESEGS
 70
     8
  9
$HANDSEED
  5
1583
  9
$SURFTAB1
 70
     6
  9
$SURFTAB2
 70
     6
  9
$SURFTYPE
 70
     6
  9
$SURFU
 70
     6
  9
$SURFV
 70
     6
  9
$UCSBASE
  2

  9
$UCSNAME
  2

  9
$UCSORG
 10
0.0
 20
0.0
 30
0.0
  9
$UCSXDIR
 10
1.0
 20
0.0
 30
0.0
  9
$UCSYDIR
 10
0.0
 20
1.0
 30
0.0
  9
$UCSORTHOREF
  2

  9
$UCSORTHOVIEW
 70
     0
  9
$UCSORGTOP
 10
0.0
 20
0.0
 30
0.0
  9
$UCSORGBOTTOM
 10
0.0
 20
0.0
 30
0.0
  9
$UCSORGLEFT
 10
0.0
 20
0.0
 30
0.0
  9
$UCSORGRIGHT
 10
0.0
 20
0.0
 30
0.0
  9
$UCSORGFRONT
 10
0.0
 20
0.0
 30
0.0
  9
$UCSORGBACK
 10
0.0
 20
0.0
 30
0.0
  9
$PUCSBASE
  2

  9
$PUCSNAME
  2

  9
$PUCSORG
 10
0.0
 20
0.0
 30
0.0
  9
$PUCSXDIR
 10
1.0
 20
0.0
 30
0.0
  9
$PUCSYDIR
 10
0.0
 20
1.0
 30
0.0
  9
$PUCSORTHOREF
  2

  9
$PUCSORTHOVIEW
 70
     0
  9
$PUCSORGTOP
 10
0.0
 20
0.0
 30
0.0
  9
$PUCSORGBOTTOM
 10
0.0
 20
0.0
 30
0.0
  9
$PUCSORGLEFT
 10
0.0
 20
0.0
 30
0.0
  9
$PUCSORGRIGHT
 10
0.0
 20
0.0
 30
0.0
  9
$PUCSORGFRONT
 10
0.0
 20
0.0
 30
0.0
  9
$PUCSORGBACK
 10
0.0
 20
0.0
 30
0.0
  9
$USERI1
 70
     0
  9
$USERI2
 70
     0
  9
$USERI3
 70
     0
  9
$USERI4
 70
     0
  9
$USERI5
 70
     0
  9
$USERR1
 40
0.0
  9
$USERR2
 40
0.0
  9
$USERR3
 40
0.0
  9
$USERR4
 40
0.0
  9
$USERR5
 40
0.0
  9
$WORLDVIEW
 70
     1
  9
$SHADEDGE
 70
     3
  9
$SHADEDIF
 70
    70
  9
$TILEMODE
 70
     1
  9
$MAXACTVP
 70
    16
  9
$PINSBASE
 10
17.43195221568128
 20
50.00000000000001
 30
0.6813844866954857
  9
$PLIMCHECK
 70
     0
  9
$PEXTMIN
 10
0.0
 20
0.0
 30
0.0
  9
$PEXTMAX
 10
8.5
 20
11.0
 30
0.0
  9
$PLIMMIN
 10
-0.1249999981226883
 20
-0.1249999981226883
  9
$PLIMMAX
 10
10.87499976158142
 20
16.87500072276498
  9
$UNITMODE
 70
     0
  9
$VISRETAIN
 70
     0
  9
$PLINEGEN
 70
     0
  9
$PSLTSCALE
 70
     1
  9
$TREEDEPTH
 70
  3020
  9
$CMLSTYLE
  2
STANDARD
  9
$CMLJUST
 70
     0
  9
$CMLSCALE
 40
1.0
  9
$PROXYGRAPHICS
 70
     1
  9
$MEASUREMENT
 70
     0
  9
$CELWEIGHT
370
    -1
  9
$ENDCAPS
280
     0
  9
$JOINSTYLE
280
     0
  9
$LWDISPLAY
290
     0
  9
$INSUNITS
 70
     0
  9
$HYPERLINKBASE
  1

  9
$STYLESHEET
  1
Default R14 pen assignments.ctb
  9
$XEDIT
290
     1
  9
$CEPSNTYPE
380
     0
  9
$PSTYLEMODE
290
     1
  9
$FINGERPRINTGUID
  2

  9
$VERSIONGUID
  2
{2322E4B6-E701-4285-ADE9-F47A2ECCDCEE}
  9
$EXTNAMES
290
     1
  9
$PSVPSCALE
 40
0.0
  9
$OLESTARTUP
290
     0
  0
ENDSEC
  0
SECTION
  2
CLASSES
  0
CLASS
  1
DICTIONARYVAR
  2
AcDbDictionaryVar
  3
AutoCAD 2000
 90
        0
280
     0
281
     0
  0
CLASS
  1
ACMESTATEMGR
  2
AcMeStateMgr
  3
AcMeServices
 90
    32768
280
     0
281
     0
  0
CLASS
  1
ACMESCOPE
  2
AcMeScope
  3
AcMeServices
 90
    32768
280
     0
281
     0
  0
CLASS
  1
ACMECOMMANDHISTORY
  2
AcMeCommandHistory
  3
AcMeServices
 90
    32768
280
     0
281
     0
  0
CLASS
  1
ACRFINSADJUSTERMGR
  2
AcRfInsAdjusterMgr
  3
AcMeServices
 90
    32768
280
     0
281
     0
  0
CLASS
  1
ACMEDRAWINGMAN
  2
AcMeDrawingMan
  3
AcMeServices
 90
    32768
280
     0
281
     0
  0
CLASS
  1
AMATTR
  2
AcMeAttribute
  3
AcMeServices
 90
    32768
280
     0
281
     0
  0
CLASS
  1
ACMEBOMCOLUMN
  2
AcMeBOMColumn
  3
AcMeServices
 90
    32768
280
     0
281
     0
  0
CLASS
  1
ACANBOMCONF
  2
AcMeBOMConf
  3
AcMeServices
 90
    32768
280
     0
281
     0
  0
CLASS
  1
ACMEBOMTABLE
  2
AcMeBOMTable
  3
AcMeServices
 90
    32768
280
     0
281
     0
  0
CLASS
  1
ACMEBOMENTRY
  2
AcMeBOMEntry
  3
AcMeServices
 90
    32768
280
     0
281
     0
  0
CLASS
  1
ACMEVIEW
  2
AcMeView
  3
AcMeServices
 90
    32768
280
     0
281
     0
  0
CLASS
  1
ACGREFMASTER
  2
AcGrefMaster
  3
AcGrefServices
 90
    32768
280
     0
281
     0
  0
CLASS
  1
AMIMASTER
  2
AmiMaster
  3
AmiServices
 90
    32768
280
     0
281
     0
  0
CLASS
  1
ACASGREFMASTER
  2
AcAsGrefMaster
  3
AutoSurfResolverServices
 90
    32768
280
     0
281
     0
  0
CLASS
  1
ADAPPL
  2
AcAdAppl
  3
DesignerServices
 90
    32768
280
     0
281
     0
  0
CLASS
  1
DEPMGR
  2
AcAdDepMgr
  3
DesignerServices
 90
    32768
280
     0
281
     0
  0
CLASS
  1
PARAMMGR
  2
AcAdParamMgr
  3
DesignerServices
 90
    32768
280
     0
281
     0
  0
CLASS
  1
PARAMSCOPE
  2
AcAdParamScope
  3
DesignerServices
 90
    32768
280
     0
281
     0
  0
CLASS
  1
ACIMSYSVARMAN
  2
AcImSysVarManager
  3
AcMeServices
 90
    32768
280
     0
281
     0
  0
CLASS
  1
ACIMINTSYSVAR
  2
AcImIntSysVar
  3
AcMeServices
 90
    32768
280
     0
281
     0
  0
CLASS
  1
ACIMREALSYSVAR
  2
AcImRealSysVar
  3
AcMeServices
 90
    32768
280
     0
281
     0
  0
CLASS
  1
ACIMSTRSYSVAR
  2
AcImStrSysVar
  3
AcMeServices
 90
    32768
280
     0
281
     0
  0
CLASS
  1
NAMEDAPPL
  2
AcAdNamedAppl
  3
DesignerServices
 90
    32768
280
     0
281
     0
  0
CLASS
  1
ADHNTMPLT
  2
AdHoleNoteTemplateMgr
  3
DesignerServices
 90
    32768
280
     0
281
     0
  0
CLASS
  1
AM_HNTEMPLATE_MGR_NAME
  2
AdHoleNoteTemplateMgrName
  3
DesignerServices
 90
    32768
280
     0
281
     0
  0
CLASS
  1
ACADGREFMODULE
  2
AcAdGrefModule
  3
AdGrefServices
 90
    32768
280
     0
281
     0
  0
CLASS
  1
AM_DRAWING_MGR
  2
AcDmDwgMgr
  3
AcMechDwgViewMgmt
 90
    32768
280
     0
281
     0
  0
CLASS
  1
AM_DWG_DOCUMENT
  2
AcDmDwgDocument
  3
AcMechDwgViewMgmt
 90
    32768
280
     0
281
     0
  0
CLASS
  1
AM_DWG_SHEET
  2
AcDmSheet
  3
AcMechDwgViewMgmt
 90
    32768
280
     0
281
     0
  0
CLASS
  1
AM_VIEWDIMPARMAP
  2
AcDmViewDimParMap
  3
AcMechDwgViewMgmt
 90
    32768
280
     0
281
     0
  0
CLASS
  1
AM_DWGMGR_NAME
  2
AcDmDwgMgrName
  3
AcMechDwgViewMgmt
 90
    32768
280
     0
281
     0
  0
CLASS
  1
ACAMPROJECT
  2
AcAmProject
  3
DesignerAssemblies
 90
    32768
280
     0
281
     0
  0
CLASS
  1
ACAMGRCOMPSET
  2
AcAmGrCompSet
  3
DesignerAssemblies
 90
    32768
280
     0
281
     0
  0
CLASS
  1
ACAMGRCOMPDEFSET
  2
AcAmGrCompDefSet
  3
DesignerAssemblies
 90
    32768
280
     0
281
     0
  0
CLASS
  1
ACAMGRCOMPDEF
  2
AcAmGrCompDef
  3
DesignerAssemblies
 90
    32768
280
     0
281
     0
  0
CLASS
  1
ACCMCONTEXT
  2
AcCmContext
  3
DesignerAssemblies
 90
    32768
280
     0
281
     0
  0
CLASS
  1
ACAMCOMPDEF
  2
AcAmCompDef
  3
DesignerAssemblies
 90
    32768
280
     0
281
     0
  0
CLASS
  1
ACAMCOMPDEFMGR
  2
AcAmCompDefMgr
  3
DesignerAssemblies
 90
    32768
280
     0
281
     0
  0
CLASS
  1
AMCONTEXTMGR
  2
AcAmContextMgr
  3
DesignerAssemblies
 90
    32768
280
     0
281
     0
  0
CLASS
  1
ACAMCONTEXTMODELER
  2
AcAmContextModeler
  3
DesignerAssemblies
 90
    32768
280
     0
281
     0
  0
CLASS
  1
ACDMVIEWGEOM
  2
AcDmViewGeometry
  3
AcMechDwgViewMgmt
 90
        0
280
     0
281
     1
  0
CLASS
  1
CBROWSERAPPOBJECT
  2
CBrowserAppObject
  3
McadcomServices
 90
    32768
280
     0
281
     0
  0
CLASS
  1
IM_STATIC_MAN
  2
AcImStaticVarManager
  3
AcMeServices
 90
    32768
280
     0
281
     0
  0
CLASS
  1
ASAPP
  2
AcAsAppObject
  3
AutoSurfServices
 90
    32768
280
     0
281
     0
  0
CLASS
  1
ACIMDBLSTATICVAR
  2
AcImDblStaticVar
  3
AcMeServices
 90
    32768
280
     0
281
     0
  0
CLASS
  1
ACIMSTRSTATICVAR
  2
AcImStrStaticVar
  3
AcMeServices
 90
    32768
280
     0
281
     0
  0
CLASS
  1
ACIMINTSTATICVAR
  2
AcImIntStaticVar
  3
AcMeServices
 90
    32768
280
     0
281
     0
  0
CLASS
  1
CATALOGSTATE
  2
AcAmCatalogState
  3
DesignerAssemblies
 90
    32768
280
     0
281
     0
  0
CLASS
  1
DM_PLACEHOLDER
  2
AcDmSelsetPlaceholder
  3
AcMechDwgViewMgmt
 90
    32768
280
     0
281
     0
  0
CLASS
  1
LAYER_INDEX
  2
AcDbLayerIndex
  3
AutoCAD 2000
 90
    32768
280
     0
281
     0
  0
CLASS
  1
IDBUFFER
  2
AcDbIdBuffer
  3
AutoCAD 2000
 90
    32768
280
     0
281
     0
  0
CLASS
  1
ACDBDICTIONARYWDFLT
  2
AcDbDictionaryWithDefault
  3
AutoCAD 2000
 90
        0
280
     0
281
     0
  0
CLASS
  1
ACDBPLACEHOLDER
  2
AcDbPlaceHolder
  3
AutoCAD 2000
 90
        0
280
     0
281
     0
  0
CLASS
  1
LAYOUT
  2
AcDbLayout
  3
AutoCAD 2000
 90
        0
280
     0
281
     0
  0
CLASS
  1
LONG_TRANSACTION
  2
AcDbLongTransaction
  3
AutoCAD 2000
 90
    32768
280
     0
281
     0
  0
CLASS
  1
LWPOLYLINE
  2
AcDbPolyline
  3
AutoCAD 2000
 90
    32768
280
     0
281
     1
  0
CLASS
  1
HATCH
  2
AcDbHatch
  3
AutoCAD 2000
 90
    32768
280
     0
281
     1
  0
CLASS
  1
XRECORD
  2
AcDbXrecord
  3
AutoCAD 2000
 90
    32768
280
     0
281
     0
  0
CLASS
  1
LONG_TRANSACTION
  2
AcDbLongTransaction
  3
AutoCAD 2000
 90
    32768
280
     0
281
     0
  0
CLASS
  1
LWPOLYLINE
  2
AcDbPolyline
  3
AutoCAD 2000
 90
    32768
280
     0
281
     1
  0
CLASS
  1
HATCH
  2
AcDbHatch
  3
AutoCAD 2000
 90
    32768
280
     0
281
     1
  0
CLASS
  1
XRECORD
  2
AcDbXrecord
  3
AutoCAD 2000
 90
    32768
280
     0
281
     0
  0
CLASS
  1
PLOTSETTINGS
  2
AcDbPlotSettings
  3
AutoCAD 2000
 90
        0
280
     0
281
     0
  0
CLASS
  1
LONG_TRANSACTION
  2
AcDbLongTransaction
  3
AutoCAD 2000
 90
    32768
280
     0
281
     0
  0
CLASS
  1
LWPOLYLINE
  2
AcDbPolyline
  3
AutoCAD 2000
 90
    32768
280
     0
281
     1
  0
CLASS
  1
HATCH
  2
AcDbHatch
  3
AutoCAD 2000
 90
    32768
280
     0
281
     1
  0
CLASS
  1
XRECORD
  2
AcDbXrecord
  3
AutoCAD 2000
 90
    32768
280
     0
281
     0
  0
CLASS
  1
LONG_TRANSACTION
  2
AcDbLongTransaction
  3
AutoCAD 2000
 90
    32768
280
     0
281
     0
  0
CLASS
  1
LWPOLYLINE
  2
AcDbPolyline
  3
AutoCAD 2000
 90
    32768
280
     0
281
     1
  0
CLASS
  1
HATCH
  2
AcDbHatch
  3
AutoCAD 2000
 90
    32768
280
     0
281
     1
  0
CLASS
  1
XRECORD
  2
AcDbXrecord
  3
AutoCAD 2000
 90
    32768
280
     0
281
     0
  0
CLASS
  1
LONG_TRANSACTION
  2
AcDbLongTransaction
  3
AutoCAD 2000
 90
    32768
280
     0
281
     0
  0
CLASS
  1
LWPOLYLINE
  2
AcDbPolyline
  3
AutoCAD 2000
 90
    32768
280
     0
281
     1
  0
CLASS
  1
HATCH
  2
AcDbHatch
  3
AutoCAD 2000
 90
    32768
280
     0
281
     1
  0
CLASS
  1
XRECORD
  2
AcDbXrecord
  3
AutoCAD 2000
 90
    32768
280
     0
281
     0
  0
CLASS
  1
LONG_TRANSACTION
  2
AcDbLongTransaction
  3
AutoCAD 2000
 90
    32768
280
     0
281
     0
  0
CLASS
  1
LWPOLYLINE
  2
AcDbPolyline
  3
AutoCAD 2000
 90
    32768
280
     0
281
     1
  0
CLASS
  1
HATCH
  2
AcDbHatch
  3
AutoCAD 2000
 90
    32768
280
     0
281
     1
  0
CLASS
  1
XRECORD
  2
AcDbXrecord
  3
AutoCAD 2000
 90
    32768
280
     0
281
     0
  0
CLASS
  1
LONG_TRANSACTION
  2
AcDbLongTransaction
  3
AutoCAD 2000
 90
    32768
280
     0
281
     0
  0
CLASS
  1
LWPOLYLINE
  2
AcDbPolyline
  3
AutoCAD 2000
 90
    32768
280
     0
281
     1
  0
CLASS
  1
HATCH
  2
AcDbHatch
  3
AutoCAD 2000
 90
    32768
280
     0
281
     1
  0
CLASS
  1
XRECORD
  2
AcDbXrecord
  3
AutoCAD 2000
 90
    32768
280
     0
281
     0
  0
ENDSEC
  0
SECTION
  2
TABLES
  0
TABLE
  2
VPORT
  5
4C4
330
0
100
AcDbSymbolTable
 70
     2
  0
VPORT
  5
1582
330
4C4
100
AcDbSymbolTableRecord
100
AcDbViewportTableRecord
  2
*Active
 70
     0
 10
0.0
 20
0.0
 11
1.0
 21
1.0
 12
0.8487664400346233
 22
8.011068814321891
 13
0.0
 23
0.0
 14
1.0
 24
1.0
 15
0.0
 25
0.0
 16
0.0
 26
0.0
 36
1.0
 17
0.0
 27
0.0
 37
0.0
 40
10.69714492958355
 41
1.633211678832116
 42
50.0
 43
0.0
 44
0.0
 50
0.0
 51
0.0
 71
     0
 72
 10000
 73
     1
 74
     0
 75
     0
 76
     0
 77
     0
 78
     0
281
     0
 65
     1
110
0.0
120
0.0
130
0.0
111
1.0
121
0.0
131
0.0
112
0.0
122
1.0
132
0.0
 79
     0
146
0.0
  0
ENDTAB
  0
TABLE
  2
LTYPE
  5
4BF
330
0
100
AcDbSymbolTable
 70
     3
  0
LTYPE
  5
4C0
330
4BF
100
AcDbSymbolTableRecord
100
AcDbLinetypeTableRecord
  2
BYBLOCK
 70
     0
  3

 72
    65
 73
     0
 40
0.0
  0
LTYPE
  5
4C1
330
4BF
100
AcDbSymbolTableRecord
100
AcDbLinetypeTableRecord
  2
BYLAYER
 70
     0
  3

 72
    65
 73
     0
 40
0.0
  0
LTYPE
  5
8
330
4BF
100
AcDbSymbolTableRecord
100
AcDbLinetypeTableRecord
  2
CONTINUOUS
 70
     0
  3
Solid line
 72
    65
 73
     0
 40
0.0
  0
LTYPE
  5
1A7
330
4BF
100
AcDbSymbolTableRecord
100
AcDbLinetypeTableRecord
  2
HIDDEN
 70
     0
  3
__ __ __ __ __ __ __ __ __ __ __ __ __ __ __ __
 72
    65
 73
     2
 40
0.375
 49
0.25
 74
     0
 49
-0.125
 74
     0
  0
LTYPE
  5
DF
330
4BF
100
AcDbSymbolTableRecord
100
AcDbLinetypeTableRecord
  2
CENTER
 70
     0
  3
____ _ ____ _ ____ _ ____ _ ____ _ ____ _ ____ 
 72
    65
 73
     4
 40
2.0
 49
1.25
 74
     0
 49
-0.25
 74
     0
 49
0.25
 74
     0
 49
-0.25
 74
     0
  0
ENDTAB
  0
TABLE
  2
LAYER
  5
4BC
330
0
100
AcDbSymbolTable
 70
     9
  0
LAYER
  5
4
330
4BC
100
AcDbSymbolTableRecord
100
AcDbLayerTableRecord
  2
0
 70
     0
 62
     7
  6
CONTINUOUS
370
    -3
390
5
  0
LAYER
  5
1AD
330
4BC
100
AcDbSymbolTableRecord
100
AcDbLayerTableRecord
  2
4
 70
     0
 62
     7
  6
CONTINUOUS
370
    -3
390
5
  0
LAYER
  5
19E
330
4BC
100
AcDbSymbolTableRecord
100
AcDbLayerTableRecord
  2
5
 70
     0
 62
     7
  6
CONTINUOUS
370
    -3
390
5
  0
LAYER
  5
439
330
4BC
100
AcDbSymbolTableRecord
100
AcDbLayerTableRecord
  2
Defpoints
 70
     0
 62
     7
  6
CONTINUOUS
290
     0
370
    -3
390
5
  0
LAYER
  5
42C
330
4BC
100
AcDbSymbolTableRecord
100
AcDbLayerTableRecord
  2
DIM
 70
     0
 62
     7
  6
CONTINUOUS
370
    -3
390
5
  0
LAYER
  5
423
330
4BC
100
AcDbSymbolTableRecord
100
AcDbLayerTableRecord
  2
Hatch
 70
     0
 62
     8
  6
CONTINUOUS
370
    -3
390
5
  0
LAYER
  5
1139
330
4BC
100
AcDbSymbolTableRecord
100
AcDbLayerTableRecord
  2
2
 70
     0
 62
     7
  6
CONTINUOUS
370
    -3
390
5
  0
LAYER
  5
113A
330
4BC
100
AcDbSymbolTableRecord
100
AcDbLayerTableRecord
  2
3
 70
     0
 62
     7
  6
CONTINUOUS
370
    -3
390
5
  0
LAYER
  5
113B
330
4BC
100
AcDbSymbolTableRecord
100
AcDbLayerTableRecord
  2
1
 70
     0
 62
     7
  6
CONTINUOUS
370
    -3
390
5
  0
ENDTAB
  0
TABLE
  2
STYLE
  5
4BD
330
0
100
AcDbSymbolTable
 70
     5
  0
STYLE
  5
3CF
330
4BD
100
AcDbSymbolTableRecord
100
AcDbTextStyleTableRecord
  2
STANDARD
 70
     0
 40
0.0
 41
1.0
 50
0.0
 71
     0
 42
0.25
  3
architec.shx
  4

  0
STYLE
  5
19F
330
4BD
100
AcDbSymbolTableRecord
100
AcDbTextStyleTableRecord
  2
ROMANS
 70
     0
 40
0.1875
 41
0.8
 50
0.0
 71
     0
 42
0.1875
  3
architec.shx
  4

  0
STYLE
  5
402
330
4BD
100
AcDbSymbolTableRecord
100
AcDbTextStyleTableRecord
  2
ADESK1
 70
     0
 40
0.0
 41
0.8
 50
0.0
 71
     0
 42
0.25
  3
architec.shx
  4

  0
STYLE
  5
3E0
330
4BD
100
AcDbSymbolTableRecord
100
AcDbTextStyleTableRecord
  2
TITLE
 70
     0
 40
0.0
 41
1.0
 50
0.0
 71
     0
 42
0.32668537629849
  3
romand.shx
  4

  0
STYLE
  5
E47
330
4BD
100
AcDbSymbolTableRecord
100
AcDbTextStyleTableRecord
  2
style1
 70
     0
 40
0.1875
 41
1.0
 50
0.0
 71
     0
 42
0.1875
  3
romand.shx
  4

  0
ENDTAB
  0
TABLE
  2
VIEW
  5
4C2
330
0
100
AcDbSymbolTable
 70
     0
  0
ENDTAB
  0
TABLE
  2
UCS
  5
4C3
330
0
100
AcDbSymbolTable
 70
     0
  0
ENDTAB
  0
TABLE
  2
APPID
  5
4C6
330
0
100
AcDbSymbolTable
 70
     1
  0
APPID
  5
43E
330
4C6
100
AcDbSymbolTableRecord
100
AcDbRegAppTableRecord
  2
ACAD
 70
     0
  0
ENDTAB
  0
TABLE
  2
DIMSTYLE
  5
4C7
330
0
100
AcDbSymbolTable
 70
     2
100
AcDbDimStyleTable
 71
     2
340
143D
340
430
  0
DIMSTYLE
105
430
102
{ACAD_REACTORS
330
132A
330
13AC
330
139E
102
}
330
4C7
100
AcDbSymbolTableRecord
100
AcDbDimStyleTableRecord
  2
STANDARD
 70
     0
 41
0.125
 42
0.125
 43
0.375
 44
0.125
140
0.125
141
0.0625
147
0.0625
171
     1
173
     1
174
     1
271
     2
272
     2
274
     1
277
     4
279
     2
340
3CF
341
C12
343
C12
344
C12
  0
DIMSTYLE
105
143D
330
4C7
100
AcDbSymbolTableRecord
100
AcDbDimStyleTableRecord
  2
STANDARD$0
 70
     0
 41
0.08
 44
0.0625
 73
     0
 74
     0
 77
     1
140
0.08
141
0.0
147
0.035
172
     1
271
     5
272
     5
276
     2
277
     5
340
3CF
  0
ENDTAB
  0
TABLE
  2
BLOCK_RECORD
  5
1
330
0
100
AcDbSymbolTable
 70
    10
  0
BLOCK_RECORD
  5
2
102
{ACAD_XDICTIONARY
360
47A
102
}
330
1
100
AcDbSymbolTableRecord
100
AcDbBlockTableRecord
  2
*MODEL_SPACE
340
47E
  0
BLOCK_RECORD
  5
480
102
{ACAD_XDICTIONARY
360
4B7
102
}
330
1
100
AcDbSymbolTableRecord
100
AcDbBlockTableRecord
  2
*PAPER_SPACE
340
4BB
  0
BLOCK_RECORD
  5
485
330
1
100
AcDbSymbolTableRecord
100
AcDbBlockTableRecord
  2
ansi_v
340
0
102
{BLKREFS
331
484
102
}
  0
BLOCK_RECORD
  5
42D
330
1
100
AcDbSymbolTableRecord
100
AcDbBlockTableRecord
  2
_None
340
0
  0
BLOCK_RECORD
  5
440
330
1
100
AcDbSymbolTableRecord
100
AcDbBlockTableRecord
  2
_DotSmall
340
0
  0
BLOCK_RECORD
  5
C12
330
1
100
AcDbSymbolTableRecord
100
AcDbBlockTableRecord
  2
_ARCHTICK
340
0
102
{BLKREFS
331
132F
331
1330
331
1343
331
1344
331
1370
331
1371
331
13A3
331
13A4
331
13B1
331
13B2
102
}
  0
BLOCK_RECORD
  5
E8E
330
1
100
AcDbSymbolTableRecord
100
AcDbBlockTableRecord
  2
A$C65655757
340
0
  0
BLOCK_RECORD
  5
113C
330
1
100
AcDbSymbolTableRecord
100
AcDbBlockTableRecord
  2
sol_t profile
340
0
  0
BLOCK_RECORD
  5
132B
330
1
100
AcDbSymbolTableRecord
100
AcDbBlockTableRecord
  2
*D6
340
0
  0
BLOCK_RECORD
  5
139F
330
1
100
AcDbSymbolTableRecord
100
AcDbBlockTableRecord
  2
*D7
340
0
  0
BLOCK_RECORD
  5
13AD
330
1
100
AcDbSymbolTableRecord
100
AcDbBlockTableRecord
  2
*D8
340
0
  0
BLOCK_RECORD
  5
13EA
330
1
100
AcDbSymbolTableRecord
100
AcDbBlockTableRecord
  2
A$C612D7DA8
340
0
  0
ENDTAB
  0
ENDSEC
  0
SECTION
  2
BLOCKS
  0
BLOCK
  5
47C
330
2
100
AcDbEntity
  8
0
100
AcDbBlockBegin
  2
*MODEL_SPACE
 70
     0
 10
0.0
 20
0.0
 30
0.0
  3
*MODEL_SPACE
  1

  0
ENDBLK
  5
47D
330
2
100
AcDbEntity
  8
0
100
AcDbBlockEnd
  0
BLOCK
  5
4B9
330
480
100
AcDbEntity
 67
     1
  8
0
100
AcDbBlockBegin
  2
*PAPER_SPACE
 70
     0
 10
0.0
 20
0.0
 30
0.0
  3
*PAPER_SPACE
  1

  0
ENDBLK
  5
4BA
330
480
100
AcDbEntity
 67
     1
  8
0
100
AcDbBlockEnd
  0
BLOCK
  5
4B5
330
485
100
AcDbEntity
  8
0
100
AcDbBlockBegin
  2
ansi_v
 70
     0
 10
0.0
 20
0.0
 30
0.0
  3
ansi_v
  1

  0
LINE
  5
486
330
485
100
AcDbEntity
  8
0
100
AcDbLine
 10
0.0
 20
0.0
 30
0.0
 11
8.5
 21
0.0
 31
0.0
  0
LINE
  5
487
330
485
100
AcDbEntity
  8
0
100
AcDbLine
 10
8.5
 20
0.0
 30
0.0
 11
8.5
 21
11.0
 31
0.0
  0
LINE
  5
488
330
485
100
AcDbEntity
  8
0
100
AcDbLine
 10
8.5
 20
11.0
 30
0.0
 11
0.0
 21
11.0
 31
0.0
  0
LINE
  5
489
330
485
100
AcDbEntity
  8
0
100
AcDbLine
 10
0.0
 20
11.0
 30
0.0
 11
0.0
 21
0.0
 31
0.0
  0
LINE
  5
48A
330
485
100
AcDbEntity
  8
0
100
AcDbLine
 10
0.38
 20
0.25
 30
0.0
 11
8.119999999999999
 21
0.25
 31
0.0
  0
LINE
  5
48B
330
485
100
AcDbEntity
  8
0
100
AcDbLine
 10
8.119999999999999
 20
0.25
 30
0.0
 11
8.119999999999999
 21
10.74999999999999
 31
0.0
  0
LINE
  5
48C
330
485
100
AcDbEntity
  8
0
100
AcDbLine
 10
8.119999999999999
 20
10.74999999999999
 30
0.0
 11
0.38
 21
10.74999999999999
 31
0.0
  0
LINE
  5
48D
330
485
100
AcDbEntity
  8
0
100
AcDbLine
 10
0.38
 20
10.74999999999999
 30
0.0
 11
0.38
 21
0.25
 31
0.0
  0
LWPOLYLINE
  5
48E
330
485
100
AcDbEntity
  8
0
100
AcDbPolyline
 90
        2
 70
     0
 43
0.02
 10
4.25
 20
0.0
 10
4.25
 20
0.1
  0
SOLID
  5
48F
330
485
100
AcDbEntity
  8
0
100
AcDbTrace
 10
4.099999999999999
 20
0.1
 30
0.0
 11
4.4
 21
0.1
 31
0.0
 12
4.25
 22
0.25
 32
0.0
 13
4.25
 23
0.25
 33
0.0
  0
LWPOLYLINE
  5
490
330
485
100
AcDbEntity
  8
0
100
AcDbPolyline
 90
        2
 70
     0
 43
0.02
 10
8.369999999999999
 20
5.5
 10
8.269999999999999
 20
5.5
  0
SOLID
  5
491
330
485
100
AcDbEntity
  8
0
100
AcDbTrace
 10
8.269999999999999
 20
5.349999999999999
 30
0.0
 11
8.269999999999999
 21
5.65
 31
0.0
 12
8.119999999999999
 22
5.5
 32
0.0
 13
8.119999999999999
 23
5.5
 33
0.0
  0
LWPOLYLINE
  5
492
330
485
100
AcDbEntity
  8
0
100
AcDbPolyline
 90
        2
 70
     0
 43
0.02
 10
4.25
 20
11.0
 10
4.25
 20
10.9
  0
SOLID
  5
493
330
485
100
AcDbEntity
  8
0
100
AcDbTrace
 10
4.099999999999999
 20
10.9
 30
0.0
 11
4.4
 21
10.9
 31
0.0
 12
4.25
 22
10.74999999999999
 32
0.0
 13
4.25
 23
10.74999999999999
 33
0.0
  0
LWPOLYLINE
  5
494
330
485
100
AcDbEntity
  8
0
100
AcDbPolyline
 90
        2
 70
     0
 43
0.02
 10
0.13
 20
5.5
 10
0.23
 20
5.5
  0
SOLID
  5
495
330
485
100
AcDbEntity
  8
0
100
AcDbTrace
 10
0.23
 20
5.349999999999999
 30
0.0
 11
0.23
 21
5.65
 31
0.0
 12
0.38
 22
5.5
 32
0.0
 13
0.38
 23
5.5
 33
0.0
  0
LINE
  5
496
330
485
100
AcDbEntity
  8
0
100
AcDbLine
 10
1.87
 20
0.25
 30
0.0
 11
1.87
 21
2.0
 31
0.0
  0
LINE
  5
497
330
485
100
AcDbEntity
  8
0
100
AcDbLine
 10
1.87
 20
2.0
 30
0.0
 11
8.119999999999999
 21
2.0
 31
0.0
  0
LINE
  5
498
330
485
100
AcDbEntity
  8
0
100
AcDbLine
 10
1.87
 20
0.565
 30
0.0
 11
3.87
 21
0.565
 31
0.0
  0
LINE
  5
499
330
485
100
AcDbEntity
  8
0
100
AcDbLine
 10
1.87
 20
0.88
 30
0.0
 11
8.119999999999999
 21
0.88
 31
0.0
  0
LINE
  5
49A
330
485
100
AcDbEntity
  8
0
100
AcDbLine
 10
3.87
 20
0.5
 30
0.0
 11
8.119999999999999
 21
0.5
 31
0.0
  0
LINE
  5
49B
330
485
100
AcDbEntity
  8
0
100
AcDbLine
 10
3.87
 20
1.5
 30
0.0
 11
8.119999999999999
 21
1.5
 31
0.0
  0
LINE
  5
49C
330
485
100
AcDbEntity
  8
0
100
AcDbLine
 10
3.87
 20
0.25
 30
0.0
 11
3.87
 21
2.0
 31
0.0
  0
LINE
  5
49D
330
485
100
AcDbEntity
  8
0
100
AcDbLine
 10
4.87
 20
0.25
 30
0.0
 11
4.87
 21
0.5
 31
0.0
  0
LINE
  5
49E
330
485
100
AcDbEntity
  8
0
100
AcDbLine
 10
6.37
 20
0.25
 30
0.0
 11
6.37
 21
0.5
 31
0.0
  0
LINE
  5
49F
330
485
100
AcDbEntity
  8
0
100
AcDbLine
 10
4.25
 20
0.5
 30
0.0
 11
4.25
 21
0.88
 31
0.0
  0
LINE
  5
4A0
330
485
100
AcDbEntity
  8
0
100
AcDbLine
 10
5.37
 20
0.5
 30
0.0
 11
5.37
 21
0.88
 31
0.0
  0
LINE
  5
4A1
330
485
100
AcDbEntity
  8
0
100
AcDbLine
 10
7.74
 20
0.5
 30
0.0
 11
7.74
 21
0.88
 31
0.0
  0
TEXT
  5
4A2
330
485
100
AcDbEntity
  8
0
100
AcDbText
 10
3.922299999999999
 20
0.3425
 30
0.0
 40
0.065
  1
Scale
  7
ADESK1
100
AcDbText
  0
TEXT
  5
4A3
330
485
100
AcDbEntity
  8
0
100
AcDbText
 10
6.422799999999999
 20
0.3425
 30
0.0
 40
0.065
  1
Sheet
  7
ADESK1
100
AcDbText
  0
TEXT
  5
4A4
330
485
100
AcDbEntity
  8
0
100
AcDbText
 10
3.9579
 20
0.7659000000000001
 30
0.0
 40
0.065
  1
SIZE
  7
ADESK1
100
AcDbText
  0
TEXT
  5
4A5
330
485
100
AcDbEntity
  8
0
100
AcDbText
 10
4.3189
 20
0.7659000000000001
 30
0.0
 40
0.065
  1
FSCM NO.
  7
ADESK1
100
AcDbText
  0
TEXT
  5
4A6
330
485
100
AcDbEntity
  8
0
100
AcDbText
 10
5.440999999999999
 20
0.7659000000000001
 30
0.0
 40
0.065
  1
DWG NO.
  7
ADESK1
100
AcDbText
  0
TEXT
  5
4A7
330
485
100
AcDbEntity
  8
0
100
AcDbText
 10
7.8205
 20
0.7659000000000001
 30
0.0
 40
0.065
  1
REV
  7
ADESK1
100
AcDbText
  0
LINE
  5
4A8
330
485
100
AcDbEntity
  8
0
100
AcDbLine
 10
2.62
 20
10.5
 30
0.0
 11
8.119999999999999
 21
10.5
 31
0.0
  0
LINE
  5
4A9
330
485
100
AcDbEntity
  8
0
100
AcDbLine
 10
2.62
 20
10.25
 30
0.0
 11
8.119999999999999
 21
10.25
 31
0.0
  0
LINE
  5
4AA
330
485
100
AcDbEntity
  8
0
100
AcDbLine
 10
2.62
 20
10.74999999999999
 30
0.0
 11
2.62
 21
9.7027
 31
0.0
  0
LINE
  5
4AB
330
485
100
AcDbEntity
  8
0
100
AcDbLine
 10
3.12
 20
10.25
 30
0.0
 11
3.12
 21
10.5
 31
0.0
  0
LINE
  5
4AC
330
485
100
AcDbEntity
  8
0
100
AcDbLine
 10
3.5
 20
10.25
 30
0.0
 11
3.5
 21
10.5
 31
0.0
  0
LINE
  5
4AD
330
485
100
AcDbEntity
  8
0
100
AcDbLine
 10
6.24
 20
10.25
 30
0.0
 11
6.24
 21
10.5
 31
0.0
  0
LINE
  5
4AE
330
485
100
AcDbEntity
  8
0
100
AcDbLine
 10
7.12
 20
10.25
 30
0.0
 11
7.12
 21
10.5
 31
0.0
  0
TEXT
  5
4AF
330
485
100
AcDbEntity
  8
0
100
AcDbText
 10
5.330199999999999
 20
10.58249999999999
 30
0.0
 40
0.065
  1
REVISIONS
  7
ADESK1
100
AcDbText
  0
TEXT
  5
4B0
330
485
100
AcDbEntity
  8
0
100
AcDbText
 10
2.728699999999999
 20
10.3403
 30
0.0
 40
0.065
  1
ZONE
  7
ADESK1
100
AcDbText
  0
TEXT
  5
4B1
330
485
100
AcDbEntity
  8
0
100
AcDbText
 10
3.200099999999999
 20
10.3403
 30
0.0
 40
0.065
  1
REV
  7
ADESK1
100
AcDbText
  0
TEXT
  5
4B2
330
485
100
AcDbEntity
  8
0
100
AcDbText
 10
4.501999999999999
 20
10.3403
 30
0.0
 40
0.065
  1
DESCRIPTION
  7
ADESK1
100
AcDbText
  0
TEXT
  5
4B3
330
485
100
AcDbEntity
  8
0
100
AcDbText
 10
6.5677
 20
10.3403
 30
0.0
 40
0.065
  1
Date
  7
ADESK1
100
AcDbText
  0
TEXT
  5
4B4
330
485
100
AcDbEntity
  8
0
100
AcDbText
 10
7.361399999999999
 20
10.3403
 30
0.0
 40
0.065
  1
APPROVED
  7
ADESK1
100
AcDbText
  0
ENDBLK
  5
4B6
330
485
100
AcDbEntity
  8
0
100
AcDbBlockEnd
  0
BLOCK
  5
42E
330
42D
100
AcDbEntity
  8
0
100
AcDbBlockBegin
  2
_None
 70
     0
 10
0.0
 20
0.0
 30
0.0
  3
_None
  1

  0
ENDBLK
  5
42F
330
42D
100
AcDbEntity
  8
0
100
AcDbBlockEnd
  0
BLOCK
  5
442
330
440
100
AcDbEntity
  8
0
100
AcDbBlockBegin
  2
_DotSmall
 70
     0
 10
0.0
 20
0.0
 30
0.0
  3
_DotSmall
  1

  0
LWPOLYLINE
  5
441
330
440
100
AcDbEntity
  8
Hatch
 62
     0
100
AcDbPolyline
 90
        2
 70
     1
 43
0.5
 10
-0.0625
 20
0.0
 42
1.0
 10
0.0625
 20
0.0
 42
1.0
  0
ENDBLK
  5
443
330
440
100
AcDbEntity
  8
0
100
AcDbBlockEnd
  0
BLOCK
  5
C13
330
C12
100
AcDbEntity
  8
0
100
AcDbBlockBegin
  2
_ARCHTICK
 70
     0
 10
0.0
 20
0.0
 30
0.0
  3
_ARCHTICK
  1

  0
LWPOLYLINE
  5
C14
330
C12
100
AcDbEntity
  8
0
  6
ByBlock
 62
     0
100
AcDbPolyline
 90
        2
 70
     0
 43
0.15
 10
-0.5
 20
-0.5
 10
0.5
 20
0.5
  0
ENDBLK
  5
C18
330
C12
100
AcDbEntity
  8
0
100
AcDbBlockEnd
  0
BLOCK
  5
E97
330
E8E
100
AcDbEntity
  8
0
100
AcDbBlockBegin
  2
A$C65655757
 70
     0
 10
0.0
 20
0.0
 30
0.0
  3
A$C65655757
  1

  0
TEXT
  5
E8F
330
E8E
100
AcDbEntity
  8
5
  6
Continuous
 62
     7
370
    30
100
AcDbText
 10
-0.0111139013349089
 20
2.65912195243645
 30
-2.3346
 40
0.375
  1
ADVANCED GLAZINGS Ltd.
 41
0.8
  7
style1
 11
-0.0111139013349089
 21
2.84662195243645
 31
-2.3346
100
AcDbText
 73
     2
  0
TEXT
  5
E90
330
E8E
100
AcDbEntity
  8
0
100
AcDbText
 10
0.0393205943543649
 20
-0.0000000212489294
 30
7.003999999999999
 40
0.195
  1
CSI UNIFORM DRAWING SYSTEM 2000
  7
style1
 11
0.0393205943543649
 21
0.1949999787510705
 31
7.003999999999999
100
AcDbText
 73
     3
  0
TEXT
  5
E91
330
E8E
100
AcDbEntity
  8
0
100
AcDbText
 10
0.0393205943543649
 20
0.3076200495211554
 30
7.003999999999999
 40
0.195
  1
DRAWINGS CONFORM TO
  7
style1
 11
0.0393205943543649
 21
0.5026200495211555
 31
7.003999999999999
100
AcDbText
 73
     3
  0
TEXT
  5
E92
330
E8E
100
AcDbEntity
  8
5
  6
Continuous
 62
     7
100
AcDbText
 10
-0.003116681697918
 20
2.24356586670801
 30
7.003999999999999
 40
0.1875
  1
SYDNEY , NOVA SCOTIA
  7
style1
 11
-0.003116681697918
 21
2.43106586670801
 31
7.003999999999999
100
AcDbText
 73
     3
  0
TEXT
  5
E93
330
E8E
100
AcDbEntity
  8
5
  6
Continuous
 62
     7
100
AcDbText
 10
-0.003116681697918
 20
1.887253649928922
 30
7.003999999999999
 40
0.1875
  1
CANADA
  7
style1
 11
-0.003116681697918
 21
2.074753649928922
 31
7.003999999999999
100
AcDbText
 73
     3
  0
TEXT
  5
E94
330
E8E
100
AcDbEntity
  8
DIM
 62
     7
100
AcDbText
 10
-0.003116681697918
 20
3.489213974989991
 30
7.003999999999999
 40
0.187
  1
DIMENSIONS IN INCHES  
 41
0.8
  7
ADESK1
 11
-0.003116681697918
 21
3.676213974989991
 31
7.003999999999999
100
AcDbText
 73
     3
  0
TEXT
  5
E95
330
E8E
100
AcDbEntity
  8
0
100
AcDbText
 10
0.0130734016746885
 20
0.8627432887918262
 30
11.67329999999999
 40
0.195
  1
ADVANCED GLAZINGS LTD.
  7
style1
 11
0.0130734016746885
 21
1.057743288791826
 31
11.67329999999999
100
AcDbText
 73
     3
  0
TEXT
  5
E96
330
E8E
100
AcDbEntity
  8
0
100
AcDbText
 10
0.0130734016746885
 20
1.16395665126975
 30
11.67329999999999
 40
0.195
  1
SOLERA IS A REGISTERED TRADEMARK
  7
style1
 11
0.0130734016746885
 21
1.35895665126975
 31
11.67329999999999
100
AcDbText
 73
     3
  0
ENDBLK
  5
E98
330
E8E
100
AcDbEntity
  8
0
100
AcDbBlockEnd
  0
BLOCK
  5
1229
330
113C
100
AcDbEntity
  8
0
100
AcDbBlockBegin
  2
sol_t profile
 70
     0
 10
0.0
 20
0.0
 30
0.0
  3
sol_t profile
  1

  0
LINE
  5
113D
330
113C
100
AcDbEntity
  8
2
  6
Continuous
 62
     7
100
AcDbLine
 10
15.07240589726958
 20
18.43774384109204
 30
12.121909
 11
14.82735389726958
 21
18.68279584109204
 31
12.121909
  0
LINE
  5
113E
330
113C
100
AcDbEntity
  8
2
  6
Continuous
 62
     7
100
AcDbLine
 10
15.00169689726958
 20
18.43774384109204
 30
12.121909
 11
14.75664589726958
 21
18.68279584109204
 31
12.121909
  0
LINE
  5
113F
330
113C
100
AcDbEntity
  8
2
  6
Continuous
 62
     7
100
AcDbLine
 10
14.93098389726958
 20
18.43774384109204
 30
12.121909
 11
14.68593289726958
 21
18.68279584109204
 31
12.121909
  0
LINE
  5
1140
330
113C
100
AcDbEntity
  8
2
  6
Continuous
 62
     7
100
AcDbLine
 10
14.86027589726958
 20
18.43774384109204
 30
12.121909
 11
14.61522389726958
 21
18.68279584109204
 31
12.121909
  0
LWPOLYLINE
  5
1141
330
113C
100
AcDbEntity
  8
2
  6
Continuous
 62
     7
100
AcDbPolyline
 90
        4
 70
     1
 43
0.0
 38
12.121909
 10
14.01538589726958
 20
18.68279584109204
 10
14.01538589726958
 20
18.43774384109204
 10
15.17670889726958
 20
18.43774384109204
 10
15.17670889726958
 20
18.68279584109204
  0
LINE
  5
1142
330
113C
100
AcDbEntity
  8
5
  6
Continuous
 62
     7
100
AcDbLine
 10
14.36733089726958
 20
17.12834429319726
 30
12.121909
 11
16.87333089726958
 21
17.12834429319726
 31
12.121909
  0
LINE
  5
1143
330
113C
100
AcDbEntity
  8
5
  6
HIDDEN
 62
     7
100
AcDbLine
 10
14.36733089726958
 20
16.87834429319726
 30
12.121909
 11
16.87333089726958
 21
16.87834429319726
 31
12.121909
  0
LINE
  5
1144
330
113C
100
AcDbEntity
  8
5
  6
HIDDEN
 62
     7
100
AcDbLine
 10
14.36733089726958
 20
16.62834429319726
 30
12.121909
 11
16.87333089726958
 21
16.62834429319726
 31
12.121909
  0
LINE
  5
1145
330
113C
100
AcDbEntity
  8
5
  6
Continuous
 62
     7
100
AcDbLine
 10
14.36733089726958
 20
16.35000809043034
 30
12.121909
 11
16.87333089726958
 21
16.35000809043034
 31
12.121909
  0
LINE
  5
1146
330
113C
100
AcDbEntity
  8
5
  6
HIDDEN
 62
     7
100
AcDbLine
 10
14.36733089726958
 20
15.35000809043034
 30
12.121909
 11
16.87333089726958
 21
15.35000809043034
 31
12.121909
  0
LINE
  5
1147
330
113C
100
AcDbEntity
  8
5
  6
Continuous
 62
     7
100
AcDbLine
 10
14.36733089726958
 20
15.60000809043034
 30
12.121909
 11
16.87333089726958
 21
15.60000809043034
 31
12.121909
  0
LINE
  5
1148
330
113C
100
AcDbEntity
  8
5
  6
HIDDEN
 62
     7
100
AcDbLine
 10
14.36733089726958
 20
15.85000809043034
 30
12.121909
 11
16.87333089726958
 21
15.85000809043034
 31
12.121909
  0
LINE
  5
1149
330
113C
100
AcDbEntity
  8
5
  6
HIDDEN
 62
     7
100
AcDbLine
 10
14.36733089726958
 20
16.10000809043034
 30
12.121909
 11
16.87333089726958
 21
16.10000809043034
 31
12.121909
  0
3DFACE
  5
114A
330
113C
100
AcDbEntity
  8
1
  6
Continuous
 62
     7
100
AcDbFace
 10
14.67397289726958
 20
18.42693784109204
 30
12.121909
 11
14.44531889726958
 21
17.79290484109203
 31
12.121909
 12
15.17983089726958
 22
17.62279584109204
 32
12.121909
 13
15.09144189726958
 23
17.71940684109203
 33
12.121909
 70
    13
  0
3DFACE
  5
114B
330
113C
100
AcDbEntity
  8
1
  6
Continuous
 62
     7
100
AcDbFace
 10
14.67397289726958
 20
18.42693784109204
 30
12.121909
 11
15.09144189726958
 21
17.71940684109203
 31
12.121909
 12
15.05483089726958
 22
17.80779584109204
 32
12.121909
 13
14.68811389726958
 23
18.43279584109204
 33
12.121909
 70
     5
  0
3DFACE
  5
114C
330
113C
100
AcDbEntity
  8
1
  6
Continuous
 62
     7
100
AcDbFace
 10
14.68811389726958
 20
18.43279584109204
 30
12.121909
 11
15.05483089726958
 21
17.80779584109204
 31
12.121909
 12
15.05483089726958
 22
18.41279584109203
 32
12.121909
 13
15.03483089726958
 23
18.43279584109204
 33
12.121909
 70
     1
  0
LINE
  5
114D
330
113C
100
AcDbEntity
  8
5
  6
HIDDEN
 62
     7
100
AcDbLine
 10
14.36733089726958
 20
17.62834429319726
 30
12.121909
 11
15.17983089726958
 21
17.62834429319726
 31
12.121909
  0
3DFACE
  5
114E
330
113C
100
AcDbEntity
  8
1
  6
Continuous
 62
     7
100
AcDbFace
 10
14.68639789726958
 20
18.39693584109204
 30
12.121909
 11
14.47531889726958
 21
17.81675384109203
 31
12.121909
 12
15.00031889726958
 22
17.69516584109203
 32
12.121909
 13
14.70054289726958
 23
18.40279584109204
 33
12.121909
 70
     5
  0
3DFACE
  5
114F
330
113C
100
AcDbEntity
  8
1
  6
Continuous
 62
     7
100
AcDbFace
 10
14.70054289726958
 20
18.40279584109204
 30
12.121909
 11
15.00031889726958
 21
17.69516584109203
 31
12.121909
 12
15.01727589726958
 22
17.69899384109203
 32
12.121909
 13
15.00483089726958
 23
18.40279584109204
 33
12.121909
 70
     5
  0
LINE
  5
1150
330
113C
100
AcDbEntity
  8
5
  6
HIDDEN
 62
     7
100
AcDbLine
 10
14.36733089726958
 20
17.37834429319726
 30
12.121909
 11
16.23534394171945
 21
17.37834429319726
 31
12.121909
  0
LINE
  5
1151
330
113C
100
AcDbEntity
  8
5
  6
HIDDEN
 62
     7
100
AcDbLine
 10
14.36733089726958
 20
5.082756390024307
 30
12.121909
 11
16.23534394171945
 21
5.082756390024307
 31
12.121909
  0
3DFACE
  5
1152
330
113C
100
AcDbEntity
  8
1
  6
Continuous
 62
     7
100
AcDbFace
 10
14.70054289726958
 20
4.05830484212953
 30
12.121909
 11
15.00031889726958
 21
4.765934842129539
 31
12.121909
 12
15.01727589726958
 22
4.76210684212954
 32
12.121909
 13
15.00483089726958
 23
4.05830484212953
 33
12.121909
 70
     5
  0
3DFACE
  5
1153
330
113C
100
AcDbEntity
  8
1
  6
Continuous
 62
     7
100
AcDbFace
 10
14.68639789726958
 20
4.064164842129528
 30
12.121909
 11
14.47531889726958
 21
4.644346842129536
 31
12.121909
 12
15.00031889726958
 22
4.765934842129539
 32
12.121909
 13
14.70054289726958
 23
4.05830484212953
 33
12.121909
 70
     5
  0
LINE
  5
1154
330
113C
100
AcDbEntity
  8
5
  6
HIDDEN
 62
     7
100
AcDbLine
 10
14.36733089726958
 20
4.832756390024307
 30
12.121909
 11
15.17983089726958
 21
4.832756390024307
 31
12.121909
  0
3DFACE
  5
1155
330
113C
100
AcDbEntity
  8
1
  6
Continuous
 62
     7
100
AcDbFace
 10
14.68811389726958
 20
4.028304842129529
 30
12.121909
 11
15.05483089726958
 21
4.653304842129529
 31
12.121909
 12
15.05483089726958
 22
4.048304842129539
 32
12.121909
 13
15.03483089726958
 23
4.028304842129529
 33
12.121909
 70
     1
  0
3DFACE
  5
1156
330
113C
100
AcDbEntity
  8
1
  6
Continuous
 62
     7
100
AcDbFace
 10
14.67397289726958
 20
4.034162842129532
 30
12.121909
 11
15.09144189726958
 21
4.741693842129535
 31
12.121909
 12
15.05483089726958
 22
4.653304842129529
 32
12.121909
 13
14.68811389726958
 23
4.028304842129529
 33
12.121909
 70
     5
  0
3DFACE
  5
1157
330
113C
100
AcDbEntity
  8
1
  6
Continuous
 62
     7
100
AcDbFace
 10
14.67397289726958
 20
4.034162842129532
 30
12.121909
 11
14.44531889726958
 21
4.668195842129534
 31
12.121909
 12
15.17983089726958
 22
4.838304842129531
 32
12.121909
 13
15.09144189726958
 23
4.741693842129535
 33
12.121909
 70
    13
  0
LINE
  5
1158
330
113C
100
AcDbEntity
  8
5
  6
HIDDEN
 62
     7
100
AcDbLine
 10
14.36733089726958
 20
6.36109259279123
 30
12.121909
 11
16.87333089726958
 21
6.36109259279123
 31
12.121909
  0
LINE
  5
1159
330
113C
100
AcDbEntity
  8
5
  6
HIDDEN
 62
     7
100
AcDbLine
 10
14.36733089726958
 20
6.61109259279123
 30
12.121909
 11
16.87333089726958
 21
6.61109259279123
 31
12.121909
  0
LINE
  5
115A
330
113C
100
AcDbEntity
  8
5
  6
Continuous
 62
     7
100
AcDbLine
 10
14.36733089726958
 20
6.86109259279123
 30
12.121909
 11
16.87333089726958
 21
6.86109259279123
 31
12.121909
  0
LINE
  5
115B
330
113C
100
AcDbEntity
  8
5
  6
HIDDEN
 62
     7
100
AcDbLine
 10
14.36733089726958
 20
7.11109259279123
 30
12.121909
 11
16.87333089726958
 21
7.11109259279123
 31
12.121909
  0
LINE
  5
115C
330
113C
100
AcDbEntity
  8
5
  6
Continuous
 62
     7
100
AcDbLine
 10
14.36733089726958
 20
6.11109259279123
 30
12.121909
 11
16.87333089726958
 21
6.11109259279123
 31
12.121909
  0
LINE
  5
115D
330
113C
100
AcDbEntity
  8
5
  6
HIDDEN
 62
     7
100
AcDbLine
 10
14.36733089726958
 20
5.832756390024307
 30
12.121909
 11
16.87333089726958
 21
5.832756390024307
 31
12.121909
  0
LINE
  5
115E
330
113C
100
AcDbEntity
  8
5
  6
HIDDEN
 62
     7
100
AcDbLine
 10
14.36733089726958
 20
5.582756390024307
 30
12.121909
 11
16.87333089726958
 21
5.582756390024307
 31
12.121909
  0
LINE
  5
115F
330
113C
100
AcDbEntity
  8
5
  6
Continuous
 62
     7
100
AcDbLine
 10
14.36733089726958
 20
5.332756390024307
 30
12.121909
 11
16.87333089726958
 21
5.332756390024307
 31
12.121909
  0
LWPOLYLINE
  5
1160
330
113C
100
AcDbEntity
  8
2
  6
Continuous
 62
     7
100
AcDbPolyline
 90
        4
 70
     1
 43
0.0
 38
12.121909
 10
14.01538589726958
 20
3.778304842129529
 10
14.01538589726958
 20
4.02335684212953
 10
15.17670889726958
 20
4.02335684212953
 10
15.17670889726958
 20
3.778304842129529
  0
LINE
  5
1161
330
113C
100
AcDbEntity
  8
2
  6
Continuous
 62
     7
100
AcDbLine
 10
14.86027589726958
 20
4.02335684212953
 30
12.121909
 11
14.61522389726958
 21
3.778304842129529
 31
12.121909
  0
LINE
  5
1162
330
113C
100
AcDbEntity
  8
2
  6
Continuous
 62
     7
100
AcDbLine
 10
14.93098389726958
 20
4.02335684212953
 30
12.121909
 11
14.68593289726958
 21
3.778304842129529
 31
12.121909
  0
LINE
  5
1163
330
113C
100
AcDbEntity
  8
2
  6
Continuous
 62
     7
100
AcDbLine
 10
15.00169689726958
 20
4.02335684212953
 30
12.121909
 11
14.75664589726958
 21
3.778304842129529
 31
12.121909
  0
LINE
  5
1164
330
113C
100
AcDbEntity
  8
2
  6
Continuous
 62
     7
100
AcDbLine
 10
15.07240589726958
 20
4.02335684212953
 30
12.121909
 11
14.82735389726958
 21
3.778304842129529
 31
12.121909
  0
3DFACE
  5
1165
330
113C
100
AcDbEntity
  8
1
  6
Continuous
 62
     7
100
AcDbFace
 10
14.46568889726958
 20
4.284871842129533
 30
12.121909
 11
14.46417489726958
 21
4.637306842129532
 31
12.121909
 12
14.47531889726958
 22
4.644346842129536
 32
12.121909
 13
14.68639789726958
 23
4.064164842129528
 33
12.121909
 70
     5
  0
3DFACE
  5
1166
330
113C
100
AcDbEntity
  8
1
  6
Continuous
 62
     7
100
AcDbFace
 10
14.43568889726958
 20
4.272446842129539
 30
12.121909
 11
14.42983089726958
 21
4.648710842129545
 31
12.121909
 12
14.44531889726958
 22
4.668195842129534
 32
12.121909
 13
14.67397289726958
 23
4.034162842129532
 33
12.121909
 70
     5
  0
POLYLINE
  5
1167
330
113C
100
AcDbEntity
  8
3
  6
Continuous
 62
     7
100
AcDbPolyFaceMesh
 66
     1
 10
0.0
 20
0.0
 30
0.0
 70
    64
 71
     7
 72
     3
  0
VERTEX
  5
1168
330
1167
100
AcDbEntity
  8
3
  6
Continuous
 62
     7
100
AcDbVertex
100
AcDbPolyFaceMeshVertex
 10
14.36733089726958
 20
4.028304842129529
 30
12.121909
 70
   192
  0
VERTEX
  5
1169
330
1167
100
AcDbEntity
  8
3
  6
Continuous
 62
     7
100
AcDbVertex
100
AcDbPolyFaceMeshVertex
 10
14.11733089726958
 20
6.528304842129529
 30
12.121909
 70
   192
  0
VERTEX
  5
116A
330
1167
100
AcDbEntity
  8
3
  6
Continuous
 62
     7
100
AcDbVertex
100
AcDbPolyFaceMeshVertex
 10
14.36733089726958
 20
6.521143842129532
 30
12.121909
 70
   192
  0
VERTEX
  5
116B
330
1167
100
AcDbEntity
  8
3
  6
Continuous
 62
     7
100
AcDbVertex
100
AcDbPolyFaceMeshVertex
 10
14.11733089726958
 20
7.153304842129529
 30
12.121909
 70
   192
  0
VERTEX
  5
116C
330
1167
100
AcDbEntity
  8
3
  6
Continuous
 62
     7
100
AcDbVertex
100
AcDbPolyFaceMeshVertex
 10
14.36733089726958
 20
7.153304842129529
 30
12.121909
 70
   192
  0
VERTEX
  5
116D
330
1167
100
AcDbEntity
  8
3
  6
Continuous
 62
     7
100
AcDbVertex
100
AcDbPolyFaceMeshVertex
 10
14.11733089726958
 20
4.028304842129529
 30
12.121909
 70
   192
  0
VERTEX
  5
116E
330
1167
100
AcDbEntity
  8
3
  6
Continuous
 62
     7
100
AcDbVertex
100
AcDbPolyFaceMeshVertex
 10
14.36733089726958
 20
6.528304842129529
 30
12.121909
 70
   192
  0
VERTEX
  5
116F
330
1167
100
AcDbEntity
  8
3
  6
Continuous
 62
     7
100
AcDbFaceRecord
 10
0.0
 20
0.0
 30
0.0
 70
   128
 71
    -1
 72
     2
 73
    -4
 74
     3
  0
VERTEX
  5
1170
330
1167
100
AcDbEntity
  8
3
  6
Continuous
 62
     7
100
AcDbFaceRecord
 10
0.0
 20
0.0
 30
0.0
 70
   128
 71
    -2
 72
     1
 73
     6
  0
VERTEX
  5
1171
330
1167
100
AcDbEntity
  8
3
  6
Continuous
 62
     7
100
AcDbFaceRecord
 10
0.0
 20
0.0
 30
0.0
 70
   128
 71
    -3
 72
     4
 73
     5
 74
     7
  0
SEQEND
  5
1172
330
1167
100
AcDbEntity
  8
3
  6
Continuous
 62
     7
  0
LINE
  5
1173
330
113C
100
AcDbEntity
  8
1
  6
Continuous
 62
     7
100
AcDbLine
 10
14.44206289726958
 20
4.266072842129545
 30
12.121909
 11
14.36733089726958
 21
4.191336842129544
 31
12.121909
  0
LINE
  5
1174
330
113C
100
AcDbEntity
  8
1
  6
Continuous
 62
     7
100
AcDbLine
 10
14.47742089726958
 20
4.230714842129529
 30
12.121909
 11
14.36733089726958
 21
4.120627842129536
 31
12.121909
  0
LINE
  5
1175
330
113C
100
AcDbEntity
  8
2
  6
Continuous
 62
     7
100
AcDbLine
 10
14.08245689726958
 20
4.02335684212953
 30
12.121909
 11
14.01538589726958
 21
3.956285842129545
 31
12.121909
  0
LINE
  5
1176
330
113C
100
AcDbEntity
  8
2
  6
Continuous
 62
     7
100
AcDbLine
 10
14.15316489726958
 20
4.02335684212953
 30
12.121909
 11
14.01538589726958
 21
3.885576842129538
 31
12.121909
  0
LINE
  5
1177
330
113C
100
AcDbEntity
  8
2
  6
Continuous
 62
     7
100
AcDbLine
 10
14.22387789726958
 20
4.02335684212953
 30
12.121909
 11
14.01538589726958
 21
3.814863842129526
 31
12.121909
  0
LINE
  5
1178
330
113C
100
AcDbEntity
  8
2
  6
Continuous
 62
     7
100
AcDbLine
 10
14.29458689726958
 20
4.02335684212953
 30
12.121909
 11
14.04953489726958
 21
3.778304842129529
 31
12.121909
  0
LINE
  5
1179
330
113C
100
AcDbEntity
  8
2
  6
Continuous
 62
     7
100
AcDbLine
 10
14.50672089726958
 20
4.02335684212953
 30
12.121909
 11
14.26166889726958
 21
3.778304842129529
 31
12.121909
  0
LINE
  5
117A
330
113C
100
AcDbEntity
  8
2
  6
Continuous
 62
     7
100
AcDbLine
 10
14.57743289726958
 20
4.02335684212953
 30
12.121909
 11
14.33238189726958
 21
3.778304842129529
 31
12.121909
  0
LINE
  5
117B
330
113C
100
AcDbEntity
  8
2
  6
Continuous
 62
     7
100
AcDbLine
 10
14.64814189726958
 20
4.02335684212953
 30
12.121909
 11
14.40309089726958
 21
3.778304842129529
 31
12.121909
  0
ARC
  5
117C
330
113C
100
AcDbEntity
  8
1
  6
Continuous
 62
     7
100
AcDbCircle
 10
14.53952689726958
 20
3.043242842129529
 30
12.121909
 40
1.0
100
AcDbArc
 50
82.27343300000008
 51
99.91552700000008
  0
LINE
  5
117D
330
113C
100
AcDbEntity
  8
1
  6
Continuous
 62
     7
100
AcDbLine
 10
14.51277589726958
 20
4.195360842129545
 30
12.121909
 11
14.36733089726958
 21
4.049915842129536
 31
12.121909
  0
LINE
  5
117E
330
113C
100
AcDbEntity
  8
1
  6
Continuous
 62
     7
100
AcDbLine
 10
14.54812989726958
 20
4.160005842129535
 30
12.121909
 11
14.42465789726958
 21
4.036533842129543
 31
12.121909
  0
LINE
  5
117F
330
113C
100
AcDbEntity
  8
2
  6
Continuous
 62
     7
100
AcDbLine
 10
14.36529889726958
 20
4.02335684212953
 30
12.121909
 11
14.12024789726958
 21
3.778304842129529
 31
12.121909
  0
LINE
  5
1180
330
113C
100
AcDbEntity
  8
2
  6
Continuous
 62
     7
100
AcDbLine
 10
14.43601189726958
 20
4.02335684212953
 30
12.121909
 11
14.19096089726958
 21
3.778304842129529
 31
12.121909
  0
LINE
  5
1181
330
113C
100
AcDbEntity
  8
2
  6
Continuous
 62
     7
100
AcDbLine
 10
14.71885389726958
 20
4.02335684212953
 30
12.121909
 11
14.47380289726958
 21
3.778304842129529
 31
12.121909
  0
LINE
  5
1182
330
113C
100
AcDbEntity
  8
2
  6
Continuous
 62
     7
100
AcDbLine
 10
14.78956289726958
 20
4.02335684212953
 30
12.121909
 11
14.54451189726958
 21
3.778304842129529
 31
12.121909
  0
LINE
  5
1183
330
113C
100
AcDbEntity
  8
1
  6
Continuous
 62
     7
100
AcDbLine
 10
14.58348789726958
 20
4.124647842129533
 30
12.121909
 11
14.50095289726958
 21
4.042115842129533
 31
12.121909
  0
LINE
  5
1184
330
113C
100
AcDbEntity
  8
1
  6
Continuous
 62
     7
100
AcDbLine
 10
14.61884289726958
 20
4.089293842129535
 30
12.121909
 11
14.57179889726958
 21
4.042249842129535
 31
12.121909
  0
LINE
  5
1185
330
113C
100
AcDbEntity
  8
1
  6
Continuous
 62
     7
100
AcDbLine
 10
14.65419689726958
 20
4.053938842129525
 30
12.121909
 11
14.63813389726958
 21
4.037875842129537
 31
12.121909
  0
LWPOLYLINE
  5
1186
330
113C
100
AcDbEntity
  8
2
  6
Continuous
 62
     7
100
AcDbPolyline
 90
        4
 70
     1
 43
0.0
 38
12.121909
 10
14.42983089726958
 20
4.655151842129527
 10
14.42983089726958
 20
4.280151842129527
 10
14.36733089726958
 20
4.280151842129527
 10
14.36733089726958
 20
4.655151842129527
  0
3DFACE
  5
1187
330
113C
100
AcDbEntity
  8
1
  6
Continuous
 62
     7
100
AcDbFace
 10
14.42983089726958
 20
4.648710842129545
 30
12.121909
 11
14.43568889726958
 21
4.272446842129539
 31
12.121909
 12
14.42983089726958
 22
4.286589842129529
 32
12.121909
 13
14.42983089726958
 23
4.286589842129529
 33
12.121909
 70
     1
  0
LINE
  5
1188
330
113C
100
AcDbEntity
  8
1
  6
Continuous
 62
     7
100
AcDbLine
 10
14.38543289726958
 20
4.280151842129527
 30
12.121909
 11
14.36733089726958
 21
4.262049842129528
 31
12.121909
  0
3DFACE
  5
1189
330
113C
100
AcDbEntity
  8
1
  6
Continuous
 62
     7
100
AcDbFace
 10
14.46417489726958
 20
4.637306842129532
 30
12.121909
 11
14.46568889726958
 21
4.284871842129533
 31
12.121909
 12
14.45983089726958
 22
4.299014842129537
 32
12.121909
 13
14.45983089726958
 23
4.624860842129535
 33
12.121909
 70
     1
  0
LINE
  5
118A
330
113C
100
AcDbEntity
  8
1
  6
Continuous
 62
     7
100
AcDbLine
 10
14.47742089726958
 20
18.23038584109204
 30
12.121909
 11
14.36733089726958
 21
18.34047284109203
 31
12.121909
  0
LINE
  5
118B
330
113C
100
AcDbEntity
  8
1
  6
Continuous
 62
     7
100
AcDbLine
 10
14.44206289726958
 20
18.19502784109202
 30
12.121909
 11
14.36733089726958
 21
18.26976384109203
 31
12.121909
  0
POLYLINE
  5
118C
330
113C
100
AcDbEntity
  8
3
  6
Continuous
 62
     7
100
AcDbPolyFaceMesh
 66
     1
 10
0.0
 20
0.0
 30
0.0
 70
    64
 71
     7
 72
     3
  0
VERTEX
  5
118D
330
118C
100
AcDbEntity
  8
3
  6
Continuous
 62
     7
100
AcDbVertex
100
AcDbPolyFaceMeshVertex
 10
14.36733089726958
 20
18.43279584109204
 30
12.121909
 70
   192
  0
VERTEX
  5
118E
330
118C
100
AcDbEntity
  8
3
  6
Continuous
 62
     7
100
AcDbVertex
100
AcDbPolyFaceMeshVertex
 10
14.11733089726958
 20
15.93279584109204
 30
12.121909
 70
   192
  0
VERTEX
  5
118F
330
118C
100
AcDbEntity
  8
3
  6
Continuous
 62
     7
100
AcDbVertex
100
AcDbPolyFaceMeshVertex
 10
14.36733089726958
 20
15.93995684109204
 30
12.121909
 70
   192
  0
VERTEX
  5
1190
330
118C
100
AcDbEntity
  8
3
  6
Continuous
 62
     7
100
AcDbVertex
100
AcDbPolyFaceMeshVertex
 10
14.11733089726958
 20
15.30779584109204
 30
12.121909
 70
   192
  0
VERTEX
  5
1191
330
118C
100
AcDbEntity
  8
3
  6
Continuous
 62
     7
100
AcDbVertex
100
AcDbPolyFaceMeshVertex
 10
14.36733089726958
 20
15.30779584109204
 30
12.121909
 70
   192
  0
VERTEX
  5
1192
330
118C
100
AcDbEntity
  8
3
  6
Continuous
 62
     7
100
AcDbVertex
100
AcDbPolyFaceMeshVertex
 10
14.11733089726958
 20
18.43279584109204
 30
12.121909
 70
   192
  0
VERTEX
  5
1193
330
118C
100
AcDbEntity
  8
3
  6
Continuous
 62
     7
100
AcDbVertex
100
AcDbPolyFaceMeshVertex
 10
14.36733089726958
 20
15.93279584109204
 30
12.121909
 70
   192
  0
VERTEX
  5
1194
330
118C
100
AcDbEntity
  8
3
  6
Continuous
 62
     7
100
AcDbFaceRecord
 10
0.0
 20
0.0
 30
0.0
 70
   128
 71
    -1
 72
     2
 73
    -4
 74
     3
  0
VERTEX
  5
1195
330
118C
100
AcDbEntity
  8
3
  6
Continuous
 62
     7
100
AcDbFaceRecord
 10
0.0
 20
0.0
 30
0.0
 70
   128
 71
    -2
 72
     1
 73
     6
  0
VERTEX
  5
1196
330
118C
100
AcDbEntity
  8
3
  6
Continuous
 62
     7
100
AcDbFaceRecord
 10
0.0
 20
0.0
 30
0.0
 70
   128
 71
    -3
 72
     4
 73
     5
 74
     7
  0
SEQEND
  5
1197
330
118C
100
AcDbEntity
  8
3
  6
Continuous
 62
     7
  0
3DFACE
  5
1198
330
113C
100
AcDbEntity
  8
1
  6
Continuous
 62
     7
100
AcDbFace
 10
14.43568889726958
 20
18.18865384109203
 30
12.121909
 11
14.42983089726958
 21
17.81238984109202
 31
12.121909
 12
14.44531889726958
 22
17.79290484109203
 32
12.121909
 13
14.67397289726958
 23
18.42693784109204
 33
12.121909
 70
     5
  0
3DFACE
  5
1199
330
113C
100
AcDbEntity
  8
1
  6
Continuous
 62
     7
100
AcDbFace
 10
14.46568889726958
 20
18.17622884109204
 30
12.121909
 11
14.46417489726958
 21
17.82379384109204
 31
12.121909
 12
14.47531889726958
 22
17.81675384109203
 32
12.121909
 13
14.68639789726958
 23
18.39693584109204
 33
12.121909
 70
     5
  0
LWPOLYLINE
  5
119A
330
113C
100
AcDbEntity
  8
2
  6
Continuous
 62
     7
100
AcDbPolyline
 90
        4
 70
     1
 43
0.0
 38
12.121909
 10
14.42983089726958
 20
17.80594884109204
 10
14.42983089726958
 20
18.18094884109204
 10
14.36733089726958
 20
18.18094884109204
 10
14.36733089726958
 20
17.80594884109204
  0
LINE
  5
119B
330
113C
100
AcDbEntity
  8
1
  6
Continuous
 62
     7
100
AcDbLine
 10
14.38543289726958
 20
18.18094884109204
 30
12.121909
 11
14.36733089726958
 21
18.19905084109204
 31
12.121909
  0
3DFACE
  5
119C
330
113C
100
AcDbEntity
  8
1
  6
Continuous
 62
     7
100
AcDbFace
 10
14.42983089726958
 20
17.81238984109202
 30
12.121909
 11
14.43568889726958
 21
18.18865384109203
 31
12.121909
 12
14.42983089726958
 22
18.17451084109204
 32
12.121909
 13
14.42983089726958
 23
18.17451084109204
 33
12.121909
 70
     1
  0
3DFACE
  5
119D
330
113C
100
AcDbEntity
  8
1
  6
Continuous
 62
     7
100
AcDbFace
 10
14.46417489726958
 20
17.82379384109204
 30
12.121909
 11
14.46568889726958
 21
18.17622884109204
 31
12.121909
 12
14.45983089726958
 22
18.16208584109203
 32
12.121909
 13
14.45983089726958
 23
17.83623984109203
 33
12.121909
 70
     1
  0
LINE
  5
119E
330
113C
100
AcDbEntity
  8
2
  6
Continuous
 62
     7
100
AcDbLine
 10
14.29458689726958
 20
18.43774384109204
 30
12.121909
 11
14.04953489726958
 21
18.68279584109204
 31
12.121909
  0
LINE
  5
119F
330
113C
100
AcDbEntity
  8
2
  6
Continuous
 62
     7
100
AcDbLine
 10
14.22387789726958
 20
18.43774384109204
 30
12.121909
 11
14.01538589726958
 21
18.64623684109204
 31
12.121909
  0
LINE
  5
11A0
330
113C
100
AcDbEntity
  8
2
  6
Continuous
 62
     7
100
AcDbLine
 10
14.15316489726958
 20
18.43774384109204
 30
12.121909
 11
14.01538589726958
 21
18.57552384109203
 31
12.121909
  0
LINE
  5
11A1
330
113C
100
AcDbEntity
  8
2
  6
Continuous
 62
     7
100
AcDbLine
 10
14.08245689726958
 20
18.43774384109204
 30
12.121909
 11
14.01538589726958
 21
18.50481484109202
 31
12.121909
  0
LINE
  5
11A2
330
113C
100
AcDbEntity
  8
1
  6
Continuous
 62
     7
100
AcDbLine
 10
14.54812989726958
 20
18.30109484109203
 30
12.121909
 11
14.42465789726958
 21
18.42456684109203
 31
12.121909
  0
LINE
  5
11A3
330
113C
100
AcDbEntity
  8
1
  6
Continuous
 62
     7
100
AcDbLine
 10
14.51277589726958
 20
18.26573984109202
 30
12.121909
 11
14.36733089726958
 21
18.41118484109203
 31
12.121909
  0
ARC
  5
11A4
330
113C
100
AcDbEntity
  8
1
  6
Continuous
 62
     7
100
AcDbCircle
 10
14.53952689726958
 20
19.41785784109204
 30
12.121909
 40
1.0
100
AcDbArc
 50
260.0844729999999
 51
277.7265669999999
  0
LINE
  5
11A5
330
113C
100
AcDbEntity
  8
2
  6
Continuous
 62
     7
100
AcDbLine
 10
14.64814189726958
 20
18.43774384109204
 30
12.121909
 11
14.40309089726958
 21
18.68279584109204
 31
12.121909
  0
LINE
  5
11A6
330
113C
100
AcDbEntity
  8
2
  6
Continuous
 62
     7
100
AcDbLine
 10
14.57743289726958
 20
18.43774384109204
 30
12.121909
 11
14.33238189726958
 21
18.68279584109204
 31
12.121909
  0
LINE
  5
11A7
330
113C
100
AcDbEntity
  8
2
  6
Continuous
 62
     7
100
AcDbLine
 10
14.50672089726958
 20
18.43774384109204
 30
12.121909
 11
14.26166889726958
 21
18.68279584109204
 31
12.121909
  0
LINE
  5
11A8
330
113C
100
AcDbEntity
  8
2
  6
Continuous
 62
     7
100
AcDbLine
 10
14.43601189726958
 20
18.43774384109204
 30
12.121909
 11
14.19096089726958
 21
18.68279584109204
 31
12.121909
  0
LINE
  5
11A9
330
113C
100
AcDbEntity
  8
2
  6
Continuous
 62
     7
100
AcDbLine
 10
14.36529889726958
 20
18.43774384109204
 30
12.121909
 11
14.12024789726958
 21
18.68279584109204
 31
12.121909
  0
LINE
  5
11AA
330
113C
100
AcDbEntity
  8
1
  6
Continuous
 62
     7
100
AcDbLine
 10
14.65419689726958
 20
18.40716184109204
 30
12.121909
 11
14.63813389726958
 21
18.42322484109203
 31
12.121909
  0
LINE
  5
11AB
330
113C
100
AcDbEntity
  8
1
  6
Continuous
 62
     7
100
AcDbLine
 10
14.61884289726958
 20
18.37180684109203
 30
12.121909
 11
14.57179889726958
 21
18.41885084109203
 31
12.121909
  0
LINE
  5
11AC
330
113C
100
AcDbEntity
  8
1
  6
Continuous
 62
     7
100
AcDbLine
 10
14.58348789726958
 20
18.33645284109204
 30
12.121909
 11
14.50095289726958
 21
18.41898484109204
 31
12.121909
  0
LINE
  5
11AD
330
113C
100
AcDbEntity
  8
2
  6
Continuous
 62
     7
100
AcDbLine
 10
14.78956289726958
 20
18.43774384109204
 30
12.121909
 11
14.54451189726958
 21
18.68279584109204
 31
12.121909
  0
LINE
  5
11AE
330
113C
100
AcDbEntity
  8
2
  6
Continuous
 62
     7
100
AcDbLine
 10
14.71885389726958
 20
18.43774384109204
 30
12.121909
 11
14.47380289726958
 21
18.68279584109204
 31
12.121909
  0
3DFACE
  5
11AF
330
113C
100
AcDbEntity
  8
1
  6
Continuous
 62
     7
100
AcDbFace
 10
15.01897289726958
 20
4.064162842129533
 30
12.121909
 11
15.02483089726958
 21
4.746450842129533
 31
12.121909
 12
15.02483089726958
 22
4.746450842129533
 32
12.121909
 13
15.02483089726958
 23
4.07830484212954
 33
12.121909
 70
     1
  0
3DFACE
  5
11B0
330
113C
100
AcDbEntity
  8
1
  6
Continuous
 62
     7
100
AcDbFace
 10
15.00483089726958
 20
4.05830484212953
 30
12.121909
 11
15.01727589726958
 21
4.76210684212954
 31
12.121909
 12
15.02483089726958
 22
4.746450842129533
 32
12.121909
 13
15.01897289726958
 23
4.064162842129533
 33
12.121909
 70
     5
  0
LINE
  5
11B1
330
113C
100
AcDbEntity
  8
2
  6
Continuous
 62
     7
100
AcDbLine
 10
15.14311789726958
 20
4.02335684212953
 30
12.121909
 11
14.89806689726958
 21
3.778304842129529
 31
12.121909
  0
LINE
  5
11B2
330
113C
100
AcDbEntity
  8
2
  6
Continuous
 62
     7
100
AcDbLine
 10
15.17670889726958
 20
3.986237842129526
 30
12.121909
 11
14.96877589726958
 21
3.778304842129529
 31
12.121909
  0
LINE
  5
11B3
330
113C
100
AcDbEntity
  8
2
  6
Continuous
 62
     7
100
AcDbLine
 10
15.17670889726958
 20
3.915525842129525
 30
12.121909
 11
15.03948789726958
 21
3.778304842129529
 31
12.121909
  0
LINE
  5
11B4
330
113C
100
AcDbEntity
  8
2
  6
Continuous
 62
     7
100
AcDbLine
 10
15.17670889726958
 20
3.844816842129532
 30
12.121909
 11
15.11019689726958
 21
3.778304842129529
 31
12.121909
  0
LINE
  5
11B5
330
113C
100
AcDbEntity
  8
3
  6
Continuous
 62
     7
100
AcDbLine
 10
17.11733089726958
 20
4.778304842129529
 30
12.121909
 11
17.11733089726958
 21
7.11109259279123
 31
12.121909
  0
LINE
  5
11B6
330
113C
100
AcDbEntity
  8
3
  6
Continuous
 62
     7
100
AcDbLine
 10
16.86733089726958
 20
7.11109259279123
 30
12.121909
 11
16.86733089726958
 21
4.778304842129529
 31
12.121909
  0
3DFACE
  5
11B7
330
113C
100
AcDbEntity
  8
1
  6
Continuous
 62
     7
100
AcDbFace
 10
15.35827589726958
 20
4.80830484212953
 30
12.121909
 11
15.35376389726958
 21
4.847789842129529
 31
12.121909
 12
16.75531889726958
 22
5.172383842129534
 32
12.121909
 13
16.53912289726958
 23
4.80830484212953
 33
12.121909
 70
     5
  0
3DFACE
  5
11B8
330
113C
100
AcDbEntity
  8
1
  6
Continuous
 62
     7
100
AcDbFace
 10
16.55154689726958
 20
4.778304842129529
 30
12.121909
 11
15.17983089726958
 21
4.838304842129531
 31
12.121909
 12
16.78531889726958
 22
5.210127842129537
 32
12.121909
 13
16.55154689726958
 23
4.778304842129529
 33
12.121909
 70
     5
  0
3DFACE
  5
11B9
330
113C
100
AcDbEntity
  8
1
  6
Continuous
 62
     7
100
AcDbFace
 10
15.09144189726958
 20
4.741693842129535
 30
12.121909
 11
15.17983089726958
 21
4.838304842129531
 31
12.121909
 12
16.55154689726958
 22
4.778304842129529
 32
12.121909
 13
15.17983089726958
 23
4.778304842129529
 33
12.121909
 70
     3
  0
POLYLINE
  5
11BA
330
113C
100
AcDbEntity
  8
1
  6
Continuous
 62
     7
100
AcDbPolyFaceMesh
 66
     1
 10
0.0
 20
0.0
 30
0.0
 70
    64
 71
    21
 72
    12
  0
VERTEX
  5
11BB
330
11BA
100
AcDbEntity
  8
1
  6
Continuous
 62
     7
100
AcDbVertex
100
AcDbPolyFaceMeshVertex
 10
17.17245289726958
 20
4.879308842129532
 30
12.121909
 70
   192
  0
VERTEX
  5
11BC
330
11BA
100
AcDbEntity
  8
1
  6
Continuous
 62
     7
100
AcDbVertex
100
AcDbPolyFaceMeshVertex
 10
17.24042089726958
 20
4.92937584212953
 30
12.121909
 70
   192
  0
VERTEX
  5
11BD
330
11BA
100
AcDbEntity
  8
1
  6
Continuous
 62
     7
100
AcDbVertex
100
AcDbPolyFaceMeshVertex
 10
17.81733089726958
 20
4.528304842129529
 30
12.121909
 70
   192
  0
VERTEX
  5
11BE
330
11BA
100
AcDbEntity
  8
1
  6
Continuous
 62
     7
100
AcDbVertex
100
AcDbPolyFaceMeshVertex
 10
16.40483089726958
 20
4.653304842129529
 30
12.121909
 70
   192
  0
VERTEX
  5
11BF
330
11BA
100
AcDbEntity
  8
1
  6
Continuous
 62
     7
100
AcDbVertex
100
AcDbPolyFaceMeshVertex
 10
16.60483089726958
 20
4.653304842129529
 30
12.121909
 70
   192
  0
VERTEX
  5
11C0
330
11BA
100
AcDbEntity
  8
1
  6
Continuous
 62
     7
100
AcDbVertex
100
AcDbPolyFaceMeshVertex
 10
16.80483089726958
 20
4.715804842129529
 30
12.121909
 70
   192
  0
VERTEX
  5
11C1
330
11BA
100
AcDbEntity
  8
1
  6
Continuous
 62
     7
100
AcDbVertex
100
AcDbPolyFaceMeshVertex
 10
17.61152989726958
 20
4.66837384212954
 30
12.121909
 70
   192
  0
VERTEX
  5
11C2
330
11BA
100
AcDbEntity
  8
1
  6
Continuous
 62
     7
100
AcDbVertex
100
AcDbPolyFaceMeshVertex
 10
17.24233089726958
 20
4.715804842129529
 30
12.121909
 70
   192
  0
VERTEX
  5
11C3
330
11BA
100
AcDbEntity
  8
1
  6
Continuous
 62
     7
100
AcDbVertex
100
AcDbPolyFaceMeshVertex
 10
16.70483089726958
 20
4.653304842129529
 30
12.121909
 70
   192
  0
VERTEX
  5
11C4
330
11BA
100
AcDbEntity
  8
1
  6
Continuous
 62
     7
100
AcDbVertex
100
AcDbPolyFaceMeshVertex
 10
16.50483089726958
 20
4.653304842129529
 30
12.121909
 70
   192
  0
VERTEX
  5
11C5
330
11BA
100
AcDbEntity
  8
1
  6
Continuous
 62
     7
100
AcDbVertex
100
AcDbPolyFaceMeshVertex
 10
16.30483089726958
 20
4.653304842129529
 30
12.121909
 70
   192
  0
VERTEX
  5
11C6
330
11BA
100
AcDbEntity
  8
1
  6
Continuous
 62
     7
100
AcDbVertex
100
AcDbPolyFaceMeshVertex
 10
17.24140189726958
 20
4.927454842129534
 30
12.121909
 70
   192
  0
VERTEX
  5
11C7
330
11BA
100
AcDbEntity
  8
1
  6
Continuous
 62
     7
100
AcDbVertex
100
AcDbPolyFaceMeshVertex
 10
17.25739889726958
 20
5.022504842129535
 30
12.121909
 70
   192
  0
VERTEX
  5
11C8
330
11BA
100
AcDbEntity
  8
1
  6
Continuous
 62
     7
100
AcDbVertex
100
AcDbPolyFaceMeshVertex
 10
16.30483089726958
 20
4.528304842129529
 30
12.121909
 70
   192
  0
VERTEX
  5
11C9
330
11BA
100
AcDbEntity
  8
1
  6
Continuous
 62
     7
100
AcDbVertex
100
AcDbPolyFaceMeshVertex
 10
16.45483089726958
 20
4.778304842129529
 30
12.121909
 70
   192
  0
VERTEX
  5
11CA
330
11BA
100
AcDbEntity
  8
1
  6
Continuous
 62
     7
100
AcDbVertex
100
AcDbPolyFaceMeshVertex
 10
16.55483089726958
 20
4.778304842129529
 30
12.121909
 70
   192
  0
VERTEX
  5
11CB
330
11BA
100
AcDbEntity
  8
1
  6
Continuous
 62
     7
100
AcDbVertex
100
AcDbPolyFaceMeshVertex
 10
16.65483089726958
 20
4.778304842129529
 30
12.121909
 70
   192
  0
VERTEX
  5
11CC
330
11BA
100
AcDbEntity
  8
1
  6
Continuous
 62
     7
100
AcDbVertex
100
AcDbPolyFaceMeshVertex
 10
16.75483089726958
 20
4.778304842129529
 30
12.121909
 70
   192
  0
VERTEX
  5
11CD
330
11BA
100
AcDbEntity
  8
1
  6
Continuous
 62
     7
100
AcDbVertex
100
AcDbPolyFaceMeshVertex
 10
17.11737389726958
 20
5.04837184212954
 30
12.121909
 70
   192
  0
VERTEX
  5
11CE
330
11BA
100
AcDbEntity
  8
1
  6
Continuous
 62
     7
100
AcDbVertex
100
AcDbPolyFaceMeshVertex
 10
17.11733089726958
 20
5.228304842129531
 30
12.121909
 70
   192
  0
VERTEX
  5
11CF
330
11BA
100
AcDbEntity
  8
1
  6
Continuous
 62
     7
100
AcDbVertex
100
AcDbPolyFaceMeshVertex
 10
17.42333589726958
 20
4.834310842129539
 30
12.121909
 70
   192
  0
VERTEX
  5
11D0
330
11BA
100
AcDbEntity
  8
1
  6
Continuous
 62
     7
100
AcDbFaceRecord
 10
0.0
 20
0.0
 30
0.0
 70
   128
 71
    -1
 72
     2
 73
   -12
 74
     8
  0
VERTEX
  5
11D1
330
11BA
100
AcDbEntity
  8
1
  6
Continuous
 62
     7
100
AcDbFaceRecord
 10
0.0
 20
0.0
 30
0.0
 70
   128
 71
    -2
 72
     1
 73
    19
  0
VERTEX
  5
11D2
330
11BA
100
AcDbEntity
  8
1
  6
Continuous
 62
     7
100
AcDbFaceRecord
 10
0.0
 20
0.0
 30
0.0
 70
   128
 71
    -3
 72
    -4
 73
   -10
 74
    -5
  0
VERTEX
  5
11D3
330
11BA
100
AcDbEntity
  8
1
  6
Continuous
 62
     7
100
AcDbFaceRecord
 10
0.0
 20
0.0
 30
0.0
 70
   128
 71
    -4
 72
     3
 73
    14
 74
   -11
  0
VERTEX
  5
11D4
330
11BA
100
AcDbEntity
  8
1
  6
Continuous
 62
     7
100
AcDbFaceRecord
 10
0.0
 20
0.0
 30
0.0
 70
   128
 71
    -3
 72
    -5
 73
     9
 74
    -6
  0
VERTEX
  5
11D5
330
11BA
100
AcDbEntity
  8
1
  6
Continuous
 62
     7
100
AcDbFaceRecord
 10
0.0
 20
0.0
 30
0.0
 70
   128
 71
    -3
 72
     6
 73
    -8
 74
     7
  0
VERTEX
  5
11D6
330
11BA
100
AcDbEntity
  8
1
  6
Continuous
 62
     7
100
AcDbFaceRecord
 10
0.0
 20
0.0
 30
0.0
 70
   128
 71
    -7
 72
    -8
 73
    13
 74
    21
  0
VERTEX
  5
11D7
330
11BA
100
AcDbEntity
  8
1
  6
Continuous
 62
     7
100
AcDbFaceRecord
 10
0.0
 20
0.0
 30
0.0
 70
   128
 71
    -9
 72
     5
 73
    18
  0
VERTEX
  5
11D8
330
11BA
100
AcDbEntity
  8
1
  6
Continuous
 62
     7
100
AcDbFaceRecord
 10
0.0
 20
0.0
 30
0.0
 70
   128
 71
    -5
 72
    10
 73
    17
  0
VERTEX
  5
11D9
330
11BA
100
AcDbEntity
  8
1
  6
Continuous
 62
     7
100
AcDbFaceRecord
 10
0.0
 20
0.0
 30
0.0
 70
   128
 71
   -10
 72
     4
 73
    16
  0
VERTEX
  5
11DA
330
11BA
100
AcDbEntity
  8
1
  6
Continuous
 62
     7
100
AcDbFaceRecord
 10
0.0
 20
0.0
 30
0.0
 70
   128
 71
    -4
 72
    11
 73
    15
  0
VERTEX
  5
11DB
330
11BA
100
AcDbEntity
  8
1
  6
Continuous
 62
     7
100
AcDbFaceRecord
 10
0.0
 20
0.0
 30
0.0
 70
   128
 71
    -8
 72
    12
 73
    20
 74
   -13
  0
SEQEND
  5
11DC
330
11BA
100
AcDbEntity
  8
1
  6
Continuous
 62
     7
  0
3DFACE
  5
11DD
330
113C
100
AcDbEntity
  8
1
  6
Continuous
 62
     7
100
AcDbFace
 10
15.35376389726958
 20
4.847789842129529
 30
12.121909
 11
15.35827589726958
 21
4.80830484212953
 31
12.121909
 12
15.33840589726958
 22
4.826034842129544
 32
12.121909
 13
15.33840589726958
 23
4.826034842129544
 33
12.121909
 70
     1
  0
3DFACE
  5
11DE
330
113C
100
AcDbEntity
  8
1
  6
Continuous
 62
     7
100
AcDbFace
 10
16.77397289726958
 20
5.034872842129544
 30
12.121909
 11
16.77983089726958
 21
5.152899842129528
 31
12.121909
 12
16.77983089726958
 22
5.049013842129525
 32
12.121909
 13
16.77983089726958
 23
5.049013842129525
 33
12.121909
 70
     1
  0
3DFACE
  5
11DF
330
113C
100
AcDbEntity
  8
1
  6
Continuous
 62
     7
100
AcDbFace
 10
16.77397289726958
 20
5.034872842129544
 30
12.121909
 11
16.75531889726958
 21
5.172383842129534
 31
12.121909
 12
16.77227589726958
 22
5.168555842129535
 32
12.121909
 13
16.77983089726958
 23
5.152899842129528
 33
12.121909
 70
     9
  0
3DFACE
  5
11E0
330
113C
100
AcDbEntity
  8
1
  6
Continuous
 62
     7
100
AcDbFace
 10
16.53912289726958
 20
4.80830484212953
 30
12.121909
 11
16.75531889726958
 21
5.172383842129534
 31
12.121909
 12
16.77397289726958
 22
5.034872842129544
 32
12.121909
 13
16.55326389726958
 23
4.814159842129541
 33
12.121909
 70
     3
  0
3DFACE
  5
11E1
330
113C
100
AcDbEntity
  8
1
  6
Continuous
 62
     7
100
AcDbFace
 10
16.80397289726959
 20
5.022447842129537
 30
12.121909
 11
16.78531889726958
 21
5.210127842129537
 31
12.121909
 12
16.80983089726958
 22
5.190643842129532
 32
12.121909
 13
16.80983089726958
 23
5.036588842129532
 33
12.121909
 70
     1
  0
3DFACE
  5
11E2
330
113C
100
AcDbEntity
  8
1
  6
Continuous
 62
     7
100
AcDbFace
 10
16.55154689726958
 20
4.778304842129529
 30
12.121909
 11
16.78531889726958
 21
5.210127842129537
 31
12.121909
 12
16.80397289726959
 22
5.022447842129537
 32
12.121909
 13
16.56568889726958
 23
4.78416384212953
 33
12.121909
 70
     3
  0
LWPOLYLINE
  5
11E3
330
113C
100
AcDbEntity
  8
2
  6
Continuous
 62
     7
100
AcDbPolyline
 90
        4
 70
     1
 43
0.0
 38
12.121909
 10
16.87233089726958
 20
5.207363842129524
 10
16.87233089726958
 20
5.019863842129524
 10
16.80983089726958
 20
5.019863842129524
 10
16.80983089726958
 20
5.207363842129524
  0
LINE
  5
11E4
330
113C
100
AcDbEntity
  8
3
  6
Continuous
 62
     7
100
AcDbLine
 10
16.86733089726958
 20
4.778304842129529
 30
12.121909
 11
17.11733089726958
 21
4.778304842129529
 31
12.121909
  0
ARC
  5
11E5
330
113C
100
AcDbEntity
  8
1
  6
Continuous
 62
     7
100
AcDbCircle
 10
-16.69731389726958
 20
3.792863842129534
 30
-12.121909
 40
1.0
210
0.0
220
0.0
230
-1.0
100
AcDbArc
 50
82.43646800000004
 51
99.78876600000006
  0
LINE
  5
11E6
330
113C
100
AcDbEntity
  8
1
  6
Continuous
 62
     7
100
AcDbLine
 10
16.81381089726958
 20
5.019863842129524
 30
12.121909
 11
16.57960989726958
 21
4.785659842129533
 31
12.121909
  0
LINE
  5
11E7
330
113C
100
AcDbEntity
  8
1
  6
Continuous
 62
     7
100
AcDbLine
 10
16.86733089726958
 20
5.002671842129544
 30
12.121909
 11
16.65622389726958
 21
4.791564842129531
 31
12.121909
  0
LINE
  5
11E8
330
113C
100
AcDbEntity
  8
1
  6
Continuous
 62
     7
100
AcDbLine
 10
16.86733089726958
 20
4.931958842129532
 30
12.121909
 11
16.72743289726958
 21
4.792060842129544
 31
12.121909
  0
LINE
  5
11E9
330
113C
100
AcDbEntity
  8
1
  6
Continuous
 62
     7
100
AcDbLine
 10
16.86733089726958
 20
4.861249842129524
 30
12.121909
 11
16.79397589726958
 21
4.787895842129543
 31
12.121909
  0
LINE
  5
11EA
330
113C
100
AcDbEntity
  8
1
  6
Continuous
 62
     7
100
AcDbLine
 10
16.86733089726958
 20
4.790537842129523
 30
12.121909
 11
16.85659789726958
 21
4.77980884212954
 31
12.121909
  0
LINE
  5
11EB
330
113C
100
AcDbEntity
  8
DIM
100
AcDbLine
 10
16.86733089726958
 20
7.11109259279123
 30
12.121909
 11
17.11733089726958
 21
7.11109259279123
 31
12.121909
  0
3DFACE
  5
11EC
330
113C
100
AcDbEntity
  8
1
  6
Continuous
 62
     7
100
AcDbFace
 10
15.00483089726958
 20
18.40279584109204
 30
12.121909
 11
15.01727589726958
 21
17.69899384109203
 31
12.121909
 12
15.02483089726958
 22
17.71464984109204
 32
12.121909
 13
15.01897289726958
 23
18.39693784109203
 33
12.121909
 70
     5
  0
3DFACE
  5
11ED
330
113C
100
AcDbEntity
  8
1
  6
Continuous
 62
     7
100
AcDbFace
 10
15.01897289726958
 20
18.39693784109203
 30
12.121909
 11
15.02483089726958
 21
17.71464984109204
 31
12.121909
 12
15.02483089726958
 22
17.71464984109204
 32
12.121909
 13
15.02483089726958
 23
18.38279584109203
 33
12.121909
 70
     1
  0
LINE
  5
11EE
330
113C
100
AcDbEntity
  8
3
  6
Continuous
 62
     7
100
AcDbLine
 10
16.86733089726958
 20
15.35000809043034
 30
12.121909
 11
16.86733089726958
 21
17.68279584109204
 31
12.121909
  0
LINE
  5
11EF
330
113C
100
AcDbEntity
  8
3
  6
Continuous
 62
     7
100
AcDbLine
 10
17.11733089726958
 20
17.68279584109204
 30
12.121909
 11
17.11733089726958
 21
15.35000809043034
 31
12.121909
  0
LINE
  5
11F0
330
113C
100
AcDbEntity
  8
DIM
100
AcDbLine
 10
16.86733089726958
 20
15.35000809043034
 30
12.121909
 11
17.11733089726958
 21
15.35000809043034
 31
12.121909
  0
POLYLINE
  5
11F1
330
113C
100
AcDbEntity
  8
1
  6
Continuous
 62
     7
100
AcDbPolyFaceMesh
 66
     1
 10
0.0
 20
0.0
 30
0.0
 70
    64
 71
    21
 72
    12
  0
VERTEX
  5
11F2
330
11F1
100
AcDbEntity
  8
1
  6
Continuous
 62
     7
100
AcDbVertex
100
AcDbPolyFaceMeshVertex
 10
17.17245289726958
 20
17.58179184109204
 30
12.121909
 70
   192
  0
VERTEX
  5
11F3
330
11F1
100
AcDbEntity
  8
1
  6
Continuous
 62
     7
100
AcDbVertex
100
AcDbPolyFaceMeshVertex
 10
17.24042089726958
 20
17.53172484109204
 30
12.121909
 70
   192
  0
VERTEX
  5
11F4
330
11F1
100
AcDbEntity
  8
1
  6
Continuous
 62
     7
100
AcDbVertex
100
AcDbPolyFaceMeshVertex
 10
17.81733089726958
 20
17.93279584109204
 30
12.121909
 70
   192
  0
VERTEX
  5
11F5
330
11F1
100
AcDbEntity
  8
1
  6
Continuous
 62
     7
100
AcDbVertex
100
AcDbPolyFaceMeshVertex
 10
16.40483089726958
 20
17.80779584109204
 30
12.121909
 70
   192
  0
VERTEX
  5
11F6
330
11F1
100
AcDbEntity
  8
1
  6
Continuous
 62
     7
100
AcDbVertex
100
AcDbPolyFaceMeshVertex
 10
16.60483089726958
 20
17.80779584109204
 30
12.121909
 70
   192
  0
VERTEX
  5
11F7
330
11F1
100
AcDbEntity
  8
1
  6
Continuous
 62
     7
100
AcDbVertex
100
AcDbPolyFaceMeshVertex
 10
16.80483089726958
 20
17.74529584109204
 30
12.121909
 70
   192
  0
VERTEX
  5
11F8
330
11F1
100
AcDbEntity
  8
1
  6
Continuous
 62
     7
100
AcDbVertex
100
AcDbPolyFaceMeshVertex
 10
17.61152989726958
 20
17.79272684109203
 30
12.121909
 70
   192
  0
VERTEX
  5
11F9
330
11F1
100
AcDbEntity
  8
1
  6
Continuous
 62
     7
100
AcDbVertex
100
AcDbPolyFaceMeshVertex
 10
17.24233089726958
 20
17.74529584109204
 30
12.121909
 70
   192
  0
VERTEX
  5
11FA
330
11F1
100
AcDbEntity
  8
1
  6
Continuous
 62
     7
100
AcDbVertex
100
AcDbPolyFaceMeshVertex
 10
16.70483089726958
 20
17.80779584109204
 30
12.121909
 70
   192
  0
VERTEX
  5
11FB
330
11F1
100
AcDbEntity
  8
1
  6
Continuous
 62
     7
100
AcDbVertex
100
AcDbPolyFaceMeshVertex
 10
16.50483089726958
 20
17.80779584109204
 30
12.121909
 70
   192
  0
VERTEX
  5
11FC
330
11F1
100
AcDbEntity
  8
1
  6
Continuous
 62
     7
100
AcDbVertex
100
AcDbPolyFaceMeshVertex
 10
16.30483089726958
 20
17.80779584109204
 30
12.121909
 70
   192
  0
VERTEX
  5
11FD
330
11F1
100
AcDbEntity
  8
1
  6
Continuous
 62
     7
100
AcDbVertex
100
AcDbPolyFaceMeshVertex
 10
17.24140189726958
 20
17.53364584109204
 30
12.121909
 70
   192
  0
VERTEX
  5
11FE
330
11F1
100
AcDbEntity
  8
1
  6
Continuous
 62
     7
100
AcDbVertex
100
AcDbPolyFaceMeshVertex
 10
17.25739889726958
 20
17.43859584109203
 30
12.121909
 70
   192
  0
VERTEX
  5
11FF
330
11F1
100
AcDbEntity
  8
1
  6
Continuous
 62
     7
100
AcDbVertex
100
AcDbPolyFaceMeshVertex
 10
16.30483089726958
 20
17.93279584109204
 30
12.121909
 70
   192
  0
VERTEX
  5
1200
330
11F1
100
AcDbEntity
  8
1
  6
Continuous
 62
     7
100
AcDbVertex
100
AcDbPolyFaceMeshVertex
 10
16.45483089726958
 20
17.68279584109204
 30
12.121909
 70
   192
  0
VERTEX
  5
1201
330
11F1
100
AcDbEntity
  8
1
  6
Continuous
 62
     7
100
AcDbVertex
100
AcDbPolyFaceMeshVertex
 10
16.55483089726958
 20
17.68279584109204
 30
12.121909
 70
   192
  0
VERTEX
  5
1202
330
11F1
100
AcDbEntity
  8
1
  6
Continuous
 62
     7
100
AcDbVertex
100
AcDbPolyFaceMeshVertex
 10
16.65483089726958
 20
17.68279584109204
 30
12.121909
 70
   192
  0
VERTEX
  5
1203
330
11F1
100
AcDbEntity
  8
1
  6
Continuous
 62
     7
100
AcDbVertex
100
AcDbPolyFaceMeshVertex
 10
16.75483089726958
 20
17.68279584109204
 30
12.121909
 70
   192
  0
VERTEX
  5
1204
330
11F1
100
AcDbEntity
  8
1
  6
Continuous
 62
     7
100
AcDbVertex
100
AcDbPolyFaceMeshVertex
 10
17.11737389726958
 20
17.41272884109203
 30
12.121909
 70
   192
  0
VERTEX
  5
1205
330
11F1
100
AcDbEntity
  8
1
  6
Continuous
 62
     7
100
AcDbVertex
100
AcDbPolyFaceMeshVertex
 10
17.11733089726958
 20
17.23279584109204
 30
12.121909
 70
   192
  0
VERTEX
  5
1206
330
11F1
100
AcDbEntity
  8
1
  6
Continuous
 62
     7
100
AcDbVertex
100
AcDbPolyFaceMeshVertex
 10
17.42333589726958
 20
17.62678984109203
 30
12.121909
 70
   192
  0
VERTEX
  5
1207
330
11F1
100
AcDbEntity
  8
1
  6
Continuous
 62
     7
100
AcDbFaceRecord
 10
0.0
 20
0.0
 30
0.0
 70
   128
 71
    -1
 72
     2
 73
   -12
 74
     8
  0
VERTEX
  5
1208
330
11F1
100
AcDbEntity
  8
1
  6
Continuous
 62
     7
100
AcDbFaceRecord
 10
0.0
 20
0.0
 30
0.0
 70
   128
 71
    -2
 72
     1
 73
    19
  0
VERTEX
  5
1209
330
11F1
100
AcDbEntity
  8
1
  6
Continuous
 62
     7
100
AcDbFaceRecord
 10
0.0
 20
0.0
 30
0.0
 70
   128
 71
    -3
 72
    -4
 73
   -10
 74
    -5
  0
VERTEX
  5
120A
330
11F1
100
AcDbEntity
  8
1
  6
Continuous
 62
     7
100
AcDbFaceRecord
 10
0.0
 20
0.0
 30
0.0
 70
   128
 71
    -4
 72
     3
 73
    14
 74
   -11
  0
VERTEX
  5
120B
330
11F1
100
AcDbEntity
  8
1
  6
Continuous
 62
     7
100
AcDbFaceRecord
 10
0.0
 20
0.0
 30
0.0
 70
   128
 71
    -3
 72
    -5
 73
     9
 74
    -6
  0
VERTEX
  5
120C
330
11F1
100
AcDbEntity
  8
1
  6
Continuous
 62
     7
100
AcDbFaceRecord
 10
0.0
 20
0.0
 30
0.0
 70
   128
 71
    -3
 72
     6
 73
    -8
 74
     7
  0
VERTEX
  5
120D
330
11F1
100
AcDbEntity
  8
1
  6
Continuous
 62
     7
100
AcDbFaceRecord
 10
0.0
 20
0.0
 30
0.0
 70
   128
 71
    -7
 72
    -8
 73
    13
 74
    21
  0
VERTEX
  5
120E
330
11F1
100
AcDbEntity
  8
1
  6
Continuous
 62
     7
100
AcDbFaceRecord
 10
0.0
 20
0.0
 30
0.0
 70
   128
 71
    -9
 72
     5
 73
    18
  0
VERTEX
  5
120F
330
11F1
100
AcDbEntity
  8
1
  6
Continuous
 62
     7
100
AcDbFaceRecord
 10
0.0
 20
0.0
 30
0.0
 70
   128
 71
    -5
 72
    10
 73
    17
  0
VERTEX
  5
1210
330
11F1
100
AcDbEntity
  8
1
  6
Continuous
 62
     7
100
AcDbFaceRecord
 10
0.0
 20
0.0
 30
0.0
 70
   128
 71
   -10
 72
     4
 73
    16
  0
VERTEX
  5
1211
330
11F1
100
AcDbEntity
  8
1
  6
Continuous
 62
     7
100
AcDbFaceRecord
 10
0.0
 20
0.0
 30
0.0
 70
   128
 71
    -4
 72
    11
 73
    15
  0
VERTEX
  5
1212
330
11F1
100
AcDbEntity
  8
1
  6
Continuous
 62
     7
100
AcDbFaceRecord
 10
0.0
 20
0.0
 30
0.0
 70
   128
 71
    -8
 72
    12
 73
    20
 74
   -13
  0
SEQEND
  5
1213
330
11F1
100
AcDbEntity
  8
1
  6
Continuous
 62
     7
  0
3DFACE
  5
1214
330
113C
100
AcDbEntity
  8
1
  6
Continuous
 62
     7
100
AcDbFace
 10
15.09144189726958
 20
17.71940684109203
 30
12.121909
 11
15.17983089726958
 21
17.62279584109204
 31
12.121909
 12
16.55154689726958
 22
17.68279584109204
 32
12.121909
 13
15.17983089726958
 23
17.68279584109204
 33
12.121909
 70
     3
  0
3DFACE
  5
1215
330
113C
100
AcDbEntity
  8
1
  6
Continuous
 62
     7
100
AcDbFace
 10
16.55154689726958
 20
17.68279584109204
 30
12.121909
 11
15.17983089726958
 21
17.62279584109204
 31
12.121909
 12
16.78531889726958
 22
17.25097284109203
 32
12.121909
 13
16.55154689726958
 23
17.68279584109204
 33
12.121909
 70
     5
  0
3DFACE
  5
1216
330
113C
100
AcDbEntity
  8
1
  6
Continuous
 62
     7
100
AcDbFace
 10
15.35827589726958
 20
17.65279584109204
 30
12.121909
 11
15.35376389726958
 21
17.61331084109204
 31
12.121909
 12
16.75531889726958
 22
17.28871684109203
 32
12.121909
 13
16.53912289726958
 23
17.65279584109204
 33
12.121909
 70
     5
  0
3DFACE
  5
1217
330
113C
100
AcDbEntity
  8
1
  6
Continuous
 62
     7
100
AcDbFace
 10
15.35376389726958
 20
17.61331084109204
 30
12.121909
 11
15.35827589726958
 21
17.65279584109204
 31
12.121909
 12
15.33840589726958
 22
17.63506584109203
 32
12.121909
 13
15.33840589726958
 23
17.63506584109203
 33
12.121909
 70
     1
  0
LWPOLYLINE
  5
1218
330
113C
100
AcDbEntity
  8
2
  6
Continuous
 62
     7
100
AcDbPolyline
 90
        4
 70
     1
 43
0.0
 38
12.121909
 10
16.87233089726958
 20
17.25373684109205
 10
16.87233089726958
 20
17.44123684109204
 10
16.80983089726958
 20
17.44123684109204
 10
16.80983089726958
 20
17.25373684109205
  0
3DFACE
  5
1219
330
113C
100
AcDbEntity
  8
1
  6
Continuous
 62
     7
100
AcDbFace
 10
16.55154689726958
 20
17.68279584109204
 30
12.121909
 11
16.78531889726958
 21
17.25097284109203
 31
12.121909
 12
16.80397289726959
 22
17.43865284109203
 32
12.121909
 13
16.56568889726958
 23
17.67693684109204
 33
12.121909
 70
     3
  0
3DFACE
  5
121A
330
113C
100
AcDbEntity
  8
1
  6
Continuous
 62
     7
100
AcDbFace
 10
16.80397289726959
 20
17.43865284109203
 30
12.121909
 11
16.78531889726958
 21
17.25097284109203
 31
12.121909
 12
16.80983089726958
 22
17.27045684109204
 32
12.121909
 13
16.80983089726958
 23
17.42451184109204
 33
12.121909
 70
     1
  0
3DFACE
  5
121B
330
113C
100
AcDbEntity
  8
1
  6
Continuous
 62
     7
100
AcDbFace
 10
16.53912289726958
 20
17.65279584109204
 30
12.121909
 11
16.75531889726958
 21
17.28871684109203
 31
12.121909
 12
16.77397289726958
 22
17.42622784109203
 32
12.121909
 13
16.55326389726958
 23
17.64694084109203
 33
12.121909
 70
     3
  0
3DFACE
  5
121C
330
113C
100
AcDbEntity
  8
1
  6
Continuous
 62
     7
100
AcDbFace
 10
16.77397289726958
 20
17.42622784109203
 30
12.121909
 11
16.75531889726958
 21
17.28871684109203
 31
12.121909
 12
16.77227589726958
 22
17.29254484109203
 32
12.121909
 13
16.77983089726958
 23
17.30820084109204
 33
12.121909
 70
     9
  0
3DFACE
  5
121D
330
113C
100
AcDbEntity
  8
1
  6
Continuous
 62
     7
100
AcDbFace
 10
16.77397289726958
 20
17.42622784109203
 30
12.121909
 11
16.77983089726958
 21
17.30820084109204
 31
12.121909
 12
16.77983089726958
 22
17.41208684109204
 32
12.121909
 13
16.77983089726958
 23
17.41208684109204
 33
12.121909
 70
     1
  0
LINE
  5
121E
330
113C
100
AcDbEntity
  8
3
  6
Continuous
 62
     7
100
AcDbLine
 10
16.86733089726958
 20
17.68279584109204
 30
12.121909
 11
17.11733089726958
 21
17.68279584109204
 31
12.121909
  0
LINE
  5
121F
330
113C
100
AcDbEntity
  8
1
  6
Continuous
 62
     7
100
AcDbLine
 10
16.86733089726958
 20
17.45842884109203
 30
12.121909
 11
16.65622389726958
 21
17.66953584109204
 31
12.121909
  0
LINE
  5
1220
330
113C
100
AcDbEntity
  8
1
  6
Continuous
 62
     7
100
AcDbLine
 10
16.81381089726958
 20
17.44123684109204
 30
12.121909
 11
16.57960989726958
 21
17.67544084109204
 31
12.121909
  0
ARC
  5
1221
330
113C
100
AcDbEntity
  8
1
  6
Continuous
 62
     7
100
AcDbCircle
 10
-16.69731389726958
 20
18.66823684109204
 30
-12.121909
 40
1.0
210
0.0
220
0.0
230
-1.0
100
AcDbArc
 50
260.211234
 51
277.5635319999999
  0
LINE
  5
1222
330
113C
100
AcDbEntity
  8
1
  6
Continuous
 62
     7
100
AcDbLine
 10
16.86733089726958
 20
17.67056284109204
 30
12.121909
 11
16.85659789726958
 21
17.68129184109203
 31
12.121909
  0
LINE
  5
1223
330
113C
100
AcDbEntity
  8
1
  6
Continuous
 62
     7
100
AcDbLine
 10
16.86733089726958
 20
17.59985084109205
 30
12.121909
 11
16.79397589726958
 21
17.67320484109203
 31
12.121909
  0
LINE
  5
1224
330
113C
100
AcDbEntity
  8
1
  6
Continuous
 62
     7
100
AcDbLine
 10
16.86733089726958
 20
17.52914184109204
 30
12.121909
 11
16.72743289726958
 21
17.66903984109203
 31
12.121909
  0
LINE
  5
1225
330
113C
100
AcDbEntity
  8
2
  6
Continuous
 62
     7
100
AcDbLine
 10
15.17670889726958
 20
18.61628384109204
 30
12.121909
 11
15.11019689726958
 21
18.68279584109204
 31
12.121909
  0
LINE
  5
1226
330
113C
100
AcDbEntity
  8
2
  6
Continuous
 62
     7
100
AcDbLine
 10
15.17670889726958
 20
18.54557484109204
 30
12.121909
 11
15.03948789726958
 21
18.68279584109204
 31
12.121909
  0
LINE
  5
1227
330
113C
100
AcDbEntity
  8
2
  6
Continuous
 62
     7
100
AcDbLine
 10
15.17670889726958
 20
18.47486284109204
 30
12.121909
 11
14.96877589726958
 21
18.68279584109204
 31
12.121909
  0
LINE
  5
1228
330
113C
100
AcDbEntity
  8
2
  6
Continuous
 62
     7
100
AcDbLine
 10
15.14311789726958
 20
18.43774384109204
 30
12.121909
 11
14.89806689726958
 21
18.68279584109204
 31
12.121909
  0
ENDBLK
  5
122A
330
113C
100
AcDbEntity
  8
0
100
AcDbBlockEnd
  0
BLOCK
  5
1335
330
132B
100
AcDbEntity
  8
0
100
AcDbBlockBegin
  2
*D6
 70
     1
 10
0.0
 20
0.0
 30
0.0
  3
*D6
  1

  0
LINE
  5
132C
330
132B
100
AcDbEntity
  8
DIM
 62
     0
370
    -2
100
AcDbLine
 10
-1.497202375249509
 20
11.88074268778687
 30
0.0
 11
-1.497202375249509
 21
12.2539304977834
 31
0.0
  0
LINE
  5
132D
330
132B
100
AcDbEntity
  8
DIM
 62
     0
370
    -2
100
AcDbLine
 10
1.008797624750487
 20
11.88074268778687
 30
0.0
 11
1.008797624750487
 21
12.2539304977834
 31
0.0
  0
LINE
  5
132E
330
132B
100
AcDbEntity
  8
DIM
 62
     0
370
    -2
100
AcDbLine
 10
-1.497202375249509
 20
12.1289304977834
 30
0.0
 11
1.008797624750487
 21
12.1289304977834
 31
0.0
  0
INSERT
  5
132F
330
132B
100
AcDbEntity
  8
DIM
 62
     0
370
    -2
100
AcDbBlockReference
  2
_ARCHTICK
 10
-1.497202375249509
 20
12.1289304977834
 30
0.0
 41
0.125
 42
0.125
 43
0.125
 50
180.0
  0
INSERT
  5
1330
330
132B
100
AcDbEntity
  8
DIM
 62
     0
370
    -2
100
AcDbBlockReference
  2
_ARCHTICK
 10
1.008797624750487
 20
12.1289304977834
 30
0.0
 41
0.125
 42
0.125
 43
0.125
  0
MTEXT
  5
1331
330
132B
100
AcDbEntity
  8
DIM
 62
     0
100
AcDbMText
 10
-0.244202375249511
 20
12.33726383111674
 30
0.0
 40
0.125
 41
0.0
 71
     5
 72
     1
  1
\A1;2{\H1.000000x;\S1/2;}"
 73
     1
 44
1.0
1001
ACAD
1000
MTEXTBEGIN
1070
    73
1070
     1
1070
    44
1040
1.0
1070
    74
1070
     0
1000
MTEXTEND
  0
POINT
  5
1332
330
132B
100
AcDbEntity
  8
Defpoints
 62
     0
100
AcDbPoint
 10
-1.497202375249509
 20
11.75574268778687
 30
12.121909
  0
POINT
  5
1333
330
132B
100
AcDbEntity
  8
Defpoints
 62
     0
100
AcDbPoint
 10
1.008797624750487
 20
11.75574268778687
 30
12.121909
  0
POINT
  5
1334
330
132B
100
AcDbEntity
  8
Defpoints
 62
     0
100
AcDbPoint
 10
1.008797624750487
 20
12.1289304977834
 30
0.0
  0
ENDBLK
  5
1336
330
132B
100
AcDbEntity
  8
0
100
AcDbBlockEnd
  0
BLOCK
  5
13A9
330
139F
100
AcDbEntity
  8
0
100
AcDbBlockBegin
  2
*D7
 70
     1
 10
0.0
 20
0.0
 30
0.0
  3
*D7
  1

  0
LINE
  5
13A0
330
139F
100
AcDbEntity
  8
DIM
 62
     0
370
    -2
100
AcDbLine
 10
-1.872202375249512
 20
8.630742687786876
 30
0.0
 11
-2.249793343407084
 21
8.630742687786876
 31
0.0
  0
LINE
  5
13A1
330
139F
100
AcDbEntity
  8
DIM
 62
     0
370
    -2
100
AcDbLine
 10
-1.622202375249512
 20
9.257589687786873
 30
0.0
 11
-2.249793343407084
 21
9.257589687786873
 31
0.0
  0
LINE
  5
13A2
330
139F
100
AcDbEntity
  8
DIM
 62
     0
370
    -2
100
AcDbLine
 10
-2.124793343407084
 20
8.630742687786876
 30
0.0
 11
-2.124793343407084
 21
9.257589687786873
 31
0.0
  0
INSERT
  5
13A3
330
139F
100
AcDbEntity
  8
DIM
 62
     0
370
    -2
100
AcDbBlockReference
  2
_ARCHTICK
 10
-2.124793343407084
 20
8.630742687786876
 30
0.0
 41
0.125
 42
0.125
 43
0.125
 50
270.0
  0
INSERT
  5
13A4
330
139F
100
AcDbEntity
  8
DIM
 62
     0
370
    -2
100
AcDbBlockReference
  2
_ARCHTICK
 10
-2.124793343407084
 20
9.257589687786873
 30
0.0
 41
0.125
 42
0.125
 43
0.125
 50
90.0
  0
MTEXT
  5
13A5
330
139F
100
AcDbEntity
  8
DIM
 62
     0
100
AcDbMText
 10
-2.333126676740419
 20
8.944166187786874
 30
0.0
 40
0.125
 41
0.0
 71
     5
 72
     1
  1
\A1;{\H1.000000x;\S5/8;}"
 11
0.0000000000000001
 21
1.0
 31
0.0
 73
     1
 44
1.0
1001
ACAD
1000
MTEXTBEGIN
1070
    73
1070
     1
1070
    44
1040
1.0
1070
    74
1070
     0
1000
MTEXTEND
  0
POINT
  5
13A6
330
139F
100
AcDbEntity
  8
Defpoints
 62
     0
100
AcDbPoint
 10
-1.747202375249512
 20
8.630742687786876
 30
12.121909
  0
POINT
  5
13A7
330
139F
100
AcDbEntity
  8
Defpoints
 62
     0
100
AcDbPoint
 10
-1.497202375249512
 20
9.257589687786873
 30
12.121909
  0
POINT
  5
13A8
330
139F
100
AcDbEntity
  8
Defpoints
 62
     0
100
AcDbPoint
 10
-2.124793343407084
 20
9.257589687786873
 30
0.0
  0
ENDBLK
  5
13AA
330
139F
100
AcDbEntity
  8
0
100
AcDbBlockEnd
  0
BLOCK
  5
13B7
330
13AD
100
AcDbEntity
  8
0
100
AcDbBlockBegin
  2
*D8
 70
     1
 10
0.0
 20
0.0
 30
0.0
  3
*D8
  1

  0
LINE
  5
13AE
330
13AD
100
AcDbEntity
  8
DIM
 62
     0
370
    -2
100
AcDbLine
 10
-1.872202375249512
 20
8.630742687786876
 30
0.0
 11
-2.89275923200308
 21
8.630742687786876
 31
0.0
  0
LINE
  5
13AF
330
13AD
100
AcDbEntity
  8
DIM
 62
     0
370
    -2
100
AcDbLine
 10
-0.8097023752495111
 20
9.380742687786876
 30
0.0
 11
-2.892759232003079
 21
9.380742687786876
 31
0.0
  0
LINE
  5
13B0
330
13AD
100
AcDbEntity
  8
DIM
 62
     0
370
    -2
100
AcDbLine
 10
-2.76775923200308
 20
8.630742687786876
 30
0.0
 11
-2.767759232003079
 21
9.380742687786876
 31
0.0
  0
INSERT
  5
13B1
330
13AD
100
AcDbEntity
  8
DIM
 62
     0
370
    -2
100
AcDbBlockReference
  2
_ARCHTICK
 10
-2.76775923200308
 20
8.630742687786876
 30
0.0
 41
0.125
 42
0.125
 43
0.125
 50
270.0
  0
INSERT
  5
13B2
330
13AD
100
AcDbEntity
  8
DIM
 62
     0
370
    -2
100
AcDbBlockReference
  2
_ARCHTICK
 10
-2.767759232003079
 20
9.380742687786876
 30
0.0
 41
0.125
 42
0.125
 43
0.125
 50
90.0
  0
MTEXT
  5
13B3
330
13AD
100
AcDbEntity
  8
DIM
 62
     0
100
AcDbMText
 10
-2.976092565336415
 20
9.005742687786876
 30
0.0
 40
0.125
 41
0.0
 71
     5
 72
     1
  1
\A1;{\H1.000000x;\S3/4;}"
 11
0.0000000000000001
 21
1.0
 31
0.0
 73
     1
 44
1.0
1001
ACAD
1000
MTEXTBEGIN
1070
    73
1070
     1
1070
    44
1040
1.0
1070
    74
1070
     0
1000
MTEXTEND
  0
POINT
  5
13B4
330
13AD
100
AcDbEntity
  8
Defpoints
 62
     0
100
AcDbPoint
 10
-1.747202375249512
 20
8.630742687786876
 30
12.121909
  0
POINT
  5
13B5
330
13AD
100
AcDbEntity
  8
Defpoints
 62
     0
100
AcDbPoint
 10
-0.6847023752495112
 20
9.380742687786876
 30
12.121909
  0
POINT
  5
13B6
330
13AD
100
AcDbEntity
  8
Defpoints
 62
     0
100
AcDbPoint
 10
-2.767759232003079
 20
9.380742687786876
 30
0.0
  0
ENDBLK
  5
13B8
330
13AD
100
AcDbEntity
  8
0
100
AcDbBlockEnd
  0
BLOCK
  5
13EC
330
13EA
100
AcDbEntity
  8
0
100
AcDbBlockBegin
  2
A$C612D7DA8
 70
     0
 10
0.0
 20
0.0
 30
0.0
  3
A$C612D7DA8
  1

  0
TEXT
  5
13EB
330
13EA
100
AcDbEntity
  8
DIM
100
AcDbText
 10
0.0000000000580762
 20
0.0000000052588476
 30
0.0
 40
0.125
  1
TIM CORE
 41
0.8
  7
ADESK1
100
AcDbText
  0
ENDBLK
  5
13ED
330
13EA
100
AcDbEntity
  8
0
100
AcDbBlockEnd
  0
ENDSEC
  0
SECTION
  2
ENTITIES
  0
TEXT
  5
19D
330
2
100
AcDbEntity
  8
DIM
  6
Continuous
100
AcDbText
 10
-114.0759806286337
 20
120.8126026985917
 30
0.0
 40
0.1
  1
 
  7
ROMANS
 11
-114.0759806286337
 21
120.8626026985917
 31
0.0
100
AcDbText
 73
     2
  0
TEXT
  5
1A0
330
2
100
AcDbEntity
  8
DIM
  6
Continuous
100
AcDbText
 10
-110.1672806286337
 20
120.8375026985917
 30
0.0
 40
0.1
  1
 
  7
ROMANS
 11
-110.1672806286337
 21
120.8875026985917
 31
0.0
100
AcDbText
 73
     2
  0
TEXT
  5
1A1
330
2
100
AcDbEntity
  8
DIM
  6
Continuous
100
AcDbText
 10
-109.2372806286337
 20
118.0338026985917
 30
0.0
 40
0.125
  1
 
  7
ROMANS
 11
-109.2372806286337
 21
118.0963026985917
 31
0.0
100
AcDbText
 73
     2
  0
TEXT
  5
1A2
330
2
100
AcDbEntity
  8
DIM
  6
Continuous
100
AcDbText
 10
-109.2372806286337
 20
117.8463026985917
 30
0.0
 40
0.125
  1
 
  7
ROMANS
 11
-109.2372806286337
 21
117.9088026985917
 31
0.0
100
AcDbText
 73
     2
  0
TEXT
  5
1A3
330
2
100
AcDbEntity
  8
DIM
  6
Continuous
100
AcDbText
 10
-109.2372806286337
 20
117.6588026985917
 30
0.0
 40
0.125
  1
 
  7
ROMANS
 11
-109.2372806286337
 21
117.7213026985917
 31
0.0
100
AcDbText
 73
     2
  0
TEXT
  5
1A4
330
2
100
AcDbEntity
  8
DIM
  6
Continuous
100
AcDbText
 10
-109.2372806286337
 20
117.4713026985917
 30
0.0
 40
0.125
  1
 
  7
ROMANS
 11
-109.2372806286337
 21
117.5338026985917
 31
0.0
100
AcDbText
 73
     2
  0
TEXT
  5
1A5
330
2
100
AcDbEntity
  8
DIM
  6
Continuous
100
AcDbText
 10
-109.2372806286337
 20
117.2838026985917
 30
0.0
 40
0.125
  1
 
  7
ROMANS
 11
-109.2372806286337
 21
117.3463026985917
 31
0.0
100
AcDbText
 73
     2
  0
TEXT
  5
3E1
330
2
100
AcDbEntity
  8
DIM
 62
     7
100
AcDbText
 10
0.0374862870075958
 20
4.626650391650128
 30
4.669299999999999
 40
0.15625
  1
SOLERA-T TGU 
 41
0.8
 11
0.0374862870075958
 21
4.704775391650128
 31
4.669299999999999
100
AcDbText
 73
     2
  0
TEXT
  5
3E2
330
2
100
AcDbEntity
  8
DIM
 62
     7
100
AcDbText
 10
0.0374862870075958
 20
4.072064783584464
 30
4.669299999999999
 40
0.15625
  1
SOLERA-T TGU CROSS SECTION
 41
0.8
 11
0.0374862870075958
 21
4.150189783584464
 31
4.669299999999999
100
AcDbText
 73
     2
  0
LINE
  5
3F8
330
2
100
AcDbEntity
  8
0
100
AcDbLine
 10
-3.85353284826153
 20
4.150392805984522
 30
0.0
 11
-0.486487567537921
 21
4.150392805984522
 31
0.0
  0
LINE
  5
3F9
330
2
100
AcDbEntity
  8
0
100
AcDbLine
 10
-0.4885328482615306
 20
3.474169506195531
 30
0.0
 11
3.386467151738468
 21
3.474169506195531
 31
0.0
  0
LINE
  5
3FA
330
2
100
AcDbEntity
  8
0
100
AcDbLine
 10
-0.4885328482615306
 20
4.474169506195531
 30
0.0
 11
3.386467151738468
 21
4.474169506195531
 31
0.0
  0
LINE
  5
3FC
330
2
100
AcDbEntity
  8
0
100
AcDbLine
 10
0.5114671517384695
 20
3.224169506195531
 30
0.0
 11
0.5114671517384695
 21
3.474169506195531
 31
0.0
  0
LINE
  5
3FD
330
2
100
AcDbEntity
  8
0
100
AcDbLine
 10
2.011467151738469
 20
3.224169506195531
 30
0.0
 11
2.011467151738469
 21
3.474169506195531
 31
0.0
  0
LINE
  5
3FE
330
2
100
AcDbEntity
  8
0
100
AcDbLine
 10
0.1017128032263246
 20
3.474169506195531
 30
0.0
 11
0.1017128032263246
 21
3.854169506195531
 31
0.0
  0
LINE
  5
3FF
330
2
100
AcDbEntity
  8
0
100
AcDbLine
 10
1.274274216098288
 20
3.474169506195531
 30
0.0
 11
1.274274216098288
 21
3.854169506195531
 31
0.0
  0
LINE
  5
400
330
2
100
AcDbEntity
  8
0
100
AcDbLine
 10
3.006467151738469
 20
3.474169506195531
 30
0.0
 11
3.006467151738469
 21
3.854169506195531
 31
0.0
  0
TEXT
  5
401
330
2
100
AcDbEntity
  8
DIM
100
AcDbText
 10
-0.4362328482615308
 20
3.316669506195531
 30
0.0
 40
0.065
  1
Scale
 41
0.8
100
AcDbText
  0
TEXT
  5
403
330
2
100
AcDbEntity
  8
DIM
100
AcDbText
 10
2.064267151738468
 20
3.316669506195531
 30
0.0
 40
0.065
  1
Sheet
 41
0.8
100
AcDbText
  0
TEXT
  5
404
330
2
100
AcDbEntity
  8
DIM
100
AcDbText
 10
-0.4006328482615307
 20
3.740069506195531
 30
0.0
 40
0.065
  1
DRWN.
 41
0.8
100
AcDbText
  0
TEXT
  5
405
330
2
100
AcDbEntity
  8
DIM
100
AcDbText
 10
0.1706128032263248
 20
3.740069506195531
 30
0.0
 40
0.065
  1
DATE:
 41
0.8
100
AcDbText
  0
TEXT
  5
406
330
2
100
AcDbEntity
  8
DIM
100
AcDbText
 10
1.345274216098288
 20
3.740069506195531
 30
0.0
 40
0.065
  1
DWG NO.
 41
0.8
100
AcDbText
  0
TEXT
  5
407
330
2
100
AcDbEntity
  8
DIM
100
AcDbText
 10
3.086967151738469
 20
3.740069506195531
 30
0.0
 40
0.065
  1
REV
  7
ADESK1
100
AcDbText
  0
TEXT
  5
415
330
2
100
AcDbEntity
  8
DIM
100
AcDbText
 10
-0.4006328482615307
 20
4.352604651484135
 30
0.0
 40
0.065
  1
TITLE:
 41
0.8
100
AcDbText
  0
TEXT
  5
416
330
2
100
AcDbEntity
  8
DIM
100
AcDbText
 10
-0.3669336580973788
 20
3.543662206968412
 30
0.0
 40
0.09375
  1
JWS
 41
0.8
100
AcDbText
  0
TEXT
  5
417
330
2
100
AcDbEntity
  8
DIM
 62
     7
100
AcDbText
 10
1.777579396748216
 20
3.543662206968412
 30
0.0
 40
0.125
  1
300-3027-12
 41
0.8
100
AcDbText
  0
TEXT
  5
419
330
2
100
AcDbEntity
  8
DIM
100
AcDbText
 10
-0.0396328482615305
 20
3.311294928709637
 30
0.0
 40
0.09375
  1
1:1
 41
0.8
100
AcDbText
  0
TEXT
  5
671
330
2
100
AcDbEntity
  8
DIM
100
AcDbText
 10
0.1691927161133151
 20
3.543662206968412
 30
0.0
 40
0.09375
  1
07/15/04
 41
0.8
100
AcDbText
  0
TEXT
  5
AF9
330
2
100
AcDbEntity
  8
DIM
100
AcDbText
 10
1.622818078105177
 20
8.794075652625942
 30
0.0
 40
0.125
  1
STRUCTURAL SEAL
 41
0.8
  7
ADESK1
100
AcDbText
  0
TEXT
  5
AFC
330
2
100
AcDbEntity
  8
DIM
100
AcDbText
 10
-0.5855205081550316
 20
8.047846583921227
 30
0.0
 40
0.125
  1
SPACER
 41
0.8
  7
ADESK1
100
AcDbText
  0
TEXT
  5
AFD
330
2
100
AcDbEntity
  8
DIM
100
AcDbText
 10
1.45272757385167
 20
11.76410190476088
 30
0.0
 40
0.125
  1
GLASS AS SPECIFIED
 41
0.8
  7
ADESK1
100
AcDbText
  0
LWPOLYLINE
  5
B17
330
2
100
AcDbEntity
  8
DIM
 62
     7
100
AcDbPolyline
 90
        3
 70
     0
 10
-0.799441219656011
 20
8.803365480464298
 40
0.0
 41
0.03
 10
-0.6600280131601371
 20
8.803365480464298
 40
0.0
 41
0.0
 10
-0.3178443069713279
 20
8.803365480464298
 40
0.0
 41
0.0
  0
LWPOLYLINE
  5
B19
330
2
100
AcDbEntity
  8
DIM
 62
     7
100
AcDbPolyline
 90
        3
 70
     0
 10
-0.799441219656011
 20
9.070130281107628
 40
0.0
 41
0.03
 10
-0.6600280131601371
 20
9.070130281107628
 40
0.0
 41
0.0
 10
-0.3178443069713279
 20
9.070130281107628
 40
0.0
 41
0.0
  0
TEXT
  5
B1A
330
2
100
AcDbEntity
  8
DIM
100
AcDbText
 10
-0.1813685485314509
 20
9.018181075202958
 30
0.0
 40
0.125
  1
F MAX.
 41
0.8
  7
ADESK1
100
AcDbText
  0
TEXT
  5
B1B
330
2
100
AcDbEntity
  8
DIM
100
AcDbText
 10
-0.1813685485314509
 20
8.815800122822006
 30
0.0
 40
0.125
  1
SEE NOTE 1
 41
0.8
  7
ADESK1
100
AcDbText
  0
TEXT
  5
B1E
330
2
100
AcDbEntity
  8
DIM
100
AcDbText
 10
0.4874397958313292
 20
8.080057557817319
 30
0.0
 40
0.1125
  1
NOTE '1'
 41
0.8
  7
ADESK1
100
AcDbText
  0
TEXT
  5
B1F
330
2
100
AcDbEntity
  8
DIM
100
AcDbText
 10
0.4874397958313292
 20
7.897914700674461
 30
0.0
 40
0.1125
  1
MAXIMUM CLAMPING FORCE
 41
0.8
  7
ADESK1
100
AcDbText
  0
TEXT
  5
B20
330
2
100
AcDbEntity
  8
DIM
100
AcDbText
 10
0.4874397958313292
 20
7.715771843531603
 30
0.0
 40
0.1125
  1
OF 10 LBS / LINEAR INCH
 41
0.8
  7
ADESK1
100
AcDbText
  0
TEXT
  5
B24
330
2
100
AcDbEntity
  8
DIM
100
AcDbText
 10
0.4603163717856827
 20
7.07483400640354
 30
0.0
 40
0.1125
  1
NOTE '2'
 41
0.8
  7
ADESK1
100
AcDbText
  0
TEXT
  5
B25
330
2
100
AcDbEntity
  8
DIM
100
AcDbText
 10
0.4603163717856827
 20
6.892691149260683
 30
0.0
 40
0.1125
  1
OVERALL UNIT THICKNESS =
 41
0.8
  7
ADESK1
100
AcDbText
  0
TEXT
  5
B26
330
2
100
AcDbEntity
  8
DIM
100
AcDbText
 10
0.4603163717856827
 20
6.710548292117826
 30
0.0
 40
0.1125
  1
OUTBOARD LITE THICKNESS PLUS
 41
0.8
  7
ADESK1
100
AcDbText
  0
TEXT
  5
B27
330
2
100
AcDbEntity
  8
DIM
100
AcDbText
 10
0.4603163717856827
 20
6.528405434974969
 30
0.0
 40
0.1125
  1
2 1/2" PLUS INBOARD LITE THICKNESS
 41
0.8
  7
ADESK1
100
AcDbText
  0
TEXT
  5
E2A
330
2
100
AcDbEntity
  8
DIM
100
AcDbText
 10
-3.189538999356557
 20
6.068146259144835
 30
0.0
 40
0.125
  1
* PLUS / MINUS .020"
 41
0.8
  7
ADESK1
100
AcDbText
  0
TEXT
  5
E31
330
2
100
AcDbEntity
  8
DIM
100
AcDbText
 10
-0.4006328482615307
 20
4.853175912216425
 30
0.0
 40
0.065
  1
PROJECT:
 41
0.8
100
AcDbText
  0
LINE
  5
E38
330
2
100
AcDbEntity
  8
0
100
AcDbLine
 10
-0.4885328482615306
 20
5.203616809675723
 30
0.0
 11
3.386467151738468
 21
5.203616809675722
 31
0.0
  0
LINE
  5
E3E
330
2
100
AcDbEntity
  8
0
100
AcDbLine
 10
0.1017128032263246
 20
4.960986180916412
 30
0.0
 11
0.1017128032263245
 21
5.741623552727064
 31
0.0
  0
LINE
  5
E3F
330
2
100
AcDbEntity
  8
0
100
AcDbLine
 10
1.274274216098288
 20
4.960986180916412
 30
0.0
 11
1.274274216098288
 21
5.741623552727064
 31
0.0
  0
TEXT
  5
E40
330
2
100
AcDbEntity
  8
DIM
100
AcDbText
 10
-0.4006328482615307
 20
5.076195310266651
 30
0.0
 40
0.065
  1
ISSUE
 41
0.8
100
AcDbText
  0
TEXT
  5
E41
330
2
100
AcDbEntity
  8
DIM
100
AcDbText
 10
0.4822483940192069
 20
5.076195310266651
 30
0.0
 40
0.065
  1
DATE:
 41
0.8
100
AcDbText
  0
TEXT
  5
E42
330
2
100
AcDbEntity
  8
DIM
100
AcDbText
 10
2.008756411192826
 20
5.076195310266651
 30
0.0
 40
0.065
  1
DESCRIPTION:
 41
0.8
100
AcDbText
  0
LINE
  5
E44
330
2
100
AcDbEntity
  8
0
100
AcDbLine
 10
-0.4885328482615306
 20
5.463202287285865
 30
0.0
 11
3.386467151738468
 21
5.463202287285865
 31
0.0
  0
TEXT
  5
E9B
330
2
100
AcDbEntity
  8
DIM
100
AcDbText
 10
-3.696993291030295
 20
3.375691513099074
 30
3.501999999999999
 40
0.0975
  1
CSI UNIFORM DRAWING SYSTEM 2000
  7
style1
 11
-3.696993291030295
 21
3.473191513099074
 31
3.501999999999999
100
AcDbText
 73
     3
  0
TEXT
  5
E9C
330
2
100
AcDbEntity
  8
DIM
100
AcDbText
 10
-3.696993291030295
 20
3.529501548484116
 30
3.501999999999999
 40
0.0975
  1
DRAWINGS CONFORM TO
  7
style1
 11
-3.696993291030295
 21
3.627001548484116
 31
3.501999999999999
100
AcDbText
 73
     3
  0
TEXT
  5
E9F
330
2
100
AcDbEntity
  8
DIM
100
AcDbText
 10
-3.718211929056437
 20
5.056540453076762
 30
3.501999999999999
 40
0.0935
  1
DIMENSIONS IN INCHES  
 41
0.8
  7
ADESK1
 11
-3.718211929056437
 21
5.150040453076762
 31
3.501999999999999
100
AcDbText
 73
     3
  0
TEXT
  5
EA0
330
2
100
AcDbEntity
  8
DIM
100
AcDbText
 10
-3.710116887370134
 20
3.807063168119452
 30
5.836649999999999
 40
0.0975
  1
ADVANCED GLAZINGS LTD.
  7
style1
 11
-3.710116887370134
 21
3.904563168119452
 31
5.836649999999999
100
AcDbText
 73
     3
  0
TEXT
  5
EA1
330
2
100
AcDbEntity
  8
DIM
100
AcDbText
 10
-3.710116887370134
 20
3.957669849358413
 30
5.836649999999999
 40
0.0975
  1
SOLERA IS A REGISTERED TRADEMARK
  7
style1
 11
-3.710116887370134
 21
4.055169849358414
 31
5.836649999999999
100
AcDbText
 73
     3
  0
LINE
  5
EA2
330
2
100
AcDbEntity
  8
0
100
AcDbLine
 10
-0.486487567537921
 20
3.854169506195531
 30
0.0
 11
3.386467151738468
 21
3.854169506195531
 31
0.0
  0
LINE
  5
EA3
330
2
100
AcDbEntity
  8
0
100
AcDbLine
 10
-3.85353284826153
 20
3.728499023922984
 30
0.0
 11
-0.486487567537921
 21
3.728499023922984
 31
0.0
  0
LWPOLYLINE
  5
EA4
330
2
100
AcDbEntity
  8
0
100
AcDbPolyline
 90
        4
 70
     1
 43
0.03
 10
3.386467151738468
 20
3.224169506195531
 10
3.386467151738468
 20
13.24916950619553
 10
-3.85353284826153
 20
13.24916950619553
 10
-3.85353284826153
 20
3.224169506195531
  0
LWPOLYLINE
  5
EA5
330
2
100
AcDbEntity
  8
0
100
AcDbPolyline
 90
        2
 70
     0
 43
0.03
 10
-3.85353284826153
 20
4.974169506195531
 10
3.386467151738468
 20
4.974169506195531
  0
LINE
  5
EA6
330
2
100
AcDbEntity
  8
0
100
AcDbLine
 10
-0.4885328482615306
 20
4.960079334828762
 30
0.0
 11
-0.4885328482615306
 21
5.737164045889556
 31
0.0
  0
LWPOLYLINE
  5
EA7
330
2
100
AcDbEntity
  8
0
100
AcDbPolyline
 90
        2
 70
     0
 43
0.03
 10
-0.4885328482615306
 20
3.224169506195531
 10
-0.4885328482615306
 20
4.960079334828762
  0
TEXT
  5
F48
330
2
100
AcDbEntity
  8
DIM
100
AcDbText
 10
1.356496337826005
 20
10.85337093601404
 30
0.0
 40
0.125
  1
TIM CORE
 41
0.8
  7
ADESK1
100
AcDbText
  0
LEADER
  5
F4C
330
2
100
AcDbEntity
  8
DIM
100
AcDbLeader
  3
STANDARD
 72
     1
 76
     2
 10
0.7012696082817627
 20
10.50583206260941
 30
0.0
 10
1.313282602554615
 20
10.87940316943744
 30
0.0
1001
ACAD
1000
DSTYLE
1002
{
1070
     6
1000

1070
    73
1070
     0
1070
    74
1070
     0
1070
    77
1070
     0
1070
   147
1040
0.0625
1070
   341
1005
0
1070
   343
1005
0
1002
}
  0
LEADER
  5
F4D
330
2
100
AcDbEntity
  8
DIM
100
AcDbLeader
  3
STANDARD
 72
     1
 76
     2
 10
1.08382972031929
 20
11.06732142835798
 30
0.0
 10
1.406836556577875
 20
11.7635221505871
 30
0.0
1001
ACAD
1000
DSTYLE
1002
{
1070
     6
1000

1070
    73
1070
     0
1070
    74
1070
     0
1070
    77
1070
     0
1070
   147
1040
0.0625
1070
   341
1005
0
1070
   343
1005
0
1002
}
  0
LEADER
  5
F4E
330
2
100
AcDbEntity
  8
DIM
100
AcDbLeader
  3
STANDARD
 72
     1
 76
     3
 10
-1.310406679537008
 20
8.802913463025049
 30
0.0
 10
-0.8173961900984616
 20
8.667069401037966
 30
0.0
 10
-0.4603886232038814
 20
8.276517797067633
 30
0.0
1001
ACAD
1000
DSTYLE
1002
{
1070
     6
1000

1070
    73
1070
     0
1070
    74
1070
     0
1070
    77
1070
     0
1070
   147
1040
0.0625
1070
   341
1005
0
1070
   343
1005
0
1002
}
  0
LINE
  5
105D
330
2
100
AcDbEntity
  8
0
100
AcDbLine
 10
-0.4885328482615306
 20
5.741623552727064
 30
0.0
 11
3.386467151738468
 21
5.741623552727064
 31
0.0
  0
TEXT
  5
110C
330
2
100
AcDbEntity
  8
DIM
100
AcDbText
 10
-3.726000966590222
 20
4.593651421953559
 30
0.0
 40
0.25
  1
SOLERA
  7
style1
100
AcDbText
  0
TEXT
  5
110D
330
2
100
AcDbEntity
  8
DIM
100
AcDbText
 10
-3.733427147692585
 20
4.212591934230822
 30
0.0
 40
0.125
  1
ADVANCED GLAZINGS Ltd.
  7
style1
100
AcDbText
  0
LINE
  5
12DA
330
2
100
AcDbEntity
  8
DIM
100
AcDbLine
 10
1.002797624750487
 20
11.71353043844857
 30
12.121909
 11
1.006939358601291
 21
11.71353043844857
 31
12.121909
  0
DIMENSION
  5
132A
330
2
100
AcDbEntity
  8
DIM
100
AcDbDimension
  2
*D6
 10
1.008797624750487
 20
12.1289304977834
 30
0.0
 11
-0.244202375249511
 21
12.33726383111674
 31
0.0
 70
    32
 71
     5
 42
2.505999999999996
  3
STANDARD
100
AcDbAlignedDimension
 13
-1.497202375249509
 23
11.75574268778687
 33
12.121909
 14
1.008797624750487
 24
11.75574268778687
 34
12.121909
100
AcDbRotatedDimension
1001
ACAD
1000
DSTYLE
1002
{
1070
    73
1070
     0
1070
    74
1070
     0
1070
    77
1070
     1
1070
   341
1005
0
1002
}
  0
LINE
  5
1340
330
2
100
AcDbEntity
  8
DIM
100
AcDbLine
 10
-1.747202375249509
 20
11.81745621398598
 30
0.0
 11
-1.747202375249509
 21
12.75178690047853
 31
0.0
  0
LINE
  5
1341
330
2
100
AcDbEntity
  8
DIM
100
AcDbLine
 10
1.252797624750488
 20
11.81745621398597
 30
0.0
 11
1.252797624750488
 21
12.75178690047852
 31
0.0
  0
LINE
  5
1342
330
2
100
AcDbEntity
  8
DIM
100
AcDbLine
 10
-1.747202375249509
 20
12.62678690047852
 30
0.0
 11
1.007297624750491
 21
12.62678690047852
 31
0.0
  0
INSERT
  5
1343
330
2
100
AcDbEntity
  8
DIM
100
AcDbBlockReference
  2
_ARCHTICK
 10
-1.747202375249509
 20
12.62678690047852
 30
0.0
 41
0.125
 42
0.125
 43
0.125
 50
180.0
  0
INSERT
  5
1344
330
2
100
AcDbEntity
  8
DIM
100
AcDbBlockReference
  2
_ARCHTICK
 10
1.252797624750488
 20
12.62678690047852
 30
0.0
 41
0.125
 42
0.125
 43
0.125
  0
MTEXT
  5
1345
330
2
100
AcDbEntity
  8
DIM
100
AcDbMText
 10
-0.2823211681284459
 20
12.75178690047853
 30
0.0
 40
0.125
 41
0.0
 71
     5
 72
     1
  1
\A1;SEE NOTE 2
 73
     1
 44
1.0
1001
ACAD
1000
MTEXTBEGIN
1070
    73
1070
     1
1070
    44
1040
1.0
1070
    74
1070
     0
1000
MTEXTEND
  0
LINE
  5
1346
330
2
100
AcDbEntity
  8
DIM
100
AcDbLine
 10
1.007297624750491
 20
12.62678690047852
 30
0.0
 11
1.252797624750488
 21
12.62678690047852
 31
0.0
  0
TEXT
  5
135E
330
2
100
AcDbEntity
  8
DIM
100
AcDbText
 10
-0.0234055596755836
 20
12.31377122811183
 30
0.0
 40
0.125
  1
*
  7
style1
100
AcDbText
  0
LINE
  5
136D
330
2
100
AcDbEntity
  8
DIM
100
AcDbLine
 10
-1.747202375249512
 20
8.505742687786876
 30
0.0
 11
-1.747202375249512
 21
7.665799135424821
 31
0.0
  0
LINE
  5
136E
330
2
100
AcDbEntity
  8
DIM
100
AcDbLine
 10
-0.8297023752495107
 20
8.505742687786876
 30
0.0
 11
-0.8297023752495109
 21
7.665799135424821
 31
0.0
  0
LINE
  5
136F
330
2
100
AcDbEntity
  8
DIM
100
AcDbLine
 10
-1.747202375249512
 20
7.790799135424821
 30
0.0
 11
-0.8297023752495107
 21
7.790799135424821
 31
0.0
  0
INSERT
  5
1370
330
2
100
AcDbEntity
  8
DIM
100
AcDbBlockReference
  2
_ARCHTICK
 10
-1.747202375249512
 20
7.790799135424821
 30
0.0
 41
0.125
 42
0.125
 43
0.125
 50
180.0
  0
INSERT
  5
1371
330
2
100
AcDbEntity
  8
DIM
100
AcDbBlockReference
  2
_ARCHTICK
 10
-0.8297023752495107
 20
7.790799135424821
 30
0.0
 41
0.125
 42
0.125
 43
0.125
  0
MTEXT
  5
1374
330
2
100
AcDbEntity
  8
DIM
100
AcDbMText
 10
-1.231316458071367
 20
7.529047348507154
 30
0.0
 40
0.125
 41
0.0
 71
     5
 72
     1
  1
SEE NOTE 3
 73
     1
 44
1.0
1001
ACAD
1000
MTEXTBEGIN
1070
    73
1070
     1
1070
    44
1040
1.0
1070
    74
1070
     0
1000
MTEXTEND
  0
TEXT
  5
1375
330
2
100
AcDbEntity
  8
DIM
100
AcDbText
 10
0.4874397958313292
 20
5.914325008776201
 30
0.0
 40
0.1125
  1
3/4" PLUS GLASS THICKNESS
 41
0.8
  7
ADESK1
100
AcDbText
  0
TEXT
  5
1376
330
2
100
AcDbEntity
  8
DIM
100
AcDbText
 10
0.4874397958313292
 20
6.096467865919057
 30
0.0
 40
0.1125
  1
NOTE '3'
 41
0.8
  7
ADESK1
100
AcDbText
  0
DIMENSION
  5
139E
330
2
100
AcDbEntity
  8
DIM
100
AcDbDimension
  2
*D7
 10
-2.124793343407084
 20
9.257589687786873
 30
0.0
 11
-2.333126676740419
 21
8.944166187786874
 31
0.0
 70
    32
 71
     5
 42
0.626846999999998
  3
STANDARD
100
AcDbAlignedDimension
 13
-1.747202375249512
 23
8.630742687786876
 33
12.121909
 14
-1.497202375249512
 24
9.257589687786873
 34
12.121909
 50
90.0
100
AcDbRotatedDimension
1001
ACAD
1000
DSTYLE
1002
{
1070
    73
1070
     0
1070
    74
1070
     0
1070
    77
1070
     1
1070
   271
1070
     3
1070
   272
1070
     3
1070
   341
1005
0
1002
}
  0
DIMENSION
  5
13AC
330
2
100
AcDbEntity
  8
DIM
100
AcDbDimension
  2
*D8
 10
-2.767759232003079
 20
9.380742687786876
 30
0.0
 11
-2.976092565336415
 21
9.005742687786876
 31
0.0
 70
    32
 71
     5
 42
0.75
  3
STANDARD
100
AcDbAlignedDimension
 13
-1.747202375249512
 23
8.630742687786876
 33
12.121909
 14
-0.6847023752495112
 24
9.380742687786876
 34
12.121909
 50
90.0
100
AcDbRotatedDimension
1001
ACAD
1000
DSTYLE
1002
{
1070
    73
1070
     0
1070
    74
1070
     0
1070
    77
1070
     1
1070
   271
1070
     3
1070
   272
1070
     3
1070
   341
1005
0
1002
}
  0
LEADER
  5
13D3
330
2
100
AcDbEntity
  8
DIM
100
AcDbLeader
  3
STANDARD
 72
     1
 73
     0
 74
     0
 40
0.3333333333333333
 41
0.6964285714285713
 76
     5
 10
-3.072662744928614
 20
8.819602515214
 30
0.0
 10
-3.312957757572419
 20
8.519413786380596
 30
0.0
 10
-3.312957757572419
 20
8.243240167889457
 30
0.0
 10
-3.180795512882852
 20
8.003089189837563
 30
0.0
 10
-3.036618488943872
 20
7.858998603006426
 30
0.0
340
13D4
213
0.0
223
-0.0625
233
0.0
1001
ACAD
1000
DSTYLE
1002
{
1070
   147
1040
0.0625
1070
    73
1070
     0
1070
    74
1070
     0
1070
    77
1070
     0
1070
   271
1070
     3
1070
   272
1070
     3
1070
   341
1005
0
1002
}
  0
MTEXT
  5
13D4
102
{ACAD_REACTORS
330
13D3
102
}
330
2
100
AcDbEntity
  8
DIM
100
AcDbMText
 10
-2.974118488943872
 20
7.921498603006426
 30
0.0
 40
0.125
 41
0.25
 71
     1
 72
     1
  1
\A1;SPACER OFFSET
 73
     1
 44
1.0
1001
ACAD
1000
MTEXTBEGIN
1070
    73
1070
     1
1070
    44
1040
1.0
1070
    74
1070
     0
1000
MTEXTEND
  0
MTEXT
  5
13D8
330
2
100
AcDbEntity
  8
DIM
100
AcDbMText
 10
3.040951818970434
 20
3.684153266969023
 30
0.0
 40
0.25
 41
0.28125
 71
     1
 72
     5
  1

  7
style1
 73
     1
 44
1.0
1001
ACAD
1000
MTEXTBEGIN
1070
    73
1070
     1
1070
    44
1040
1.0
1070
    74
1070
     0
1000
MTEXTEND
  0
TEXT
  5
13E1
330
2
100
AcDbEntity
  8
DIM
100
AcDbText
 10
3.119454367590137
 20
3.550581579611975
 30
0.0
 40
0.125
  1
05
 41
0.8
  7
ADESK1
100
AcDbText
  0
MTEXT
  5
13F0
330
2
100
AcDbEntity
  8
DIM
100
AcDbMText
 10
-2.65900966372294
 20
9.893606126157354
 30
0.0
 40
0.125
 41
0.25
 71
     9
 72
     1
  1
{\Farchitec.shx;MATERIAL\PTRANSITION LINE}
 73
     1
 44
1.0
1001
ACAD
1000
MTEXTBEGIN
1070
    73
1070
     1
1070
    44
1040
1.0
1070
    74
1070
     0
1000
MTEXTEND
  0
TEXT
  5
13F5
330
2
100
AcDbEntity
  8
DIM
100
AcDbText
 10
-2.691716573123833
 20
11.1803054379297
 30
0.0
 40
0.125
  1
OUTER LITE
 41
0.8
  7
ADESK1
100
AcDbText
  0
TEXT
  5
13FE
330
2
100
AcDbEntity
  8
DIM
100
AcDbText
 10
1.365814433226149
 20
9.73310090612799
 30
0.0
 40
0.125
  1
INNER LITE
 41
0.8
  7
ADESK1
100
AcDbText
  0
TEXT
  5
13FF
330
2
100
AcDbEntity
  8
DIM
100
AcDbText
 10
0.4731275484378783
 20
7.433348719177526
 30
0.0
 40
0.1125
  1
1/2" INSTALLATION BITE
 41
0.8
  7
ADESK1
100
AcDbText
  0
LEADER
  5
1400
330
2
100
AcDbEntity
  8
DIM
100
AcDbLeader
  3
STANDARD
 72
     1
 76
     2
 10
0.8628996247504918
 20
9.394498687786891
 30
12.121909
 10
1.536179137295484
 20
8.859667861313504
 30
12.121909
1001
ACAD
1000
DSTYLE
1002
{
1070
   147
1040
0.0625
1070
    73
1070
     0
1070
    74
1070
     0
1070
    77
1070
     0
1070
   271
1070
     3
1070
   272
1070
     3
1070
   341
1005
0
1002
}
  0
LEADER
  5
1408
330
2
100
AcDbEntity
  8
DIM
100
AcDbLeader
  3
STANDARD
 72
     1
 76
     5
 10
-2.415437162507387
 20
9.119306463556597
 30
0.0
 10
-2.550547999448113
 20
9.58307362042364
 30
0.0
 10
-2.303823845544037
 20
9.853115266685811
 30
0.0
 10
-2.327321420990458
 20
9.935301842054151
 30
0.0
 10
-2.538799211724906
 20
9.964654201922343
 30
0.0
1001
ACAD
1000
DSTYLE
1002
{
1070
   147
1040
0.0625
1070
    73
1070
     0
1070
    74
1070
     0
1070
    77
1070
     0
1070
   271
1070
     3
1070
   272
1070
     3
1070
   341
1005
0
1002
}
  0
LINE
  5
14D9
330
2
100
AcDbEntity
  8
0
 62
     7
100
AcDbLine
 10
-2.234713448013871
 20
11.75891480489359
 30
12.121909
 11
-0.3333104911681293
 21
11.75891480489359
 31
12.121909
  0
LINE
  5
14DB
330
2
100
AcDbEntity
  8
3
  6
Continuous
 62
     7
100
AcDbLine
 10
1.006939358601291
 20
11.7372480246666
 30
12.121909
 11
1.006939358601291
 21
9.393009062819471
 31
12.121909
  0
LINE
  5
14DC
330
2
100
AcDbEntity
  8
3
  6
Continuous
 62
     7
100
AcDbLine
 10
1.256939358601291
 20
9.393009062819471
 30
12.121909
 11
1.256939358601291
 21
11.7372480246666
 31
12.121909
  0
3DFACE
  5
14DD
330
2
100
AcDbEntity
  8
3
  6
Continuous
 62
     7
100
AcDbFace
 10
-1.497202375249509
 20
8.630742687786876
 30
12.121909
 11
-1.747202375249509
 21
11.13074268778687
 31
12.121909
 12
-1.747202375249509
 22
11.75574268778687
 32
12.121909
 13
-1.497202375249509
 23
11.12358168778688
 33
12.121909
 70
     5
  0
3DFACE
  5
14DE
330
2
100
AcDbEntity
  8
3
  6
Continuous
 62
     7
100
AcDbFace
 10
-1.747202375249509
 20
11.13074268778687
 30
12.121909
 11
-1.497202375249509
 21
8.630742687786876
 31
12.121909
 12
-1.747202375249509
 22
8.630742687786876
 32
12.121909
 13
-1.747202375249509
 23
8.630742687786876
 33
12.121909
 70
     1
  0
LINE
  5
14E1
330
2
100
AcDbEntity
  8
5
  6
HIDDEN
 62
     7
100
AcDbLine
 10
-1.497202375249509
 20
9.685194235681654
 30
12.121909
 11
0.3708106692003579
 21
9.685194235681654
 31
12.121909
  0
LINE
  5
14E2
330
2
100
AcDbEntity
  8
5
  6
Continuous
 62
     7
100
AcDbLine
 10
-1.497202375249509
 20
9.935194235681654
 30
12.121909
 11
1.006939358601291
 21
9.935194235681652
 31
12.121909
  0
LINE
  5
14E3
330
2
100
AcDbEntity
  8
0
  6
Continuous
 62
     7
100
AcDbLine
 10
-0.6820773752495076
 20
9.441406562819393
 30
12.121909
 11
0.9290293647180885
 21
9.814530976535243
 31
12.121909
  0
LINE
  5
14E4
330
2
100
AcDbEntity
  8
0
  6
Continuous
 62
     7
100
AcDbLine
 10
0.6944393586012918
 20
9.381196562819395
 30
12.121909
 11
-0.6017973752495128
 21
9.381196562819395
 31
12.121909
  0
LINE
  5
14E5
330
2
100
AcDbEntity
  8
0
  6
Continuous
 62
     7
100
AcDbLine
 10
0.6819783543011422
 20
9.411301649220744
 30
12.121909
 11
-0.5030073601535126
 21
9.411301649220744
 31
12.121909
  0
LINE
  5
14E6
330
2
100
AcDbEntity
  8
0
  6
Continuous
 62
     7
100
AcDbLine
 10
-0.5075356711637103
 20
9.450924581897092
 30
12.121909
 11
0.8989246435907372
 21
9.776653887901046
 31
12.121909
  0
LINE
  5
14E7
330
2
100
AcDbEntity
  8
1
  6
Continuous
 62
     7
100
AcDbLine
 10
-1.316403375249501
 20
8.762443687786882
 30
12.121909
 11
-1.439875375249508
 21
8.63897168778689
 31
12.121909
  0
LINE
  5
14E8
330
2
100
AcDbEntity
  8
1
  6
Continuous
 62
     7
100
AcDbLine
 10
-1.351757375249507
 20
8.797798687786892
 30
12.121909
 11
-1.497202375249509
 21
8.652353687786883
 31
12.121909
  0
LINE
  5
14E9
330
2
100
AcDbEntity
  8
1
  6
Continuous
 62
     7
100
AcDbLine
 10
-1.387112375249509
 20
8.833152687786876
 30
12.121909
 11
-1.497202375249509
 21
8.723065687786883
 31
12.121909
  0
LINE
  5
14EA
330
2
100
AcDbEntity
  8
0
  6
Continuous
 62
     7
100
AcDbLine
 10
-1.177237461797313
 20
8.664555334456347
 30
12.121909
 11
-1.398718603512209
 21
8.886036476171243
 31
12.121909
  0
LINE
  5
14EB
330
2
100
AcDbEntity
  8
0
  6
Continuous
 62
     7
100
AcDbLine
 10
-1.18970574207456
 20
8.634449929744794
 30
12.121909
 11
-1.428824008324108
 21
8.873568195893996
 31
12.121909
  0
LINE
  5
14EC
330
2
100
AcDbEntity
  8
0
  6
Continuous
 62
     7
100
AcDbLine
 10
-0.7749011252495084
 20
9.362525684264996
 30
12.121909
 11
-0.7749011252495084
 21
8.678746562819393
 31
12.121909
  0
LINE
  5
14ED
330
2
100
AcDbEntity
  8
0
  6
Continuous
 62
     7
100
AcDbLine
 10
-0.7447961252495095
 20
9.255759062819391
 30
12.121909
 11
-0.7447961252495095
 21
8.648641562819394
 31
12.121909
  0
LINE
  5
14F3
330
2
100
AcDbEntity
  8
0
  6
Continuous
 62
     7
100
AcDbLine
 10
-0.7949711252495125
 20
8.658676562819392
 30
12.121909
 11
-1.163044851514408
 21
8.658676562819392
 31
12.121909
  0
LINE
  5
14F4
330
2
100
AcDbEntity
  8
0
  6
Continuous
 62
     7
100
AcDbLine
 10
-0.7648661252495064
 20
8.628571562819393
 30
12.121909
 11
-1.175514108999957
 21
8.628571562819393
 31
12.121909
  0
ARC
  5
1500
330
2
100
AcDbEntity
  8
0
  6
Continuous
 62
     7
100
AcDbCircle
 10
-1.163044851514408
 20
8.678747944739244
 30
12.121909
 40
0.02007138191985
100
AcDbArc
 50
225.0
 51
270.0
  0
ARC
  5
1501
330
2
100
AcDbEntity
  8
0
  6
Continuous
 62
     7
100
AcDbCircle
 10
-1.175514108999957
 20
8.648641562819394
 30
12.121909
 40
0.02007
100
AcDbArc
 50
225.0
 51
270.0
  0
LINE
  5
1502
330
2
100
AcDbEntity
  8
1
  6
Continuous
 62
     7
100
AcDbLine
 10
-1.281045375249506
 20
8.72708568778688
 30
12.121909
 11
-1.363580375249506
 21
8.64455368778688
 31
12.121909
  0
ARC
  5
1503
330
2
100
AcDbEntity
  8
1
  6
Continuous
 62
     7
100
AcDbCircle
 10
-1.325006375249509
 20
7.645680687786876
 30
12.121909
 40
1.0
100
AcDbArc
 50
82.27343300000006
 51
99.91552700000005
  0
LINE
  5
1504
330
2
100
AcDbEntity
  8
1
  6
Continuous
 62
     7
100
AcDbLine
 10
-1.245690375249504
 20
8.691731687786882
 30
12.121909
 11
-1.292734375249503
 21
8.644687687786882
 31
12.121909
  0
ARC
  5
150E
330
2
100
AcDbEntity
  8
0
  6
Continuous
 62
     7
100
AcDbCircle
 10
-0.7648661252495064
 20
8.648641562819394
 30
12.121909
 40
0.02007
100
AcDbArc
 50
270.0
 51
0.0
  0
ARC
  5
150F
330
2
100
AcDbEntity
  8
0
  6
Continuous
 62
     7
100
AcDbCircle
 10
-0.7949711252495125
 20
8.678746562819393
 30
12.121909
 40
0.02007
100
AcDbArc
 50
270.0
 51
0.0
  0
LINE
  5
1510
330
2
100
AcDbEntity
  8
5
  6
HIDDEN
 62
     7
100
AcDbLine
 10
-1.497202375249509
 20
9.435194235681654
 30
12.121909
 11
-0.6847023752495094
 21
9.435194235681654
 31
12.121909
  0
LINE
  5
1511
330
2
100
AcDbEntity
  8
0
  6
Continuous
 62
     7
100
AcDbLine
 10
-1.419160648427757
 20
9.270701172099441
 30
12.121909
 11
-0.6820773752495076
 21
9.441406562819393
 31
12.121909
  0
LINE
  5
1512
330
2
100
AcDbEntity
  8
0
  6
Continuous
 62
     7
100
AcDbLine
 10
-1.389054942264808
 20
9.246769519355096
 30
12.121909
 11
-0.8006976226856128
 21
9.383030603774093
 31
12.121909
  0
ARC
  5
1513
330
2
100
AcDbEntity
  8
0
  6
Continuous
 62
     7
100
AcDbCircle
 10
-1.414632375249512
 20
8.887759828968595
 30
12.121909
 40
0.02007
100
AcDbArc
 50
179.9999999999
 51
225.0
  0
ARC
  5
1514
330
2
100
AcDbEntity
  8
0
  6
Continuous
 62
     7
100
AcDbCircle
 10
-1.384525993128962
 20
8.900229086554494
 30
12.121909
 40
0.02007138212055
100
AcDbArc
 50
180.0
 51
225.0
  0
LINE
  5
1515
330
2
100
AcDbEntity
  8
1
  6
Continuous
 62
     7
100
AcDbLine
 10
-1.422470375249512
 20
8.868510687786892
 30
12.121909
 11
-1.497202375249509
 21
8.793774687786891
 31
12.121909
  0
ARC
  5
1516
330
2
100
AcDbEntity
  8
0
  6
Continuous
 62
     7
100
AcDbCircle
 10
-1.384527375249506
 20
9.227216871472043
 30
12.121909
 40
0.02007
100
AcDbArc
 50
103.0375036321999
 51
180.0016536357
  0
ARC
  5
1517
330
2
100
AcDbEntity
  8
0
  6
Continuous
 62
     7
100
AcDbCircle
 10
-1.414632375249512
 20
9.251148687786892
 30
12.121909
 40
0.02007
100
AcDbArc
 50
103.0395730453999
 51
180.0
  0
LWPOLYLINE
  5
1518
330
2
100
AcDbEntity
  8
2
  6
Continuous
 62
     7
100
AcDbPolyline
 90
        4
 70
     1
 43
0.0
 38
12.121909
 10
-1.434702375249509
 20
9.257589687786873
 10
-1.434702375249509
 20
8.882589687786873
 10
-1.497202375249509
 20
8.882589687786873
 10
-1.497202375249509
 20
9.257589687786873
  0
LINE
  5
1519
330
2
100
AcDbEntity
  8
0
  6
Continuous
 62
     7
100
AcDbLine
 10
-1.434702375249509
 20
8.887759828968595
 30
12.121909
 11
-1.434702375249509
 21
9.251148687786892
 31
12.121909
  0
LINE
  5
151A
330
2
100
AcDbEntity
  8
0
  6
Continuous
 62
     7
100
AcDbLine
 10
-1.40459737524951
 20
8.900229086554494
 30
12.121909
 11
-1.40459737524951
 21
9.227216292251844
 31
12.121909
  0
ARC
  5
151B
330
2
100
AcDbEntity
  8
0
  6
Continuous
 62
     7
100
AcDbCircle
 10
-0.6193647170966106
 20
9.256995295041145
 30
12.121909
 40
0.1254375
100
AcDbArc
 50
81.94934348029986
 51
180.5646799282999
  0
ARC
  5
151C
330
2
100
AcDbEntity
  8
0
  6
Continuous
 62
     7
100
AcDbCircle
 10
-0.5030073601535126
 20
9.431371874807547
 30
12.121909
 40
0.0200702255868
100
AcDbArc
 50
103.0395345179999
 51
270.0
  0
ARC
  5
151D
330
2
100
AcDbEntity
  8
0
  6
Continuous
 62
     7
100
AcDbCircle
 10
-0.795948769469911
 20
9.362525684264996
 30
12.121909
 40
0.0210476442204
100
AcDbArc
 50
0.0
 51
103.0395730453999
  0
LINE
  5
1541
330
2
100
AcDbEntity
  8
1
  6
Continuous
 62
     7
100
AcDbLine
 10
1.006939358601291
 20
9.546663062819474
 30
12.121909
 11
0.8670413586012966
 21
9.406765062819486
 31
12.121909
  0
LINE
  5
1542
330
2
100
AcDbEntity
  8
1
  6
Continuous
 62
     7
100
AcDbLine
 10
1.006939358601291
 20
9.475954062819466
 30
12.121909
 11
0.9335843586012995
 21
9.402600062819486
 31
12.121909
  0
LINE
  5
1543
330
2
100
AcDbEntity
  8
3
  6
Continuous
 62
     7
100
AcDbLine
 10
1.006939358601291
 20
9.393009062819471
 30
12.121909
 11
1.256939358601291
 21
9.393009062819471
 31
12.121909
  0
ARC
  5
1544
330
2
100
AcDbEntity
  8
0
  6
Continuous
 62
     7
100
AcDbCircle
 10
0.9034528692030914
 20
9.757101549597743
 30
12.121909
 40
0.02006984696625
100
AcDbArc
 50
0.0
 51
103.0395345177998
  0
ARC
  5
1545
330
2
100
AcDbEntity
  8
0
  6
Continuous
 62
     7
100
AcDbCircle
 10
0.9034546703852424
 20
9.652850393072393
 30
12.121909
 40
0.02006804588445
100
AcDbArc
 50
314.9999999999999
 51
0.0
  0
LINE
  5
1546
330
2
100
AcDbEntity
  8
0
  6
Continuous
 62
     7
100
AcDbLine
 10
0.953627624750494
 20
9.794978489212196
 30
12.121909
 11
0.953627624750494
 21
9.640384828968594
 31
12.121909
  0
LINE
  5
1547
330
2
100
AcDbEntity
  8
0
  6
Continuous
 62
     7
100
AcDbLine
 10
0.9235227161693426
 20
9.757101549597743
 30
12.121909
 11
0.9235227161693426
 21
9.652850393072393
 31
12.121909
  0
ARC
  5
1548
330
2
100
AcDbEntity
  8
0
  6
Continuous
 62
     7
100
AcDbCircle
 10
0.9335576247504899
 20
9.794978489212196
 30
12.121909
 40
0.02007
100
AcDbArc
 50
0.0
 51
103.0395345177998
  0
ARC
  5
1549
330
2
100
AcDbEntity
  8
0
  6
Continuous
 62
     7
100
AcDbCircle
 10
0.9335576247504899
 20
9.640384828968594
 30
12.121909
 40
0.02007
100
AcDbArc
 50
315.0000000001
 51
0.0
  0
LWPOLYLINE
  5
154A
330
2
100
AcDbEntity
  8
0
100
AcDbPolyline
 90
        4
 70
     1
 43
0.0
 38
12.121909
 10
0.9525543836140126
 20
9.822068062819466
 10
1.008951293484491
 20
9.822068062819466
 10
1.008951293484491
 20
9.634560446423931
 10
0.9525543836140126
 20
9.634560446423931
  0
ARC
  5
154B
330
2
100
AcDbEntity
  8
0
  6
Continuous
 62
     7
100
AcDbCircle
 10
0.6819783543011422
 20
9.431359116208193
 30
12.121909
 40
0.0200574668871
100
AcDbArc
 50
270.0
 51
314.9999999999999
  0
ARC
  5
154C
330
2
100
AcDbEntity
  8
0
  6
Continuous
 62
     7
100
AcDbCircle
 10
0.6944393586012918
 20
9.401266562819396
 30
12.121909
 40
0.02007
100
AcDbArc
 50
270.0
 51
314.9999999999999
  0
ARC
  5
154D
330
2
100
AcDbEntity
  8
1
  6
Continuous
 62
     7
100
AcDbCircle
 10
-0.8369223586012974
 20
8.407568062819477
 30
-12.121909
 40
1.0
210
0.0
220
0.0
230
-1.0
100
AcDbArc
 50
83.43336211487102
 51
99.78876600000011
  0
LINE
  5
154E
330
2
100
AcDbEntity
  8
1
  6
Continuous
 62
     7
100
AcDbLine
 10
1.006939358601291
 20
9.617376062819486
 30
12.121909
 11
0.7958323586012935
 21
9.406269062819474
 31
12.121909
  0
LINE
  5
154F
330
2
100
AcDbEntity
  8
0
  6
Continuous
 62
     7
100
AcDbLine
 10
0.9477492579254427
 20
9.626193195893995
 30
12.121909
 11
0.7086309916758875
 21
9.387074929744793
 31
12.121909
  0
LINE
  5
1550
330
2
100
AcDbEntity
  8
0
  6
Continuous
 62
     7
100
AcDbLine
 10
0.9176449216403366
 20
9.638660141817295
 30
12.121909
 11
0.6961611251661904
 21
9.417176345242792
 31
12.121909
  0
LINE
  5
1559
330
2
100
AcDbEntity
  8
0
 62
     7
100
AcDbLine
 10
-0.0079142724858574
 20
11.73724802466661
 30
12.121909
 11
1.735663132496105
 21
11.73724802466661
 31
12.121909
  0
LINE
  5
155A
330
2
100
AcDbEntity
  8
5
  6
HIDDEN
 62
     7
100
AcDbLine
 10
-1.497202375249509
 20
10.18519423568165
 30
12.121909
 11
1.006939358601291
 21
10.18519423568165
 31
12.121909
  0
LINE
  5
155B
330
2
100
AcDbEntity
  8
5
  6
HIDDEN
 62
     7
100
AcDbLine
 10
-1.497202375249509
 20
10.43519423568165
 30
12.121909
 11
1.006939358601291
 21
10.43519423568165
 31
12.121909
  0
LINE
  5
155C
330
2
100
AcDbEntity
  8
5
  6
Continuous
 62
     7
100
AcDbLine
 10
-1.497202375249509
 20
11.46353043844857
 30
12.121909
 11
1.006939358601291
 21
11.46353043844857
 31
12.121909
  0
LINE
  5
155D
330
2
100
AcDbEntity
  8
5
  6
HIDDEN
 62
     7
100
AcDbLine
 10
-1.497202375249509
 20
11.71353043844857
 30
12.121909
 11
1.006939358601291
 21
11.71353043844858
 31
12.121909
  0
LINE
  5
155E
330
2
100
AcDbEntity
  8
5
  6
Continuous
 62
     7
100
AcDbLine
 10
-1.497202375249509
 20
10.71353043844857
 30
12.121909
 11
1.006939358601291
 21
10.71353043844857
 31
12.121909
  0
LINE
  5
155F
330
2
100
AcDbEntity
  8
5
  6
HIDDEN
 62
     7
100
AcDbLine
 10
-1.497202375249509
 20
10.96353043844857
 30
12.121909
 11
1.006939358601291
 21
10.96353043844857
 31
12.121909
  0
LINE
  5
1560
330
2
100
AcDbEntity
  8
5
  6
HIDDEN
 62
     7
100
AcDbLine
 10
-1.497202375249509
 20
11.21353043844857
 30
12.121909
 11
1.006939358601291
 21
11.21353043844858
 31
12.121909
  0
3DFACE
  5
1561
330
2
100
AcDbEntity
  8
3
  6
Continuous
 62
     7
100
AcDbFace
 10
-1.497202375249509
 20
11.12358168778688
 30
12.121909
 11
-1.747202375249509
 21
11.75574268778687
 31
12.121909
 12
-1.497202375249509
 22
11.75574268778687
 32
12.121909
 13
-1.497202375249509
 23
11.13074268778687
 33
12.121909
 70
     1
  0
LINE
  5
1562
330
2
100
AcDbEntity
  8
0
 62
     7
100
AcDbLine
 10
0.1222441201141802
 20
11.62891437890668
 30
12.121909
 11
-0.4417757392741013
 21
11.86724819527849
 31
12.121909
  0
LINE
  5
1563
330
2
100
AcDbEntity
  8
0
100
AcDbLine
 10
-0.4417757392741013
 20
11.86724819527849
 30
12.121909
 11
-0.3333104911681293
 21
11.75891480489359
 31
12.121909
  0
LINE
  5
1564
330
2
100
AcDbEntity
  8
0
 62
     7
100
AcDbLine
 10
-0.0079142724858574
 20
11.73724802466661
 30
12.121909
 11
0.1222441201141802
 21
11.62891437890668
 31
12.121909
  0
3DFACE
  5
1570
330
2
100
AcDbEntity
  8
3
  6
Continuous
 62
     7
100
AcDbFace
 10
-1.497202375249512
 20
11.12358168778688
 30
12.121909
 11
-1.747202375249509
 21
11.75574268778687
 31
12.121909
 12
-1.497202375249509
 22
11.75574268778687
 32
12.121909
 13
-1.497202375249512
 23
11.13074268778687
 33
12.121909
 70
     1
  0
LINE
  5
1571
330
2
100
AcDbEntity
  8
DIM
100
AcDbLine
 10
1.006939358601291
 20
11.7372480246666
 30
12.121909
 11
1.256939358601291
 21
11.7372480246666
 31
12.121909
  0
ACAD_PROXY_ENTITY
  5
481
330
480
100
AcDbEntity
 67
     1
  8
0
100
AcDbProxyEntity
 90
      498
 91
      541
 95
   589845
 70
     0
 92
        8
310
0800000000000000
 93
        0
 94
        0
1001
ACAD
1000
AcRTDxfName
1000
ACDMVIEWGEOM
  0
VIEWPORT
  5
482
102
{ACAD_XDICTIONARY
360
1428
102
}
330
480
100
AcDbEntity
 67
     1
  8
0
100
AcDbViewport
 10
4.662105407170508
 20
5.500099204247933
 30
0.0
 40
20.74528580107212
 41
11.168271759384
 68
     1
 69
     1
 12
4.662105407170508
 22
5.500099204247933
 13
0.0
 23
0.0
 14
1.0
 24
1.0
 15
0.0
 25
0.0
 16
0.0
 26
0.0
 36
1.0
 17
0.0
 27
0.0
 37
0.0
 42
50.0
 43
0.0
 44
0.0
 45
11.168271759384
 50
0.0
 51
0.0
 72
   100
 90
    32800
  1

281
     0
 71
     1
 74
     0
110
0.0
120
0.0
130
0.0
111
1.0
121
0.0
131
0.0
112
0.0
122
1.0
132
0.0
 79
     0
146
0.0
  0
INSERT
  5
484
330
480
100
AcDbEntity
 67
     1
  8
0
100
AcDbBlockReference
  2
ansi_v
 10
0.0
 20
0.0
 30
0.0
  0
ENDSEC
  0
SECTION
  2
OBJECTS
  0
DICTIONARY
  5
7
330
0
100
AcDbDictionary
281
     1
  3
ACAD_COLOR
350
1405
  3
ACAD_GROUP
350
4C9
  3
ACAD_LAYOUT
350
47F
  3
ACAD_MATERIAL
350
1404
  3
ACAD_MLINESTYLE
350
4CA
  3
ACAD_PLOTSETTINGS
350
4CB
  3
ACAD_PLOTSTYLENAME
350
6
  3
AcadDim
350
13CE
  3
AcDbVariableDictionary
350
859
  0
DICTIONARY
  5
47A
330
2
100
AcDbDictionary
280
     1
281
     1
  3
ACAD_LAYOUTSELFREF
360
10D9
  0
DICTIONARY
  5
4B7
330
480
100
AcDbDictionary
280
     1
281
     1
  3
ACAD_LAYOUTSELFREF
360
10E0
  0
DICTIONARY
  5
1428
330
482
100
AcDbDictionary
280
     1
281
     1
  3
ACAD_XREC_ROUNDTRIP
360
1429
  0
DICTIONARY
  5
1405
102
{ACAD_REACTORS
330
7
102
}
330
7
100
AcDbDictionary
281
     1
  0
DICTIONARY
  5
4C9
102
{ACAD_REACTORS
330
7
102
}
330
7
100
AcDbDictionary
281
     1
  0
DICTIONARY
  5
47F
102
{ACAD_REACTORS
330
7
102
}
330
7
100
AcDbDictionary
281
     1
  3
Layout1
350
4BB
  3
Model
350
47E
  0
DICTIONARY
  5
1404
102
{ACAD_REACTORS
330
7
102
}
330
7
100
AcDbDictionary
281
     1
  0
DICTIONARY
  5
4CA
102
{ACAD_REACTORS
330
7
102
}
330
7
100
AcDbDictionary
281
     1
  3
STANDARD
350
4CC
  0
DICTIONARY
  5
4CB
102
{ACAD_REACTORS
330
7
102
}
330
7
100
AcDbDictionary
281
     1
  3
8.5X11
350
670
  3
8X10
350
675
  0
ACDBDICTIONARYWDFLT
  5
6
102
{ACAD_REACTORS
330
7
102
}
330
7
100
AcDbDictionary
281
     1
  3
Normal
350
5
100
AcDbDictionaryWithDefault
340
5
  0
XRECORD
  5
13CE
102
{ACAD_REACTORS
330
7
102
}
330
7
100
AcDbXrecord
280
     1
 90
   990106
  3

 60
     0
 61
     0
 62
     1
 63
     3
 64
     0
 65
     1
 66
     1
 67
     3
 68
     1
 69
     0
 70
     0
 71
     0
 72
     0
 40
0.25
170
     1
340
13D4
  0
DICTIONARY
  5
859
102
{ACAD_REACTORS
330
7
102
}
330
7
100
AcDbDictionary
281
     1
  3
DIMASSOC
350
1430
  3
PROJECTNAME
350
1431
  3
SORTENTS
350
85A
  0
XRECORD
  5
10D9
102
{ACAD_REACTORS
330
47A
102
}
330
47A
100
AcDbXrecord
280
     1
340
2
  0
XRECORD
  5
10E0
102
{ACAD_REACTORS
330
4B7
102
}
330
4B7
100
AcDbXrecord
280
     1
340
480
  0
XRECORD
  5
1429
102
{ACAD_REACTORS
330
1428
102
}
330
1428
100
AcDbXrecord
280
     1
102
SHADEPLOT
 70
     0
  0
LAYOUT
  5
4BB
102
{ACAD_XDICTIONARY
360
142A
102
}
102
{ACAD_REACTORS
330
47F
102
}
330
47F
100
AcDbPlotSettings
  1

  2
HP DeskJet 1120C BW (Copy 2).pc3
  4
Tabloid
  6

 40
3.174999952316284
 41
3.174999952316284
 42
3.17498779296875
 43
3.17498779296875
 44
279.3999938964843
 45
431.8000183105469
 46
0.0
 47
0.0
 48
0.0
 49
0.0
140
0.0
141
0.0
142
1.0
143
1.0
 70
   688
 72
     0
 73
     0
 74
     5
  7
Default R14 pen assignments.ctb
 75
    16
147
1.0
148
0.0
149
0.0
100
AcDbLayout
  1
Layout1
 70
     1
 71
     1
 10
-0.1249999981226883
 20
-0.1249999981226883
 11
10.87499976158142
 21
16.87500072276498
 12
17.43195221568128
 22
50.00000000000001
 32
0.6813844866954857
 14
0.0
 24
0.0
 34
0.0
 15
8.5
 25
11.0
 35
0.0
146
0.0
 13
0.0
 23
0.0
 33
0.0
 16
1.0
 26
0.0
 36
0.0
 17
0.0
 27
1.0
 37
0.0
 76
     0
330
480
331
482
  0
LAYOUT
  5
47E
102
{ACAD_XDICTIONARY
360
1426
102
}
102
{ACAD_REACTORS
330
47F
102
}
330
47F
100
AcDbPlotSettings
  1

  2
\\VPOP\BROTHER 8500
  4
Letter
  6

 40
6.297083377838134
 41
7.143756389617919
 42
7.990402221679687
 43
7.14373779296875
 44
215.8999938964843
 45
279.3999938964843
 46
8.381999999999999
 47
4.825999999999999
 48
-3.913493300844947
 49
3.137779396017926
140
3.463844794440674
141
13.33939603641847
142
1.0
143
1.0
 70
 11956
 72
     0
 73
     0
 74
     1
  7
Default R14 pen assignments.ctb
 75
    16
147
1.0
148
98.29008576647659
149
-81.49735247015197
100
AcDbLayout
  1
Model
 70
     1
 71
     0
 10
0.0
 20
0.0
 11
12.0
 21
9.0
 12
0.0
 22
0.0
 32
0.0
 14
0.0
 24
0.0
 34
0.0
 15
0.0
 25
0.0
 35
0.0
146
0.0
 13
0.0
 23
0.0
 33
0.0
 16
1.0
 26
0.0
 36
0.0
 17
0.0
 27
1.0
 37
0.0
 76
     0
330
2
  0
MLINESTYLE
  5
4CC
102
{ACAD_REACTORS
330
4CA
102
}
330
4CA
100
AcDbMlineStyle
  2
STANDARD
 70
     0
  3

 62
   256
 51
90.0
 52
90.0
 71
     2
 49
0.5
 62
   256
  6
BYLAYER
 49
-0.5
 62
   256
  6
BYLAYER
  0
PLOTSETTINGS
  5
670
102
{ACAD_XDICTIONARY
360
142C
102
}
102
{ACAD_REACTORS
330
4CB
102
}
330
4CB
100
AcDbPlotSettings
  1
8.5X11
  2
HP DeskJet 1120C BW (Copy 2)
  4
Letter
  6

 40
7.143749713897705
 41
13.49374103546142
 42
7.14373779296875
 43
3.757080078125
 44
215.8999938964843
 45
279.3999938964843
 46
-9.906
 47
-11.43
 48
-4.980964767400481
 49
2.145278892330803
140
12.46838773409616
141
24.58626705782814
142
1.0
143
2.0
 70
  1716
 72
     0
 73
     0
 74
     4
  7
Default R14 pen assignments.ctb
 75
    17
147
0.5
148
126.5165050919722
149
-54.4900838652024
  0
PLOTSETTINGS
  5
675
102
{ACAD_XDICTIONARY
360
142E
102
}
102
{ACAD_REACTORS
330
4CB
102
}
330
4CB
100
AcDbPlotSettings
  1
8X10
  2
HP DeskJet 1120C BW (Copy 2)
  4
User273
  6

 40
5.873749732971191
 41
13.49374103546142
 42
5.704421997070312
 43
3.757080078125
 44
215.8999938964843
 45
279.3999938964843
 46
-0.254
 47
-3.556
 48
-4.566310289060632
 49
2.452162654035966
140
11.9454594588133
141
24.20322671175696
142
1.0
143
2.049999999999999
 70
  1700
 72
     0
 73
     0
 74
     4
  7
Default R14 pen assignments.ctb
 75
     0
147
0.4878048780487806
148
115.98428134214
149
-62.28493141251355
  0
ACDBPLACEHOLDER
  5
5
102
{ACAD_REACTORS
330
6
102
}
330
6
  0
DICTIONARYVAR
  5
1430
102
{ACAD_REACTORS
330
859
102
}
330
859
100
DictionaryVariables
280
     0
  1
1
  0
DICTIONARYVAR
  5
1431
102
{ACAD_REACTORS
330
859
102
}
330
859
100
DictionaryVariables
280
     0
  1

  0
DICTIONARYVAR
  5
85A
102
{ACAD_REACTORS
330
859
102
}
330
859
100
DictionaryVariables
280
     0
  1
96
  0
DICTIONARY
  5
142A
330
4BB
100
AcDbDictionary
280
     1
281
     1
  3
ACAD_XREC_ROUNDTRIP
360
142B
  0
DICTIONARY
  5
1426
330
47E
100
AcDbDictionary
280
     1
281
     1
  3
ACAD_XREC_ROUNDTRIP
360
1427
  0
DICTIONARY
  5
142C
330
670
100
AcDbDictionary
280
     1
281
     1
  3
ACAD_XREC_ROUNDTRIP
360
142D
  0
DICTIONARY
  5
142E
330
675
100
AcDbDictionary
280
     1
281
     1
  3
ACAD_XREC_ROUNDTRIP
360
142F
  0
XRECORD
  5
142B
102
{ACAD_REACTORS
330
142A
102
}
330
142A
100
AcDbXrecord
280
     1
102
SHADEPLOT
 70
     0
102
SHADEPLOTRESLEVEL
 70
     2
102
SHADEPLOTCUSTOMDPI
 70
   300
  0
XRECORD
  5
1427
102
{ACAD_REACTORS
330
1426
102
}
330
1426
100
AcDbXrecord
280
     1
102
SHADEPLOT
 70
     0
102
SHADEPLOTRESLEVEL
 70
     2
102
SHADEPLOTCUSTOMDPI
 70
   300
  0
XRECORD
  5
142D
102
{ACAD_REACTORS
330
142C
102
}
330
142C
100
AcDbXrecord
280
     1
102
SHADEPLOT
 70
     0
102
SHADEPLOTRESLEVEL
 70
     2
102
SHADEPLOTCUSTOMDPI
 70
   300
  0
XRECORD
  5
142F
102
{ACAD_REACTORS
330
142E
102
}
330
142E
100
AcDbXrecord
280
     1
102
SHADEPLOT
 70
     0
102
SHADEPLOTRESLEVEL
 70
     2
102
SHADEPLOTCUSTOMDPI
 70
   300
  0
ENDSEC
  0
EOF
