  0
SECTION
  2
HEADER
  9
$ACADVER
  1
AC1015
  9
$ACADMAINTVER
 70
     6
  9
$DWGCODEPAGE
  3
ANSI_1252
  9
$INSBASE
 10
0.0
 20
0.0
 30
0.0
  9
$EXTMIN
 10
0.8928340883088864
 20
0.8750000753079042
 30
-2.3346
  9
$EXTMAX
 10
15.42283408830888
 20
20.9750000753079
 30
11.67329999999999
  9
$LIMMIN
 10
0.0
 20
0.0
  9
$LIMMAX
 10
12.0
 20
9.0
  9
$ORTHOMODE
 70
     0
  9
$REGENMODE
 70
     1
  9
$FILLMODE
 70
     1
  9
$QTEXTMODE
 70
     0
  9
$MIRRTEXT
 70
     1
  9
$LTSCALE
 40
1.0
  9
$ATTMODE
 70
     1
  9
$TEXTSIZE
 40
0.2
  9
$TRACEWID
 40
0.05
  9
$TEXTSTYLE
  7
Standard
  9
$CLAYER
  8
0
  9
$CELTYPE
  6
ByLayer
  9
$CECOLOR
 62
   256
  9
$CELTSCALE
 40
1.0
  9
$DISPSILH
 70
     0
  9
$DIMSCALE
 40
1.0
  9
$DIMASZ
 40
0.18
  9
$DIMEXO
 40
0.0625
  9
$DIMDLI
 40
0.38
  9
$DIMRND
 40
0.0
  9
$DIMDLE
 40
0.0
  9
$DIMEXE
 40
0.18
  9
$DIMTP
 40
0.0
  9
$DIMTM
 40
0.0
  9
$DIMTXT
 40
0.18
  9
$DIMCEN
 40
0.09
  9
$DIMTSZ
 40
0.0
  9
$DIMTOL
 70
     0
  9
$DIMLIM
 70
     0
  9
$DIMTIH
 70
     1
  9
$DIMTOH
 70
     1
  9
$DIMSE1
 70
     0
  9
$DIMSE2
 70
     0
  9
$DIMTAD
 70
     0
  9
$DIMZIN
 70
     0
  9
$DIMBLK
  1

  9
$DIMASO
 70
     1
  9
$DIMSHO
 70
     1
  9
$DIMPOST
  1

  9
$DIMAPOST
  1

  9
$DIMALT
 70
     0
  9
$DIMALTD
 70
     2
  9
$DIMALTF
 40
25.4
  9
$DIMLFAC
 40
1.0
  9
$DIMTOFL
 70
     0
  9
$DIMTVP
 40
0.0
  9
$DIMTIX
 70
     0
  9
$DIMSOXD
 70
     0
  9
$DIMSAH
 70
     0
  9
$DIMBLK1
  1

  9
$DIMBLK2
  1

  9
$DIMSTYLE
  2
Standard
  9
$DIMCLRD
 70
     0
  9
$DIMCLRE
 70
     0
  9
$DIMCLRT
 70
     0
  9
$DIMTFAC
 40
1.0
  9
$DIMGAP
 40
0.09
  9
$DIMJUST
 70
     0
  9
$DIMSD1
 70
     0
  9
$DIMSD2
 70
     0
  9
$DIMTOLJ
 70
     1
  9
$DIMTZIN
 70
     0
  9
$DIMALTZ
 70
     0
  9
$DIMALTTZ
 70
     0
  9
$DIMUPT
 70
     0
  9
$DIMDEC
 70
     4
  9
$DIMTDEC
 70
     4
  9
$DIMALTU
 70
     2
  9
$DIMALTTD
 70
     2
  9
$DIMTXSTY
  7
Standard
  9
$DIMAUNIT
 70
     0
  9
$DIMADEC
 70
     0
  9
$DIMALTRND
 40
0.0
  9
$DIMAZIN
 70
     0
  9
$DIMDSEP
 70
    46
  9
$DIMATFIT
 70
     3
  9
$DIMFRAC
 70
     0
  9
$DIMLDRBLK
  1

  9
$DIMLUNIT
 70
     2
  9
$DIMLWD
 70
    -2
  9
$DIMLWE
 70
    -2
  9
$DIMTMOVE
 70
     0
  9
$LUNITS
 70
     2
  9
$LUPREC
 70
     4
  9
$SKETCHINC
 40
0.1
  9
$FILLETRAD
 40
0.5
  9
$AUNITS
 70
     0
  9
$AUPREC
 70
     0
  9
$MENU
  1
.
  9
$ELEVATION
 40
0.0
  9
$PELEVATION
 40
0.0
  9
$THICKNESS
 40
0.0
  9
$LIMCHECK
 70
     0
  9
$CHAMFERA
 40
0.5
  9
$CHAMFERB
 40
0.5
  9
$CHAMFERC
 40
1.0
  9
$CHAMFERD
 40
0.0
  9
$SKPOLY
 70
     0
  9
$TDCREATE
 40
2453192.547061991
  9
$TDUCREATE
 40
2453192.672061990
  9
$TDUPDATE
 40
2453214.403814374
  9
$TDUUPDATE
 40
2453214.528814374
  9
$TDINDWG
 40
0.0403732755
  9
$TDUSRTIMER
 40
0.0403732755
  9
$USRTIMER
 70
     1
  9
$ANGBASE
 50
0.0
  9
$ANGDIR
 70
     0
  9
$PDMODE
 70
     0
  9
$PDSIZE
 40
0.0
  9
$PLINEWID
 40
0.0
  9
$SPLFRAME
 70
     0
  9
$SPLINETYPE
 70
     6
  9
$SPLINESEGS
 70
     8
  9
$HANDSEED
  5
ADB
  9
$SURFTAB1
 70
     6
  9
$SURFTAB2
 70
     6
  9
$SURFTYPE
 70
     6
  9
$SURFU
 70
     6
  9
$SURFV
 70
     6
  9
$UCSBASE
  2

  9
$UCSNAME
  2

  9
$UCSORG
 10
0.0
 20
0.0
 30
0.0
  9
$UCSXDIR
 10
1.0
 20
0.0
 30
0.0
  9
$UCSYDIR
 10
0.0
 20
1.0
 30
0.0
  9
$UCSORTHOREF
  2

  9
$UCSORTHOVIEW
 70
     0
  9
$UCSORGTOP
 10
0.0
 20
0.0
 30
0.0
  9
$UCSORGBOTTOM
 10
0.0
 20
0.0
 30
0.0
  9
$UCSORGLEFT
 10
0.0
 20
0.0
 30
0.0
  9
$UCSORGRIGHT
 10
0.0
 20
0.0
 30
0.0
  9
$UCSORGFRONT
 10
0.0
 20
0.0
 30
0.0
  9
$UCSORGBACK
 10
0.0
 20
0.0
 30
0.0
  9
$PUCSBASE
  2

  9
$PUCSNAME
  2

  9
$PUCSORG
 10
0.0
 20
0.0
 30
0.0
  9
$PUCSXDIR
 10
1.0
 20
0.0
 30
0.0
  9
$PUCSYDIR
 10
0.0
 20
1.0
 30
0.0
  9
$PUCSORTHOREF
  2

  9
$PUCSORTHOVIEW
 70
     0
  9
$PUCSORGTOP
 10
0.0
 20
0.0
 30
0.0
  9
$PUCSORGBOTTOM
 10
0.0
 20
0.0
 30
0.0
  9
$PUCSORGLEFT
 10
0.0
 20
0.0
 30
0.0
  9
$PUCSORGRIGHT
 10
0.0
 20
0.0
 30
0.0
  9
$PUCSORGFRONT
 10
0.0
 20
0.0
 30
0.0
  9
$PUCSORGBACK
 10
0.0
 20
0.0
 30
0.0
  9
$USERI1
 70
     0
  9
$USERI2
 70
     0
  9
$USERI3
 70
     0
  9
$USERI4
 70
     0
  9
$USERI5
 70
     0
  9
$USERR1
 40
0.0
  9
$USERR2
 40
0.0
  9
$USERR3
 40
0.0
  9
$USERR4
 40
0.0
  9
$USERR5
 40
0.0
  9
$WORLDVIEW
 70
     1
  9
$SHADEDGE
 70
     3
  9
$SHADEDIF
 70
    70
  9
$TILEMODE
 70
     1
  9
$MAXACTVP
 70
    64
  9
$PINSBASE
 10
0.0
 20
0.0
 30
0.0
  9
$PLIMCHECK
 70
     0
  9
$PEXTMIN
 10
1.000000000000000E+20
 20
1.000000000000000E+20
 30
1.000000000000000E+20
  9
$PEXTMAX
 10
-1.000000000000000E+20
 20
-1.000000000000000E+20
 30
-1.000000000000000E+20
  9
$PLIMMIN
 10
0.0
 20
0.0
  9
$PLIMMAX
 10
12.0
 20
9.0
  9
$UNITMODE
 70
     0
  9
$VISRETAIN
 70
     1
  9
$PLINEGEN
 70
     0
  9
$PSLTSCALE
 70
     1
  9
$TREEDEPTH
 70
  3020
  9
$CMLSTYLE
  2
Standard
  9
$CMLJUST
 70
     0
  9
$CMLSCALE
 40
1.0
  9
$PROXYGRAPHICS
 70
     1
  9
$MEASUREMENT
 70
     0
  9
$CELWEIGHT
370
    -1
  9
$ENDCAPS
280
     0
  9
$JOINSTYLE
280
     0
  9
$LWDISPLAY
290
     0
  9
$INSUNITS
 70
     1
  9
$HYPERLINKBASE
  1

  9
$STYLESHEET
  1

  9
$XEDIT
290
     1
  9
$CEPSNTYPE
380
     0
  9
$PSTYLEMODE
290
     1
  9
$FINGERPRINTGUID
  2
{B361192C-6DEC-4039-9F3C-D24DA0155346}
  9
$VERSIONGUID
  2
{8EC6204D-B0D9-4FF3-A333-D7369D57411F}
  9
$EXTNAMES
290
     1
  9
$PSVPSCALE
 40
0.0
  9
$OLESTARTUP
290
     0
  0
ENDSEC
  0
SECTION
  2
CLASSES
  0
CLASS
  1
ACDBDICTIONARYWDFLT
  2
AcDbDictionaryWithDefault
  3
AutoCAD 2000
 90
        0
280
     0
281
     0
  0
CLASS
  1
ACDBPLACEHOLDER
  2
AcDbPlaceHolder
  3
AutoCAD 2000
 90
        0
280
     0
281
     0
  0
CLASS
  1
LAYOUT
  2
AcDbLayout
  3
AutoCAD 2000
 90
        0
280
     0
281
     0
  0
ENDSEC
  0
SECTION
  2
TABLES
  0
TABLE
  2
VPORT
  5
8
330
0
100
AcDbSymbolTable
 70
     2
  0
VPORT
  5
ADA
330
8
100
AcDbSymbolTableRecord
100
AcDbViewportTableRecord
  2
*Active
 70
     0
 10
0.0
 20
0.0
 11
1.0
 21
1.0
 12
9.865445563420507
 22
10.7909106716361
 13
0.0
 23
0.0
 14
0.5
 24
0.5
 15
0.5
 25
0.5
 16
0.0
 26
0.0
 36
1.0
 17
0.0
 27
0.0
 37
0.0
 40
20.66516873318092
 41
1.633211678832116
 42
50.0
 43
0.0
 44
0.0
 50
0.0
 51
0.0
 71
     0
 72
   100
 73
     1
 74
     3
 75
     0
 76
     0
 77
     0
 78
     0
281
     0
 65
     1
110
0.0
120
0.0
130
0.0
111
1.0
121
0.0
131
0.0
112
0.0
122
1.0
132
0.0
 79
     0
146
0.0
  0
ENDTAB
  0
TABLE
  2
LTYPE
  5
5
330
0
100
AcDbSymbolTable
 70
     1
  0
LTYPE
  5
14
330
5
100
AcDbSymbolTableRecord
100
AcDbLinetypeTableRecord
  2
ByBlock
 70
     0
  3

 72
    65
 73
     0
 40
0.0
  0
LTYPE
  5
15
330
5
100
AcDbSymbolTableRecord
100
AcDbLinetypeTableRecord
  2
ByLayer
 70
     0
  3

 72
    65
 73
     0
 40
0.0
  0
LTYPE
  5
16
330
5
100
AcDbSymbolTableRecord
100
AcDbLinetypeTableRecord
  2
Continuous
 70
     0
  3
Solid line
 72
    65
 73
     0
 40
0.0
  0
ENDTAB
  0
TABLE
  2
LAYER
  5
2
330
0
100
AcDbSymbolTable
 70
     5
  0
LAYER
  5
10
330
2
100
AcDbSymbolTableRecord
100
AcDbLayerTableRecord
  2
0
 70
     0
 62
     7
  6
Continuous
370
    -3
390
F
  0
LAYER
  5
36D
330
2
100
AcDbSymbolTableRecord
100
AcDbLayerTableRecord
  2
DEFPOINTS
 70
     0
 62
     7
  6
Continuous
290
     0
370
    -3
390
F
  0
LAYER
  5
36E
330
2
100
AcDbSymbolTableRecord
100
AcDbLayerTableRecord
  2
DIM
 70
     0
 62
     7
  6
Continuous
370
    -3
390
F
  0
LAYER
  5
36F
330
2
100
AcDbSymbolTableRecord
100
AcDbLayerTableRecord
  2
5
 70
     0
 62
     7
  6
Continuous
370
    -3
390
F
  0
LAYER
  5
370
330
2
100
AcDbSymbolTableRecord
100
AcDbLayerTableRecord
  2
4
 70
     0
 62
     7
  6
Continuous
370
    -3
390
F
  0
ENDTAB
  0
TABLE
  2
STYLE
  5
3
330
0
100
AcDbSymbolTable
 70
     3
  0
STYLE
  5
11
330
3
100
AcDbSymbolTableRecord
100
AcDbTextStyleTableRecord
  2
Standard
 70
     0
 40
0.0
 41
1.0
 50
0.0
 71
     0
 42
0.2
  3
txt
  4

  0
STYLE
  5
371
330
3
100
AcDbSymbolTableRecord
100
AcDbTextStyleTableRecord
  2
ADESK1
 70
     0
 40
0.0
 41
0.8
 50
0.0
 71
     0
 42
0.1875
  3
architec.shx
  4

  0
STYLE
  5
372
330
3
100
AcDbSymbolTableRecord
100
AcDbTextStyleTableRecord
  2
style1
 70
     0
 40
0.0
 41
1.0
 50
0.0
 71
     0
 42
0.1875
  3
romand.shx
  4

  0
ENDTAB
  0
TABLE
  2
VIEW
  5
6
330
0
100
AcDbSymbolTable
 70
     0
  0
ENDTAB
  0
TABLE
  2
UCS
  5
7
330
0
100
AcDbSymbolTable
 70
     0
  0
ENDTAB
  0
TABLE
  2
APPID
  5
9
330
0
100
AcDbSymbolTable
 70
     1
  0
APPID
  5
12
330
9
100
AcDbSymbolTableRecord
100
AcDbRegAppTableRecord
  2
ACAD
 70
     0
  0
ENDTAB
  0
TABLE
  2
DIMSTYLE
  5
A
330
0
100
AcDbSymbolTable
 70
     1
100
AcDbDimStyleTable
 71
     1
340
27
  0
DIMSTYLE
105
27
330
A
100
AcDbSymbolTableRecord
100
AcDbDimStyleTableRecord
  2
Standard
 70
     0
340
11
  0
ENDTAB
  0
TABLE
  2
BLOCK_RECORD
  5
1
330
0
100
AcDbSymbolTable
 70
     9
  0
BLOCK_RECORD
  5
1F
330
1
100
AcDbSymbolTableRecord
100
AcDbBlockTableRecord
  2
*Model_Space
340
22
  0
BLOCK_RECORD
  5
1B
330
1
100
AcDbSymbolTableRecord
100
AcDbBlockTableRecord
  2
*Paper_Space
340
1E
  0
BLOCK_RECORD
  5
23
330
1
100
AcDbSymbolTableRecord
100
AcDbBlockTableRecord
  2
*Paper_Space0
340
26
  0
BLOCK_RECORD
  5
2B
330
1
100
AcDbSymbolTableRecord
100
AcDbBlockTableRecord
  2
_ARCHTICK
340
0
102
{BLKREFS
331
35
331
36
331
42
331
43
331
4F
331
50
331
5C
331
5D
331
76
331
78
331
205
331
210
331
211
331
250
331
255
331
98A
331
989
331
8D1
331
9FD
331
8D0
331
9FB
331
AB5
331
AB6
331
AB8
331
ABC
331
AC3
331
AC4
102
}
  0
BLOCK_RECORD
  5
2F
330
1
100
AcDbSymbolTableRecord
100
AcDbBlockTableRecord
  2
*D2
340
0
  0
BLOCK_RECORD
  5
3C
330
1
100
AcDbSymbolTableRecord
100
AcDbBlockTableRecord
  2
*D3
340
0
  0
BLOCK_RECORD
  5
49
330
1
100
AcDbSymbolTableRecord
100
AcDbBlockTableRecord
  2
*D4
340
0
  0
BLOCK_RECORD
  5
56
330
1
100
AcDbSymbolTableRecord
100
AcDbBlockTableRecord
  2
*D5
340
0
  0
BLOCK_RECORD
  5
63
330
1
100
AcDbSymbolTableRecord
100
AcDbBlockTableRecord
  2
A$C1D7A5A9E
340
0
102
{BLKREFS
331
375
102
}
  0
BLOCK_RECORD
  5
373
330
1
100
AcDbSymbolTableRecord
100
AcDbBlockTableRecord
  2
A$C456541E9
340
0
  0
ENDTAB
  0
ENDSEC
  0
SECTION
  2
BLOCKS
  0
BLOCK
  5
20
330
1F
100
AcDbEntity
  8
0
100
AcDbBlockBegin
  2
*Model_Space
 70
     0
 10
0.0
 20
0.0
 30
0.0
  3
*Model_Space
  1

  0
ENDBLK
  5
21
330
1F
100
AcDbEntity
  8
0
100
AcDbBlockEnd
  0
BLOCK
  5
1C
330
1B
100
AcDbEntity
 67
     1
  8
0
100
AcDbBlockBegin
  2
*Paper_Space
 70
     0
 10
0.0
 20
0.0
 30
0.0
  3
*Paper_Space
  1

  0
ENDBLK
  5
1D
330
1B
100
AcDbEntity
 67
     1
  8
0
100
AcDbBlockEnd
  0
BLOCK
  5
24
330
23
100
AcDbEntity
  8
0
100
AcDbBlockBegin
  2
*Paper_Space0
 70
     0
 10
0.0
 20
0.0
 30
0.0
  3
*Paper_Space0
  1

  0
ENDBLK
  5
25
330
23
100
AcDbEntity
  8
0
100
AcDbBlockEnd
  0
BLOCK
  5
2D
330
2B
100
AcDbEntity
  8
0
100
AcDbBlockBegin
  2
_ARCHTICK
 70
     0
 10
0.0
 20
0.0
 30
0.0
  3
_ARCHTICK
  1

  0
LWPOLYLINE
  5
2C
330
2B
100
AcDbEntity
  8
0
  6
ByBlock
 62
     0
100
AcDbPolyline
 90
        2
 70
     0
 43
0.15
 10
-0.5
 20
-0.5
 10
0.5
 20
0.5
  0
ENDBLK
  5
2E
330
2B
100
AcDbEntity
  8
0
100
AcDbBlockEnd
  0
BLOCK
  5
3A
330
2F
100
AcDbEntity
  8
0
100
AcDbBlockBegin
  2
*D2
 70
     1
 10
0.0
 20
0.0
 30
0.0
  3
*D2
  1

  0
LINE
  5
30
330
2F
100
AcDbEntity
  8
0
 62
     0
370
    -2
100
AcDbLine
 10
27.07046271897954
 20
15.25643053137155
 30
0.0
 11
27.07046271897954
 21
15.3814305313403
 31
0.0
  0
LINE
  5
31
330
2F
100
AcDbEntity
  8
0
 62
     0
370
    -2
100
AcDbLine
 10
29.57646271835304
 20
15.89486105985825
 30
0.0
 11
29.57646271835304
 21
14.8814305313403
 31
0.0
  0
LINE
  5
32
330
2F
100
AcDbEntity
  8
0
 62
     0
370
    -2
100
AcDbLine
 10
27.07046271897954
 20
15.1314305313403
 30
0.0
 11
27.93080903502212
 21
15.1314305313403
 31
0.0
  0
LINE
  5
33
330
2F
100
AcDbEntity
  8
0
 62
     0
370
    -2
100
AcDbLine
 10
29.57646271835304
 20
15.1314305313403
 30
0.0
 11
28.76414236835545
 21
15.1314305313403
 31
0.0
  0
MTEXT
  5
34
330
2F
100
AcDbEntity
  8
0
 62
     0
100
AcDbMText
 10
28.34747570168879
 20
15.48684107075241
 30
0.0
 40
0.25
 41
0.0
 71
     5
 72
     1
  1
\A1;2{\H1.000000x;\S1/2;}"
 73
     1
 44
1.0
  0
INSERT
  5
35
330
2F
100
AcDbEntity
  8
0
 62
     0
370
    -2
100
AcDbBlockReference
  2
_ARCHTICK
 10
27.07046271897954
 20
15.1314305313403
 30
0.0
 41
0.1875
 42
0.1875
 43
0.1875
 50
180.0
  0
INSERT
  5
36
330
2F
100
AcDbEntity
  8
0
 62
     0
370
    -2
100
AcDbBlockReference
  2
_ARCHTICK
 10
29.57646271835304
 20
15.1314305313403
 30
0.0
 41
0.1875
 42
0.1875
 43
0.1875
  0
POINT
  5
37
330
2F
100
AcDbEntity
  8
DEFPOINTS
 62
     0
100
AcDbPoint
 10
27.07046271897954
 20
15.00643053137155
 30
0.0
  0
POINT
  5
38
330
2F
100
AcDbEntity
  8
DEFPOINTS
 62
     0
100
AcDbPoint
 10
29.57646271835304
 20
16.14486105985825
 30
0.0
  0
POINT
  5
39
330
2F
100
AcDbEntity
  8
DEFPOINTS
 62
     0
100
AcDbPoint
 10
29.57646271835304
 20
15.1314305313403
 30
0.0
  0
ENDBLK
  5
3B
330
2F
100
AcDbEntity
  8
0
100
AcDbBlockEnd
  0
BLOCK
  5
47
330
3C
100
AcDbEntity
  8
0
100
AcDbBlockBegin
  2
*D3
 70
     1
 10
0.0
 20
0.0
 30
0.0
  3
*D3
  1

  0
LINE
  5
3D
330
3C
100
AcDbEntity
  8
0
 62
     0
370
    -2
100
AcDbLine
 10
26.82046271904204
 20
15.93110725223817
 30
0.0
 11
26.82046271904204
 21
14.89600994349865
 31
0.0
  0
LINE
  5
3E
330
3C
100
AcDbEntity
  8
0
 62
     0
370
    -2
100
AcDbLine
 10
27.07046271897954
 20
15.93110725223817
 30
0.0
 11
27.07046271897954
 21
14.89600994349865
 31
0.0
  0
LINE
  5
3F
330
3C
100
AcDbEntity
  8
0
 62
     0
370
    -2
100
AcDbLine
 10
26.82046271904204
 20
15.14600994349865
 30
0.0
 11
26.63296271904204
 21
15.14600994349865
 31
0.0
  0
LINE
  5
40
330
3C
100
AcDbEntity
  8
0
 62
     0
370
    -2
100
AcDbLine
 10
27.07046271897954
 20
15.14600994349865
 30
0.0
 11
27.25796271897954
 21
15.14600994349865
 31
0.0
  0
MTEXT
  5
41
330
3C
100
AcDbEntity
  8
0
 62
     0
100
AcDbMText
 10
25.90408077314537
 20
15.12536702292336
 30
0.0
 40
0.25
 41
0.0
 71
     5
 72
     1
  1
\A1;{\H1.000000x;\S1/4;}"
 73
     1
 44
1.0
  0
INSERT
  5
42
330
3C
100
AcDbEntity
  8
0
 62
     0
370
    -2
100
AcDbBlockReference
  2
_ARCHTICK
 10
26.82046271904204
 20
15.14600994349865
 30
0.0
 41
0.1875
 42
0.1875
 43
0.1875
  0
INSERT
  5
43
330
3C
100
AcDbEntity
  8
0
 62
     0
370
    -2
100
AcDbBlockReference
  2
_ARCHTICK
 10
27.07046271897954
 20
15.14600994349865
 30
0.0
 41
0.1875
 42
0.1875
 43
0.1875
 50
180.0
  0
POINT
  5
44
330
3C
100
AcDbEntity
  8
DEFPOINTS
 62
     0
100
AcDbPoint
 10
26.82046271904204
 20
16.18110725223817
 30
0.0
  0
POINT
  5
45
330
3C
100
AcDbEntity
  8
DEFPOINTS
 62
     0
100
AcDbPoint
 10
27.07046271897954
 20
16.18110725223817
 30
0.0
  0
POINT
  5
46
330
3C
100
AcDbEntity
  8
DEFPOINTS
 62
     0
100
AcDbPoint
 10
27.07046271897954
 20
15.14600994349865
 30
0.0
  0
ENDBLK
  5
48
330
3C
100
AcDbEntity
  8
0
100
AcDbBlockEnd
  0
BLOCK
  5
54
330
49
100
AcDbEntity
  8
0
100
AcDbBlockBegin
  2
*D4
 70
     1
 10
0.0
 20
0.0
 30
0.0
  3
*D4
  1

  0
LINE
  5
4A
330
49
100
AcDbEntity
  8
0
 62
     0
370
    -2
100
AcDbLine
 10
26.82046271904204
 20
15.91652784007982
 30
0.0
 11
26.82046271904204
 21
14.8814305313403
 31
0.0
  0
LINE
  5
4B
330
49
100
AcDbEntity
  8
0
 62
     0
370
    -2
100
AcDbLine
 10
27.07046271897954
 20
15.91652784007982
 30
0.0
 11
27.07046271897954
 21
14.8814305313403
 31
0.0
  0
LINE
  5
4C
330
49
100
AcDbEntity
  8
0
 62
     0
370
    -2
100
AcDbLine
 10
26.82046271904204
 20
15.1314305313403
 30
0.0
 11
26.63296271904204
 21
15.1314305313403
 31
0.0
  0
LINE
  5
4D
330
49
100
AcDbEntity
  8
0
 62
     0
370
    -2
100
AcDbLine
 10
27.07046271897954
 20
15.1314305313403
 30
0.0
 11
27.25796271897954
 21
15.1314305313403
 31
0.0
  0
MTEXT
  5
4E
330
49
100
AcDbEntity
  8
0
 62
     0
100
AcDbMText
 10
25.90408077314537
 20
15.11078761076501
 30
0.0
 40
0.25
 41
0.0
 71
     5
 72
     1
  1
\A1;{\H1.000000x;\S1/4;}"
 73
     1
 44
1.0
  0
INSERT
  5
4F
330
49
100
AcDbEntity
  8
0
 62
     0
370
    -2
100
AcDbBlockReference
  2
_ARCHTICK
 10
26.82046271904204
 20
15.1314305313403
 30
0.0
 41
0.1875
 42
0.1875
 43
0.1875
  0
INSERT
  5
50
330
49
100
AcDbEntity
  8
0
 62
     0
370
    -2
100
AcDbBlockReference
  2
_ARCHTICK
 10
27.07046271897954
 20
15.1314305313403
 30
0.0
 41
0.1875
 42
0.1875
 43
0.1875
 50
180.0
  0
POINT
  5
51
330
49
100
AcDbEntity
  8
DEFPOINTS
 62
     0
100
AcDbPoint
 10
26.82046271904204
 20
16.16652784007982
 30
0.0
  0
POINT
  5
52
330
49
100
AcDbEntity
  8
DEFPOINTS
 62
     0
100
AcDbPoint
 10
27.07046271897954
 20
16.16652784007982
 30
0.0
  0
POINT
  5
53
330
49
100
AcDbEntity
  8
DEFPOINTS
 62
     0
100
AcDbPoint
 10
27.07046271897954
 20
15.1314305313403
 30
0.0
  0
ENDBLK
  5
55
330
49
100
AcDbEntity
  8
0
100
AcDbBlockEnd
  0
BLOCK
  5
61
330
56
100
AcDbEntity
  8
0
100
AcDbBlockBegin
  2
*D5
 70
     1
 10
0.0
 20
0.0
 30
0.0
  3
*D5
  1

  0
LINE
  5
57
330
56
100
AcDbEntity
  8
0
 62
     0
370
    -2
100
AcDbLine
 10
29.57646271835304
 20
15.89486105985825
 30
0.0
 11
29.57646271835304
 21
14.8814305313403
 31
0.0
  0
LINE
  5
58
330
56
100
AcDbEntity
  8
0
 62
     0
370
    -2
100
AcDbLine
 10
29.82646271829054
 20
15.89486105985825
 30
0.0
 11
29.82646271829054
 21
14.8814305313403
 31
0.0
  0
LINE
  5
59
330
56
100
AcDbEntity
  8
0
 62
     0
370
    -2
100
AcDbLine
 10
29.57646271835304
 20
15.1314305313403
 30
0.0
 11
29.38896271835304
 21
15.1314305313403
 31
0.0
  0
LINE
  5
5A
330
56
100
AcDbEntity
  8
0
 62
     0
370
    -2
100
AcDbLine
 10
29.82646271829054
 20
15.1314305313403
 30
0.0
 11
30.01396271829054
 21
15.1314305313403
 31
0.0
  0
MTEXT
  5
5B
330
56
100
AcDbEntity
  8
0
 62
     0
100
AcDbMText
 10
30.81909253122049
 20
15.14523862847996
 30
0.0
 40
0.25
 41
0.0
 71
     5
 72
     1
  1
\A1;{\H1.000000x;\S1/4;}"
 73
     1
 44
1.0
  0
INSERT
  5
5C
330
56
100
AcDbEntity
  8
0
 62
     0
370
    -2
100
AcDbBlockReference
  2
_ARCHTICK
 10
29.57646271835304
 20
15.1314305313403
 30
0.0
 41
0.1875
 42
0.1875
 43
0.1875
  0
INSERT
  5
5D
330
56
100
AcDbEntity
  8
0
 62
     0
370
    -2
100
AcDbBlockReference
  2
_ARCHTICK
 10
29.82646271829054
 20
15.1314305313403
 30
0.0
 41
0.1875
 42
0.1875
 43
0.1875
 50
180.0
  0
POINT
  5
5E
330
56
100
AcDbEntity
  8
DEFPOINTS
 62
     0
100
AcDbPoint
 10
29.57646271835304
 20
16.14486105985825
 30
0.0
  0
POINT
  5
5F
330
56
100
AcDbEntity
  8
DEFPOINTS
 62
     0
100
AcDbPoint
 10
29.82646271829054
 20
16.14486105985825
 30
0.0
  0
POINT
  5
60
330
56
100
AcDbEntity
  8
DEFPOINTS
 62
     0
100
AcDbPoint
 10
29.82646271829054
 20
15.1314305313403
 30
0.0
  0
ENDBLK
  5
62
330
56
100
AcDbEntity
  8
0
100
AcDbBlockEnd
  0
BLOCK
  5
36B
330
63
100
AcDbEntity
  8
0
100
AcDbBlockBegin
  2
A$C1D7A5A9E
 70
     0
 10
0.0
 20
0.0
 30
0.0
  3
A$C1D7A5A9E
  1

  0
LINE
  5
64
330
63
100
AcDbEntity
  8
0
 62
     7
100
AcDbLine
 10
13.30570494026288
 20
3.756093365180595
 30
0.0
 11
13.30570494026288
 21
5.015633858226411
 31
0.0
  0
LINE
  5
65
330
63
100
AcDbEntity
  8
0
 62
     7
100
AcDbLine
 10
9.880369059707369
 20
3.512266344775829
 30
0.0
 11
9.880369059707369
 21
5.845054094854333
 31
0.0
  0
LINE
  5
66
330
63
100
AcDbEntity
  8
0
 62
     7
100
AcDbLine
 10
9.630369059769869
 20
5.845054094854333
 30
0.0
 11
9.630369059769869
 21
3.512266344775829
 31
0.0
  0
LINE
  5
67
330
63
100
AcDbEntity
  8
0
 62
     7
100
AcDbLine
 10
6.33647240471868
 20
3.250385593869784
 30
0.0
 11
6.336472404718687
 21
5.207365205235715
 31
0.0
  0
LINE
  5
68
330
63
100
AcDbEntity
  8
0
 62
     7
100
AcDbLine
 10
5.876227326857602
 20
3.249999969808801
 30
0.0
 11
5.876227326857602
 21
5.249999969308799
 31
0.0
  0
3DFACE
  5
69
330
63
100
AcDbEntity
  8
0
 62
     7
100
AcDbFace
 10
6.876227326607601
 20
5.249999969308799
 30
0.0
 11
7.126227326545102
 21
2.749999969933799
 31
0.0
 12
6.876227326607601
 22
2.749999969933799
 32
0.0
 13
6.876227326607601
 23
2.749999969933799
 33
0.0
 70
     1
  0
3DFACE
  5
6A
330
63
100
AcDbEntity
  8
0
 62
     7
100
AcDbFace
 10
7.126227326545102
 20
2.749999969933799
 30
0.0
 11
6.876227326607601
 21
5.249999969308799
 31
0.0
 12
6.876227326607601
 22
5.87499996915255
 32
0.0
 13
7.126227326545102
 23
5.242838969310593
 33
0.0
 70
     5
  0
LINE
  5
6B
330
63
100
AcDbEntity
  8
DIM
100
AcDbLine
 10
0.5009892467267818
 20
2.749639255431583
 30
0.0
 11
0.5009892467267818
 21
5.883267194651715
 31
0.0
  0
LINE
  5
6C
330
63
100
AcDbEntity
  8
0
 62
     7
100
AcDbLine
 10
6.876472404583687
 20
3.386921026906527
 30
0.0
 11
6.336472404718694
 21
3.310385593854787
 31
0.0
  0
LINE
  5
6D
330
63
100
AcDbEntity
  8
0
 62
     7
100
AcDbLine
 10
6.501227326701375
 20
2.125389970089948
 30
0.0
 11
7.166227326535121
 21
2.125389970089948
 31
0.0
  0
LINE
  5
6E
330
63
100
AcDbEntity
  8
0
 62
     7
100
AcDbLine
 10
6.876227326607601
 20
2.312999970043046
 30
0.0
 11
6.626227326670104
 21
2.312999970043046
 31
0.0
  0
LINE
  5
6F
330
63
100
AcDbEntity
  8
0
 62
     7
100
AcDbLine
 10
6.626472404646186
 20
2.770385593989795
 30
0.0
 11
6.876472404583687
 21
2.770385593989795
 31
0.0
  0
LINE
  5
70
330
63
100
AcDbEntity
  8
0
 62
     7
100
AcDbLine
 10
6.501227326701375
 20
1.874619970152645
 30
0.0
 11
7.166227326535121
 21
1.874619970152645
 31
0.0
  0
LINE
  5
71
330
63
100
AcDbEntity
  8
0
 62
     7
100
AcDbLine
 10
6.626227326670104
 20
1.686999970199547
 30
0.0
 11
6.876227326607601
 21
1.686999970199547
 31
0.0
  0
LINE
  5
72
330
63
100
AcDbEntity
  8
0
 62
     7
100
AcDbLine
 10
5.626227326920108
 20
0.2499999705588003
 30
0.0
 11
16.62622732417011
 21
0.2499999705588003
 31
0.0
  0
LINE
  5
73
330
63
100
AcDbEntity
  8
0
 62
     7
100
AcDbLine
 10
6.420227326721587
 20
0.7499999704337857
 30
0.0
 11
7.876227326357525
 21
0.7499999704338141
 31
0.0
  0
LINE
  5
74
330
63
100
AcDbEntity
  8
0
 62
     7
100
AcDbLine
 10
7.716227326397522
 20
0.8499999704088097
 30
0.0
 11
6.686227326655092
 21
0.8499999704087883
 31
0.0
  0
LINE
  5
75
330
63
100
AcDbEntity
  8
DIM
100
AcDbLine
 10
5.623051908087383
 20
2.749639255431583
 30
0.0
 11
0.1676559134767821
 21
2.749639255431583
 31
0.0
  0
INSERT
  5
76
330
63
100
AcDbEntity
  8
DIM
100
AcDbBlockReference
  2
_ARCHTICK
 10
0.5009892467267818
 20
2.749639255431583
 30
0.0
 41
0.2499999999374998
 42
0.2499999999374998
 43
0.2499999999375
 50
270.0
  0
LINE
  5
77
330
63
100
AcDbEntity
  8
DIM
 62
     7
100
AcDbLine
 10
5.63049550212094
 20
3.250033477968194
 30
0.0
 11
3.094876737384424
 21
3.250033477968194
 31
0.0
  0
INSERT
  5
78
330
63
100
AcDbEntity
  8
DIM
 62
     7
100
AcDbBlockReference
  2
_ARCHTICK
 10
3.428210070634424
 20
3.250033477968194
 30
0.0
 41
0.3333333332499997
 42
0.3333333332499997
 43
0.33333333325
 50
270.0
  0
LINE
  5
79
330
63
100
AcDbEntity
  8
DIM
 62
     7
100
AcDbLine
 10
3.428210070634424
 20
3.250033477968194
 30
0.0
 11
3.428210070634424
 21
4.383129629915401
 31
0.0
  0
LINE
  5
7A
330
63
100
AcDbEntity
  8
0
 62
     7
100
AcDbLine
 10
6.501227326701339
 20
1.984999970125036
 30
0.0
 11
6.501227326701339
 21
1.699999970196289
 31
0.0
  0
LINE
  5
7B
330
63
100
AcDbEntity
  8
0
 62
     7
100
AcDbLine
 10
6.317622326747276
 20
1.813409970167953
 30
0.0
 11
6.317622326747276
 21
2.186599970074649
 31
0.0
  0
LINE
  5
7C
330
63
100
AcDbEntity
  8
0
 62
     7
100
AcDbLine
 10
6.286622326755026
 20
1.847819970159344
 30
0.0
 11
6.286622326755026
 21
2.152194970083257
 31
0.0
  0
ARC
  5
7D
330
63
100
AcDbEntity
  8
0
 62
     7
100
AcDbCircle
 10
6.451472326713815
 20
1.999999970121301
 30
0.0
 40
0.1648491499587877
100
AcDbArc
 50
142.0123
 51
217.9876999999998
  0
LINE
  5
7E
330
63
100
AcDbEntity
  8
0
 62
     7
100
AcDbLine
 10
6.461227326711373
 20
1.7499999701838
 30
0.0
 11
6.461227326711373
 21
2.2499999700588
 31
0.0
  0
LINE
  5
7F
330
63
100
AcDbEntity
  8
0
 62
     7
100
AcDbLine
 10
6.501227326701375
 20
1.7499999701838
 30
0.0
 11
6.501227326701375
 21
2.2499999700588
 31
0.0
  0
LINE
  5
80
330
63
100
AcDbEntity
  8
0
 62
     7
100
AcDbLine
 10
6.62622732667009
 20
1.804999970170042
 30
0.0
 11
6.62622732667009
 21
2.194999970072544
 31
0.0
  0
LINE
  5
81
330
63
100
AcDbEntity
  8
0
 62
     7
100
AcDbLine
 10
5.876227326857602
 20
0.7499999704337999
 30
0.0
 11
5.876227326857602
 21
3.249999969808801
 31
0.0
  0
LINE
  5
82
330
63
100
AcDbEntity
  8
0
 62
     7
100
AcDbLine
 10
5.936227326842605
 20
3.199999969821302
 30
0.0
 11
5.936227326842605
 21
0.7999999704213039
 31
0.0
  0
ARC
  5
83
330
63
100
AcDbEntity
  8
0
 62
     7
100
AcDbCircle
 10
6.232727326768923
 20
0.4999999704959599
 30
0.0
 40
0.312499999921875
100
AcDbArc
 50
306.8698976457423
 51
53.13010235425764
  0
LINE
  5
84
330
63
100
AcDbEntity
  8
0
 62
     7
100
AcDbLine
 10
5.936227326842605
 20
0.7999999704213039
 30
0.0
 11
6.300227326751596
 21
0.7999999704212968
 31
0.0
  0
LINE
  5
85
330
63
100
AcDbEntity
  8
0
 62
     7
100
AcDbLine
 10
6.320227326746596
 20
0.7499999704337999
 30
0.0
 11
5.876227326857602
 21
0.7499999704337999
 31
0.0
  0
LWPOLYLINE
  5
86
330
63
100
AcDbEntity
  8
0
 62
     7
100
AcDbPolyline
 90
        4
 70
     1
 43
0.0
 10
6.248227326764602
 20
0.7499999704337999
 10
5.936227326842605
 20
0.7999999704212968
 10
5.936227326842605
 20
0.7499999704337999
 10
6.248227326764602
 20
0.7999999704212968
  0
LINE
  5
87
330
63
100
AcDbEntity
  8
0
 62
     7
100
AcDbLine
 10
6.321547326746298
 20
1.797089970172024
 30
0.0
 11
6.461227326711373
 21
1.797089970172024
 31
0.0
  0
LINE
  5
88
330
63
100
AcDbEntity
  8
0
 62
     7
100
AcDbLine
 10
6.321547326746298
 20
1.898544970146662
 30
0.0
 11
6.461227326711373
 21
1.898544970146662
 31
0.0
  0
ARC
  5
89
330
63
100
AcDbEntity
  8
0
 62
     7
100
AcDbCircle
 10
6.340932326741452
 20
1.847819970159344
 30
0.0
 40
0.0543125999864219
100
AcDbArc
 50
110.9106999999999
 51
249.0893000000001
  0
LINE
  5
8A
330
63
100
AcDbEntity
  8
0
 62
     7
100
AcDbLine
 10
6.298917326751947
 20
1.813409970167953
 30
0.0
 11
6.317622326747276
 21
1.813409970167953
 31
0.0
  0
LINE
  5
8B
330
63
100
AcDbEntity
  8
0
 62
     7
100
AcDbLine
 10
6.461227326711373
 20
1.7499999701838
 30
0.0
 11
6.501227326701375
 21
1.7499999701838
 31
0.0
  0
LINE
  5
8C
330
63
100
AcDbEntity
  8
0
 62
     7
100
AcDbLine
 10
6.62622732667009
 20
1.866999970154541
 30
0.0
 11
6.501227326701339
 21
1.866999970154541
 31
0.0
  0
LINE
  5
8D
330
63
100
AcDbEntity
  8
0
 62
     7
100
AcDbLine
 10
6.62622732667009
 20
1.774999970177542
 30
0.0
 11
6.641227326666339
 21
1.789999970173791
 31
0.0
  0
LINE
  5
8E
330
63
100
AcDbEntity
  8
0
 62
     7
100
AcDbLine
 10
6.641227326666339
 20
1.789999970173791
 30
0.0
 11
6.62622732667009
 21
1.804999970170042
 31
0.0
  0
ARC
  5
8F
330
63
100
AcDbEntity
  8
0
 62
     7
100
AcDbCircle
 10
6.340227326741601
 20
0.8299999704138265
 30
0.0
 40
0.03999999999
100
AcDbArc
 50
0.0
 51
180.0
  0
ARC
  5
90
330
63
100
AcDbEntity
  8
0
 62
     7
100
AcDbCircle
 10
6.340227326741587
 20
0.8199999704163154
 30
0.0
 40
0.0499999999875015
100
AcDbArc
 50
359.9999999999979
 51
161.3370751150581
  0
LINE
  5
91
330
63
100
AcDbEntity
  8
0
 62
     7
100
AcDbLine
 10
6.300227326751596
 20
0.7999999704212968
 30
0.0
 11
6.300227326751596
 21
0.8299999704138265
 31
0.0
  0
LINE
  5
92
330
63
100
AcDbEntity
  8
0
 62
     7
100
AcDbLine
 10
6.380227326731599
 20
0.8299999704138265
 30
0.0
 11
6.380227326731599
 21
0.8099999704188025
 31
0.0
  0
ARC
  5
93
330
63
100
AcDbEntity
  8
0
 62
     7
100
AcDbCircle
 10
6.320227326746596
 20
0.8099999704188025
 30
0.0
 40
0.0599999999850005
100
AcDbArc
 50
270.0
 51
0.0
  0
LINE
  5
94
330
63
100
AcDbEntity
  8
0
 62
     7
100
AcDbLine
 10
6.390227326729092
 20
0.8199999704163083
 30
0.0
 11
6.390227326729092
 21
0.779999970426287
 31
0.0
  0
ARC
  5
95
330
63
100
AcDbEntity
  8
0
 62
     7
100
AcDbCircle
 10
6.420227326721587
 20
0.7799999704262799
 30
0.0
 40
0.0299999999924994
100
AcDbArc
 50
179.9999999999965
 51
270.0
  0
LINE
  5
96
330
63
100
AcDbEntity
  8
0
 62
     7
100
AcDbLine
 10
6.526227326695092
 20
0.9499999703838177
 30
0.0
 11
6.255402657570648
 21
0.9499999703838177
 31
0.0
  0
LINE
  5
97
330
63
100
AcDbEntity
  8
0
 62
     7
100
AcDbLine
 10
6.11022732679909
 20
0.9414409436372146
 30
0.0
 11
6.292856449624117
 21
0.8359999704123133
 31
0.0
  0
LINE
  5
98
330
63
100
AcDbEntity
  8
0
 62
     7
100
AcDbLine
 10
6.526227326695085
 20
1.674999970202533
 30
0.0
 11
6.526227326695092
 21
0.9499999703838177
 31
0.0
  0
LINE
  5
99
330
63
100
AcDbEntity
  8
0
 62
     7
100
AcDbLine
 10
6.255402657570648
 20
0.9499999703838177
 30
0.0
 11
6.150227326789089
 21
1.010722975922654
 31
0.0
  0
ARC
  5
9A
330
63
100
AcDbEntity
  8
0
 62
     7
100
AcDbCircle
 10
6.130227326794095
 20
0.9760819597799379
 30
0.0
 40
0.0399999999899996
100
AcDbArc
 50
60.00000000000138
 51
240.0000000000019
  0
ARC
  5
9B
330
63
100
AcDbEntity
  8
0
 62
     7
100
AcDbCircle
 10
6.686227326655092
 20
0.9099999703937822
 30
0.0
 40
0.0599999999850004
100
AcDbArc
 50
180.0
 51
270.0
  0
LINE
  5
9C
330
63
100
AcDbEntity
  8
0
 62
     7
100
AcDbLine
 10
6.62622732667009
 20
0.9099999703937822
 30
0.0
 11
6.62622732667009
 21
1.774999970177542
 31
0.0
  0
LINE
  5
9D
330
63
100
AcDbEntity
  8
0
 62
     7
100
AcDbLine
 10
6.626227326670104
 20
1.686999970199547
 30
0.0
 11
6.626227326670104
 21
1.749499970183922
 31
0.0
  0
LINE
  5
9E
330
63
100
AcDbEntity
  8
0
 62
     7
100
AcDbLine
 10
6.501227326701339
 20
1.699999970196289
 30
0.0
 11
6.526227326695085
 21
1.674999970202533
 31
0.0
  0
ARC
  5
9F
330
63
100
AcDbEntity
  8
0
 62
     7
100
AcDbCircle
 10
6.320227326746596
 20
3.189999969823798
 30
0.0
 40
0.0599999999850005
100
AcDbArc
 50
0.0
 51
90.0
  0
LINE
  5
A0
330
63
100
AcDbEntity
  8
0
 62
     7
100
AcDbLine
 10
6.62622732667009
 20
3.147999969834296
 30
0.0
 11
6.62622732667009
 21
3.229999969813789
 31
0.0
  0
LINE
  5
A1
330
63
100
AcDbEntity
  8
0
 62
     7
100
AcDbLine
 10
6.390227326729085
 20
3.219999969816285
 30
0.0
 11
6.390227326729085
 21
3.179999969826264
 31
0.0
  0
LINE
  5
A2
330
63
100
AcDbEntity
  8
0
 62
     7
100
AcDbLine
 10
6.300227326751603
 20
3.199999969821302
 30
0.0
 11
5.936227326842605
 21
3.199999969821302
 31
0.0
  0
LINE
  5
A3
330
63
100
AcDbEntity
  8
0
 62
     7
100
AcDbLine
 10
6.380227326731599
 20
3.189999969823798
 30
0.0
 11
6.380227326731599
 21
3.169999969828774
 31
0.0
  0
ARC
  5
A4
330
63
100
AcDbEntity
  8
0
 62
     7
100
AcDbCircle
 10
6.340227326741601
 20
3.169999969828774
 30
0.0
 40
0.03999999999
100
AcDbArc
 50
180.0
 51
0.0
  0
LINE
  5
A5
330
63
100
AcDbEntity
  8
0
 62
     7
100
AcDbLine
 10
6.300227326751603
 20
3.169999969828774
 30
0.0
 11
6.300227326751603
 21
3.199999969821302
 31
0.0
  0
LINE
  5
A6
330
63
100
AcDbEntity
  8
0
 62
     7
100
AcDbLine
 10
6.526227326695092
 20
3.163999969830287
 30
0.0
 11
6.536735716426594
 21
3.163999969830287
 31
0.0
  0
ARC
  5
A7
330
63
100
AcDbEntity
  8
0
 62
     7
100
AcDbCircle
 10
6.536735716426601
 20
3.073999969852792
 30
0.0
 40
0.0899999999774945
100
AcDbArc
 50
44.81031190624883
 51
90.0
  0
ARC
  5
A8
330
63
100
AcDbEntity
  8
0
 62
     7
100
AcDbCircle
 10
6.611227326673837
 20
3.147999969834289
 30
0.0
 40
0.014999999996256
100
AcDbArc
 50
224.8103119062636
 51
0.0000000000069209
  0
ARC
  5
A9
330
63
100
AcDbEntity
  8
0
 62
     7
100
AcDbCircle
 10
6.611227326673837
 20
2.99199996987329
 30
0.0
 40
0.0149999999962487
100
AcDbArc
 50
359.999999999993
 51
135.1896880937465
  0
ARC
  5
AA
330
63
100
AcDbEntity
  8
0
 62
     7
100
AcDbCircle
 10
6.536735716426608
 20
3.065999969854795
 30
0.0
 40
0.0899999999775034
100
AcDbArc
 50
270.0
 51
315.1896880937408
  0
ARC
  5
AB
330
63
100
AcDbEntity
  8
0
 62
     7
100
AcDbCircle
 10
6.526227326695092
 20
3.025999969864797
 30
0.0
 40
0.0499999999874989
100
AcDbArc
 50
180.000000000002
 51
270.0
  0
LINE
  5
AC
330
63
100
AcDbEntity
  8
0
 62
     7
100
AcDbLine
 10
6.390227326729092
 20
3.049999969858768
 30
0.0
 11
6.390227326729092
 21
2.935999969887307
 31
0.0
  0
LINE
  5
AD
330
63
100
AcDbEntity
  8
0
 62
     7
100
AcDbLine
 10
6.536735716426594
 20
2.975999969877292
 30
0.0
 11
6.526227326695092
 21
2.975999969877292
 31
0.0
  0
ARC
  5
AE
330
63
100
AcDbEntity
  8
0
 62
     7
100
AcDbCircle
 10
6.450227326714088
 20
2.935999969887307
 30
0.0
 40
0.0599999999849987
100
AcDbArc
 50
179.9999999999981
 51
270.0
  0
LINE
  5
AF
330
63
100
AcDbEntity
  8
0
 62
     7
100
AcDbLine
 10
6.450227326714081
 20
2.875999969902306
 30
0.0
 11
6.526227326695092
 21
2.875999969902292
 31
0.0
  0
LINE
  5
B0
330
63
100
AcDbEntity
  8
0
 62
     7
100
AcDbLine
 10
6.47622732670759
 20
3.025999969864789
 30
0.0
 11
6.47622732670759
 21
3.11399996984279
 31
0.0
  0
LINE
  5
B1
330
63
100
AcDbEntity
  8
0
 62
     7
100
AcDbLine
 10
6.255402657570648
 20
3.049999969858761
 30
0.0
 11
6.390227326729092
 21
3.049999969858768
 31
0.0
  0
ARC
  5
B2
330
63
100
AcDbEntity
  8
0
 62
     7
100
AcDbCircle
 10
6.130227326794095
 20
3.023917980462641
 30
0.0
 40
0.0399999999899997
100
AcDbArc
 50
119.9999999999981
 51
299.9999999999993
  0
LINE
  5
B3
330
63
100
AcDbEntity
  8
0
 62
     7
100
AcDbLine
 10
6.150227326789089
 20
2.989276964319925
 30
0.0
 11
6.255402657570648
 21
3.049999969858761
 31
0.0
  0
LINE
  5
B4
330
63
100
AcDbEntity
  8
0
 62
     7
100
AcDbLine
 10
6.626227326670104
 20
2.250499970058671
 30
0.0
 11
6.626227326670104
 21
2.312999970043046
 31
0.0
  0
LINE
  5
B5
330
63
100
AcDbEntity
  8
0
 62
     7
100
AcDbLine
 10
6.501227326701339
 20
2.29999997004629
 30
0.0
 11
6.501227326701339
 21
2.014999970117536
 31
0.0
  0
LINE
  5
B6
330
63
100
AcDbEntity
  8
0
 62
     7
100
AcDbLine
 10
6.321547326746298
 20
2.202919970070576
 30
0.0
 11
6.461227326711373
 21
2.202919970070569
 31
0.0
  0
LINE
  5
B7
330
63
100
AcDbEntity
  8
0
 62
     7
100
AcDbLine
 10
6.321547326746298
 20
2.101464970095939
 30
0.0
 11
6.461227326711373
 21
2.101464970095932
 31
0.0
  0
ARC
  5
B8
330
63
100
AcDbEntity
  8
0
 62
     7
100
AcDbCircle
 10
6.340932326741452
 20
2.152194970083257
 30
0.0
 40
0.0543125999864219
100
AcDbArc
 50
110.9106999999999
 51
249.0893000000001
  0
LINE
  5
B9
330
63
100
AcDbEntity
  8
0
 62
     7
100
AcDbLine
 10
6.298917326751947
 20
2.186599970074649
 30
0.0
 11
6.317622326747276
 21
2.186599970074649
 31
0.0
  0
LINE
  5
BA
330
63
100
AcDbEntity
  8
0
 62
     7
100
AcDbLine
 10
6.461227326711373
 20
2.2499999700588
 30
0.0
 11
6.501227326701375
 21
2.2499999700588
 31
0.0
  0
LINE
  5
BB
330
63
100
AcDbEntity
  8
0
 62
     7
100
AcDbLine
 10
6.62622732667009
 20
2.132999970088039
 30
0.0
 11
6.501227326701339
 21
2.132999970088039
 31
0.0
  0
LINE
  5
BC
330
63
100
AcDbEntity
  8
0
 62
     7
100
AcDbLine
 10
6.62622732667009
 20
2.194999970072544
 30
0.0
 11
6.641227326666339
 21
2.209999970068794
 31
0.0
  0
LINE
  5
BD
330
63
100
AcDbEntity
  8
0
 62
     7
100
AcDbLine
 10
6.641227326666339
 20
2.209999970068794
 30
0.0
 11
6.62622732667009
 21
2.224999970065031
 31
0.0
  0
LINE
  5
BE
330
63
100
AcDbEntity
  8
0
 62
     7
100
AcDbLine
 10
6.501227326701339
 20
2.014999970117536
 30
0.0
 11
6.516227326697588
 21
1.999999970121287
 31
0.0
  0
LINE
  5
BF
330
63
100
AcDbEntity
  8
0
 62
     7
100
AcDbLine
 10
6.516227326697588
 20
1.999999970121287
 30
0.0
 11
6.501227326701339
 21
1.984999970125036
 31
0.0
  0
LINE
  5
C0
330
63
100
AcDbEntity
  8
0
 62
     7
100
AcDbLine
 10
6.526227326695085
 20
2.324999970040039
 30
0.0
 11
6.501227326701339
 21
2.29999997004629
 31
0.0
  0
LINE
  5
C1
330
63
100
AcDbEntity
  8
0
 62
     7
100
AcDbLine
 10
6.62622732667009
 20
2.224999970065031
 30
0.0
 11
6.62622732667009
 21
2.991999969873283
 31
0.0
  0
LWPOLYLINE
  5
C2
330
63
100
AcDbEntity
  8
0
 62
     7
100
AcDbPolyline
 90
        4
 70
     1
 43
0.0
 10
6.626227326670097
 20
2.312999970043046
 10
6.522227326696103
 20
2.312999970043046
 10
6.626227326670097
 20
2.624999969965049
 10
6.526227326695106
 20
2.624999969965049
  0
LINE
  5
C3
330
63
100
AcDbEntity
  8
0
 62
     7
100
AcDbLine
 10
6.526227326695092
 20
2.875999969902292
 30
0.0
 11
6.526227326695085
 21
2.324999970040039
 31
0.0
  0
LINE
  5
C4
330
63
100
AcDbEntity
  8
0
 62
     7
100
AcDbLine
 10
6.292856449624146
 20
3.163999969830266
 30
0.0
 11
6.11022732679909
 21
3.058558996605356
 31
0.0
  0
ARC
  5
C5
330
63
100
AcDbEntity
  8
0
 62
     7
100
AcDbCircle
 10
6.526227326695085
 20
3.11399996984279
 30
0.0
 40
0.0499999999875007
100
AcDbArc
 50
90.0
 51
179.9999999999979
  0
ARC
  5
C6
330
63
100
AcDbEntity
  8
0
 62
     7
100
AcDbCircle
 10
6.340227326741601
 20
3.179999969826264
 30
0.0
 40
0.049999999987487
100
AcDbArc
 50
198.6629248849452
 51
0.0000000000040711
  0
LINE
  5
C7
330
63
100
AcDbEntity
  8
0
 62
     7
100
AcDbLine
 10
5.876227326857602
 20
3.249999969808801
 30
0.0
 11
6.320227326746596
 21
3.249999969808801
 31
0.0
  0
LINE
  5
C8
330
63
100
AcDbEntity
  8
0
 62
     7
100
AcDbLine
 10
6.336472404718694
 20
3.310385593854787
 30
0.0
 11
6.33647240471868
 21
3.250385593869784
 31
0.0
  0
LINE
  5
C9
330
63
100
AcDbEntity
  8
0
 62
     7
100
AcDbLine
 10
6.33647240471868
 20
3.250385593869784
 30
0.0
 11
6.452103262403127
 21
3.250385593869784
 31
0.0
  0
ARC
  5
CA
330
63
100
AcDbEntity
  8
0
 62
     7
100
AcDbCircle
 10
6.606227326675092
 20
3.229999969813789
 30
0.0
 40
0.0199999999949996
100
AcDbArc
 50
0.0
 51
90.0
  0
LINE
  5
CB
330
63
100
AcDbEntity
  8
0
 62
     7
100
AcDbLine
 10
6.606227326675092
 20
3.249999969808786
 30
0.0
 11
6.420227326721587
 21
3.249999969808786
 31
0.0
  0
ARC
  5
CC
330
63
100
AcDbEntity
  8
0
 62
     7
100
AcDbCircle
 10
6.420227326721587
 20
3.219999969816292
 30
0.0
 40
0.0299999999925
100
AcDbArc
 50
90.0
 51
180.000000000002
  0
LINE
  5
CD
330
63
100
AcDbEntity
  8
0
 62
     7
100
AcDbLine
 10
11.99331476548464
 20
3.248787254906496
 30
0.0
 11
13.55570494020038
 21
3.248787254906496
 31
0.0
  0
LINE
  5
CE
330
63
100
AcDbEntity
  8
0
 62
     7
100
AcDbLine
 10
15.06322732456084
 20
1.144584362159498
 30
0.0
 11
8.43922732621684
 21
1.144584362159498
 31
0.0
  0
LINE
  5
CF
330
63
100
AcDbEntity
  8
0
 62
     7
100
AcDbLine
 10
15.06322732456084
 20
0.9209999703910423
 30
0.0
 11
8.43922732621684
 21
0.9209999703910423
 31
0.0
  0
LINE
  5
D0
330
63
100
AcDbEntity
  8
0
 62
     7
100
AcDbLine
 10
15.06322732456084
 20
2.405019812539809
 30
0.0
 11
8.43922732621684
 21
2.405019812539809
 31
0.0
  0
LINE
  5
D1
330
63
100
AcDbEntity
  8
0
 62
     7
100
AcDbLine
 10
15.06322732456084
 20
2.855415578083093
 30
0.0
 11
8.43922732621684
 21
2.855415578083093
 31
0.0
  0
LINE
  5
D2
330
63
100
AcDbEntity
  8
0
 62
     7
100
AcDbLine
 10
15.06322732456084
 20
1.594980127702784
 30
0.0
 11
8.43922732621684
 21
1.594980127702784
 31
0.0
  0
LINE
  5
D3
330
63
100
AcDbEntity
  8
0
 62
     7
100
AcDbLine
 10
8.43922732621684
 20
3.078999969851558
 30
0.0
 11
15.06322732456084
 21
3.078999969851558
 31
0.0
  0
LINE
  5
D4
330
63
100
AcDbEntity
  8
0
 62
     7
100
AcDbLine
 10
15.11922732454688
 20
0.9059999703948129
 30
0.0
 11
8.452227326213595
 21
0.9059999703948129
 31
0.0
  0
LINE
  5
D5
330
63
100
AcDbEntity
  8
0
 62
     7
100
AcDbLine
 10
16.10722732429986
 20
0.4999999704963081
 30
0.0
 11
8.451227326213864
 21
0.4999999704963081
 31
0.0
  0
LINE
  5
D6
330
63
100
AcDbEntity
  8
0
 62
     7
100
AcDbLine
 10
16.34527757677202
 20
0.7499999704338141
 30
0.0
 11
8.146227326290091
 21
0.7499999704338141
 31
0.0
  0
LINE
  5
D7
330
63
100
AcDbEntity
  8
0
 62
     7
100
AcDbLine
 10
8.452227326213595
 20
3.093999969847823
 30
0.0
 11
15.11922732454687
 21
3.093999969847823
 31
0.0
  0
LINE
  5
D8
330
63
100
AcDbEntity
  8
0
 62
     7
100
AcDbLine
 10
16.10722732429986
 20
3.4999999697463
 30
0.0
 11
8.451227326213864
 21
3.4999999697463
 31
0.0
  0
LINE
  5
D9
330
63
100
AcDbEntity
  8
0
 62
     7
100
AcDbLine
 10
8.146227326290091
 20
3.249999969808815
 30
0.0
 11
16.34527757677202
 21
3.249999969808815
 31
0.0
  0
LINE
  5
DA
330
63
100
AcDbEntity
  8
0
 62
     7
100
AcDbLine
 10
9.630369059769869
 20
3.512266344775829
 30
0.0
 11
9.880369059707369
 21
3.512266344775829
 31
0.0
  0
POLYLINE
  5
DB
330
63
100
AcDbEntity
  8
0
 62
     7
100
AcDbPolyFaceMesh
 66
     1
 10
0.0
 20
0.0
 30
0.0
 70
    64
  0
VERTEX
  5
DC
330
DB
100
AcDbEntity
  8
0
 62
     7
100
AcDbVertex
100
AcDbPolyFaceMeshVertex
 10
9.935491059693593
 20
3.601457844753458
 30
0.0
 70
   192
  0
VERTEX
  5
DD
330
DB
100
AcDbEntity
  8
0
 62
     7
100
AcDbVertex
100
AcDbPolyFaceMeshVertex
 10
10.0034590596766
 20
3.65152484474094
 30
0.0
 70
   192
  0
VERTEX
  5
DE
330
DB
100
AcDbEntity
  8
0
 62
     7
100
AcDbVertex
100
AcDbPolyFaceMeshVertex
 10
10.58036905953237
 20
3.250453844841207
 30
0.0
 70
   192
  0
VERTEX
  5
DF
330
DB
100
AcDbEntity
  8
0
 62
     7
100
AcDbVertex
100
AcDbPolyFaceMeshVertex
 10
9.167869059885497
 20
3.375453844809957
 30
0.0
 70
   192
  0
VERTEX
  5
E0
330
DB
100
AcDbEntity
  8
0
 62
     7
100
AcDbVertex
100
AcDbPolyFaceMeshVertex
 10
9.367869059835499
 20
3.375453844809957
 30
0.0
 70
   192
  0
VERTEX
  5
E1
330
DB
100
AcDbEntity
  8
0
 62
     7
100
AcDbVertex
100
AcDbPolyFaceMeshVertex
 10
9.567869059785493
 20
3.437953844794332
 30
0.0
 70
   192
  0
VERTEX
  5
E2
330
DB
100
AcDbEntity
  8
0
 62
     7
100
AcDbVertex
100
AcDbPolyFaceMeshVertex
 10
10.37456805958382
 20
3.3905228448062
 30
0.0
 70
   192
  0
VERTEX
  5
E3
330
DB
100
AcDbEntity
  8
0
 62
     7
100
AcDbVertex
100
AcDbPolyFaceMeshVertex
 10
10.00536905967612
 20
3.437953844794332
 30
0.0
 70
   192
  0
VERTEX
  5
E4
330
DB
100
AcDbEntity
  8
0
 62
     7
100
AcDbVertex
100
AcDbPolyFaceMeshVertex
 10
9.467869059810499
 20
3.375453844809957
 30
0.0
 70
   192
  0
VERTEX
  5
E5
330
DB
100
AcDbEntity
  8
0
 62
     7
100
AcDbVertex
100
AcDbPolyFaceMeshVertex
 10
9.267869059860494
 20
3.375453844809957
 30
0.0
 70
   192
  0
VERTEX
  5
E6
330
DB
100
AcDbEntity
  8
0
 62
     7
100
AcDbVertex
100
AcDbPolyFaceMeshVertex
 10
9.067869059910492
 20
3.375453844809957
 30
0.0
 70
   192
  0
VERTEX
  5
E7
330
DB
100
AcDbEntity
  8
0
 62
     7
100
AcDbVertex
100
AcDbPolyFaceMeshVertex
 10
10.00444005967635
 20
3.649603844741424
 30
0.0
 70
   192
  0
VERTEX
  5
E8
330
DB
100
AcDbEntity
  8
0
 62
     7
100
AcDbVertex
100
AcDbPolyFaceMeshVertex
 10
10.02043705967235
 20
3.744653844717662
 30
0.0
 70
   192
  0
VERTEX
  5
E9
330
DB
100
AcDbEntity
  8
0
 62
     7
100
AcDbVertex
100
AcDbPolyFaceMeshVertex
 10
9.067869059910492
 20
3.250453844841207
 30
0.0
 70
   192
  0
VERTEX
  5
EA
330
DB
100
AcDbEntity
  8
0
 62
     7
100
AcDbVertex
100
AcDbPolyFaceMeshVertex
 10
9.217869059872999
 20
3.500453844778707
 30
0.0
 70
   192
  0
VERTEX
  5
EB
330
DB
100
AcDbEntity
  8
0
 62
     7
100
AcDbVertex
100
AcDbPolyFaceMeshVertex
 10
9.317869059847993
 20
3.500453844778707
 30
0.0
 70
   192
  0
VERTEX
  5
EC
330
DB
100
AcDbEntity
  8
0
 62
     7
100
AcDbVertex
100
AcDbPolyFaceMeshVertex
 10
9.417869059822994
 20
3.500453844778707
 30
0.0
 70
   192
  0
VERTEX
  5
ED
330
DB
100
AcDbEntity
  8
0
 62
     7
100
AcDbVertex
100
AcDbPolyFaceMeshVertex
 10
9.517869059797995
 20
3.500453844778707
 30
0.0
 70
   192
  0
VERTEX
  5
EE
330
DB
100
AcDbEntity
  8
0
 62
     7
100
AcDbVertex
100
AcDbPolyFaceMeshVertex
 10
9.880412059707364
 20
3.770520844711201
 30
0.0
 70
   192
  0
VERTEX
  5
EF
330
DB
100
AcDbEntity
  8
0
 62
     7
100
AcDbVertex
100
AcDbPolyFaceMeshVertex
 10
9.880369059707369
 20
3.95045384466621
 30
0.0
 70
   192
  0
VERTEX
  5
F0
330
DB
100
AcDbEntity
  8
0
 62
     7
100
AcDbVertex
100
AcDbPolyFaceMeshVertex
 10
10.18637405963087
 20
3.556459844764715
 30
0.0
 70
   192
  0
VERTEX
  5
F1
330
DB
100
AcDbEntity
  8
0
 62
     7
100
AcDbFaceRecord
 10
0.0
 20
0.0
 30
0.0
 70
   128
 71
    -1
 72
     2
 73
   -12
 74
     8
  0
VERTEX
  5
F2
330
DB
100
AcDbEntity
  8
0
 62
     7
100
AcDbFaceRecord
 10
0.0
 20
0.0
 30
0.0
 70
   128
 71
    -2
 72
     1
 73
    19
  0
VERTEX
  5
F3
330
DB
100
AcDbEntity
  8
0
 62
     7
100
AcDbFaceRecord
 10
0.0
 20
0.0
 30
0.0
 70
   128
 71
    -3
 72
    -4
 73
   -10
 74
    -5
  0
VERTEX
  5
F4
330
DB
100
AcDbEntity
  8
0
 62
     7
100
AcDbFaceRecord
 10
0.0
 20
0.0
 30
0.0
 70
   128
 71
    -4
 72
     3
 73
    14
 74
   -11
  0
VERTEX
  5
F5
330
DB
100
AcDbEntity
  8
0
 62
     7
100
AcDbFaceRecord
 10
0.0
 20
0.0
 30
0.0
 70
   128
 71
    -3
 72
    -5
 73
     9
 74
    -6
  0
VERTEX
  5
F6
330
DB
100
AcDbEntity
  8
0
 62
     7
100
AcDbFaceRecord
 10
0.0
 20
0.0
 30
0.0
 70
   128
 71
    -3
 72
     6
 73
    -8
 74
     7
  0
VERTEX
  5
F7
330
DB
100
AcDbEntity
  8
0
 62
     7
100
AcDbFaceRecord
 10
0.0
 20
0.0
 30
0.0
 70
   128
 71
    -7
 72
    -8
 73
    13
 74
    21
  0
VERTEX
  5
F8
330
DB
100
AcDbEntity
  8
0
 62
     7
100
AcDbFaceRecord
 10
0.0
 20
0.0
 30
0.0
 70
   128
 71
    -9
 72
     5
 73
    18
  0
VERTEX
  5
F9
330
DB
100
AcDbEntity
  8
0
 62
     7
100
AcDbFaceRecord
 10
0.0
 20
0.0
 30
0.0
 70
   128
 71
    -5
 72
    10
 73
    17
  0
VERTEX
  5
FA
330
DB
100
AcDbEntity
  8
0
 62
     7
100
AcDbFaceRecord
 10
0.0
 20
0.0
 30
0.0
 70
   128
 71
   -10
 72
     4
 73
    16
  0
VERTEX
  5
FB
330
DB
100
AcDbEntity
  8
0
 62
     7
100
AcDbFaceRecord
 10
0.0
 20
0.0
 30
0.0
 70
   128
 71
    -4
 72
    11
 73
    15
  0
VERTEX
  5
FC
330
DB
100
AcDbEntity
  8
0
 62
     7
100
AcDbFaceRecord
 10
0.0
 20
0.0
 30
0.0
 70
   128
 71
    -8
 72
    12
 73
    20
 74
   -13
  0
SEQEND
  5
FD
330
DB
100
AcDbEntity
  8
0
 62
     7
  0
LINE
  5
FE
330
63
100
AcDbEntity
  8
0
 62
     7
100
AcDbLine
 10
12.12622732529511
 20
0.2499999705588003
 30
0.0
 11
8.146227326290141
 21
0.7499999704337999
 31
0.0
  0
LWPOLYLINE
  5
FF
330
63
100
AcDbEntity
  8
0
 62
     7
100
AcDbPolyline
 90
        4
 70
     1
 43
0.0
 10
8.126227326295101
 20
0.2499999705588003
 10
12.12622732529511
 20
0.2499999705588003
 10
12.12622732529511
 20
0.749999970433807
 10
8.126227326295101
 20
0.749999970433807
  0
LINE
  5
100
330
63
100
AcDbEntity
  8
0
 62
     7
100
AcDbLine
 10
8.126227326295101
 20
0.2499999705588003
 30
0.0
 11
12.12622732529511
 21
0.749999970433807
 31
0.0
  0
LINE
  5
101
330
63
100
AcDbEntity
  8
0
 62
     7
100
AcDbLine
 10
9.526727325944964
 20
1.974499970127673
 30
0.0
 11
9.526727325944964
 21
1.866411984167932
 31
0.0
  0
LINE
  5
102
330
63
100
AcDbEntity
  8
0
 62
     7
100
AcDbLine
 10
9.475727325957713
 20
1.974499970127673
 30
0.0
 11
9.475727325957713
 21
1.866411984167932
 31
0.0
  0
ARC
  5
103
330
63
100
AcDbEntity
  8
0
 62
     7
100
AcDbCircle
 10
7.856227326362592
 20
1.999999970121301
 30
0.0
 40
0.0999999999749997
100
AcDbArc
 50
90.0
 51
270.0
  0
LINE
  5
104
330
63
100
AcDbEntity
  8
0
 62
     7
100
AcDbLine
 10
8.43922732621684
 20
0.9209999703910423
 30
0.0
 11
8.43922732621684
 21
3.078999969851558
 31
0.0
  0
CIRCLE
  5
105
330
63
100
AcDbEntity
  8
0
 62
     7
100
AcDbCircle
 10
9.50122732595134
 20
1.999999970121301
 30
0.0
 40
0.212499999946875
  0
LINE
  5
106
330
63
100
AcDbEntity
  8
0
 62
     7
100
AcDbLine
 10
7.501227326451374
 20
1.999999970121301
 30
0.0
 11
7.166227326535121
 21
1.874619970152645
 31
0.0
  0
ARC
  5
107
330
63
100
AcDbEntity
  8
0
 62
     7
100
AcDbCircle
 10
7.513204335716366
 20
1.999999970121301
 30
0.0
 40
0.0430229907212194
100
AcDbArc
 50
285.000000000002
 51
74.99999999999753
  0
ARC
  5
108
330
63
100
AcDbEntity
  8
0
 62
     7
100
AcDbCircle
 10
8.237227326267344
 20
1.839999970161297
 30
0.0
 40
0.0599999999849993
100
AcDbArc
 50
0.0000000000006107
 51
90.0
  0
ARC
  5
109
330
63
100
AcDbEntity
  8
0
 62
     7
100
AcDbCircle
 10
8.226227326270091
 20
0.9739999703778181
 30
0.0
 40
0.0499999999875007
100
AcDbArc
 50
0.0000000000020356
 51
90.0
  0
ARC
  5
10A
330
63
100
AcDbEntity
  8
0
 62
     7
100
AcDbCircle
 10
8.226227326270098
 20
0.8859999703998173
 30
0.0
 40
0.0499999999875007
100
AcDbArc
 50
270.0
 51
359.9999999999979
  0
LINE
  5
10B
330
63
100
AcDbEntity
  8
0
 62
     7
100
AcDbLine
 10
8.253919526263178
 20
1.267000170304562
 30
0.0
 11
9.518223325947097
 21
1.267000170304562
 31
0.0
  0
LINE
  5
10C
330
63
100
AcDbEntity
  8
0
 62
     7
100
AcDbLine
 10
8.253918626263175
 20
1.483000170250571
 30
0.0
 11
9.5182223259471
 21
1.483000170250571
 31
0.0
  0
CIRCLE
  5
10D
330
63
100
AcDbEntity
  8
0
 62
     7
100
AcDbCircle
 10
7.045227326566458
 20
0.499999970496635
 30
0.0
 40
0.2499999999378324
  0
LINE
  5
10E
330
63
100
AcDbEntity
  8
0
 62
     7
100
AcDbLine
 10
7.306227326500074
 20
1.899999970146291
 30
0.0
 11
7.524339505092289
 21
1.958442952259481
 31
0.0
  0
LINE
  5
10F
330
63
100
AcDbEntity
  8
0
 62
     7
100
AcDbLine
 10
8.040227326316589
 20
1.686999970199547
 30
0.0
 11
6.876227326607565
 21
1.686999970199561
 31
0.0
  0
LINE
  5
110
330
63
100
AcDbEntity
  8
0
 62
     7
100
AcDbLine
 10
6.876227326607601
 20
1.726999970189547
 30
0.0
 11
6.861227326611359
 21
1.741999970185791
 31
0.0
  0
LINE
  5
111
330
63
100
AcDbEntity
  8
0
 62
     7
100
AcDbLine
 10
6.861227326611359
 20
1.741999970185791
 30
0.0
 11
6.876227326607601
 21
1.756999970122413
 31
0.0
  0
LINE
  5
112
330
63
100
AcDbEntity
  8
0
 62
     7
100
AcDbLine
 10
6.876227326607601
 20
1.756999970122413
 30
0.0
 11
6.876227326607601
 21
1.829999970104369
 31
0.0
  0
LINE
  5
113
330
63
100
AcDbEntity
  8
0
 62
     7
100
AcDbLine
 10
6.876227326607601
 20
1.829999970104369
 30
0.0
 11
6.861227326611444
 21
1.844999970160134
 31
0.0
  0
LINE
  5
114
330
63
100
AcDbEntity
  8
0
 62
     7
100
AcDbLine
 10
6.861227326611444
 20
1.844999970160134
 30
0.0
 11
6.876227326607601
 21
1.859999970156293
 31
0.0
  0
LINE
  5
115
330
63
100
AcDbEntity
  8
0
 62
     7
100
AcDbLine
 10
6.876227326607601
 20
1.859999970156293
 30
0.0
 11
6.876227326607601
 21
1.899999970146298
 31
0.0
  0
LINE
  5
116
330
63
100
AcDbEntity
  8
0
 62
     7
100
AcDbLine
 10
6.876227326607601
 20
1.899999970146298
 30
0.0
 11
7.306227326500074
 21
1.899999970146291
 31
0.0
  0
LINE
  5
117
330
63
100
AcDbEntity
  8
0
 62
     7
100
AcDbLine
 10
6.876227326607565
 20
1.686999970199561
 30
0.0
 11
6.876227326607601
 21
1.726999970189547
 31
0.0
  0
LINE
  5
118
330
63
100
AcDbEntity
  8
0
 62
     7
100
AcDbLine
 10
6.876227326607601
 20
1.686999970199547
 30
0.0
 11
6.876227326607601
 21
1.749499970183922
 31
0.0
  0
ARC
  5
119
330
63
100
AcDbEntity
  8
0
 62
     7
100
AcDbCircle
 10
8.116227326297597
 20
1.736999970187039
 30
0.0
 40
0.0099999999974997
100
AcDbArc
 50
359.9999999999996
 51
90.0
  0
ARC
  5
11A
330
63
100
AcDbEntity
  8
0
 62
     7
100
AcDbCircle
 10
8.060227326311586
 20
1.736999970187039
 30
0.0
 40
0.0099999999974998
100
AcDbArc
 50
90.0
 51
180.0
  0
LINE
  5
11B
330
63
100
AcDbEntity
  8
0
 62
     7
100
AcDbLine
 10
8.050227326314086
 20
1.736999970187039
 30
0.0
 11
8.050227326314086
 21
1.696999970197046
 31
0.0
  0
LINE
  5
11C
330
63
100
AcDbEntity
  8
0
 62
     7
100
AcDbLine
 10
8.237227326267344
 20
1.899999970146291
 30
0.0
 11
7.856227326362592
 21
1.899999970146298
 31
0.0
  0
LINE
  5
11D
330
63
100
AcDbEntity
  8
0
 62
     7
100
AcDbLine
 10
8.116227326297597
 20
1.746999970184536
 30
0.0
 11
8.060227326311586
 21
1.746999970184536
 31
0.0
  0
LINE
  5
11E
330
63
100
AcDbEntity
  8
0
 62
     7
100
AcDbLine
 10
8.126227326295094
 20
1.155999170332311
 30
0.0
 11
8.126227326295094
 21
1.594000770222818
 31
0.0
  0
LINE
  5
11F
330
63
100
AcDbEntity
  8
0
 62
     7
100
AcDbLine
 10
8.1262291744411
 20
1.593999170222813
 30
0.0
 11
8.253919126263173
 21
1.482999570250564
 31
0.0
  0
ARC
  5
120
330
63
100
AcDbEntity
  8
0
 62
     7
100
AcDbCircle
 10
8.141227326291339
 20
1.007999970369317
 30
0.0
 40
0.0149999999962498
100
AcDbArc
 50
180.0
 51
315.1896880937511
  0
LINE
  5
121
330
63
100
AcDbEntity
  8
0
 62
     7
100
AcDbLine
 10
8.126229008733098
 20
1.156000770332315
 30
0.0
 11
8.253919926263176
 21
1.267000870304563
 31
0.0
  0
LINE
  5
122
330
63
100
AcDbEntity
  8
0
 62
     7
100
AcDbLine
 10
8.253918626263175
 20
1.483000170250571
 30
0.0
 11
8.253918626263175
 21
1.267000170304562
 31
0.0
  0
LINE
  5
123
330
63
100
AcDbEntity
  8
0
 62
     7
100
AcDbLine
 10
8.126227326295094
 20
1.359999970281315
 30
0.0
 11
8.141227326291346
 21
1.374999970277563
 31
0.0
  0
LINE
  5
124
330
63
100
AcDbEntity
  8
0
 62
     7
100
AcDbLine
 10
8.141227326291346
 20
1.374999970277563
 30
0.0
 11
8.126227326295094
 21
1.389999970273814
 31
0.0
  0
LINE
  5
125
330
63
100
AcDbEntity
  8
0
 62
     7
100
AcDbLine
 10
8.226227326270091
 20
1.023999970365315
 30
0.0
 11
8.215718936538589
 21
1.023999970365315
 31
0.0
  0
ARC
  5
126
330
63
100
AcDbEntity
  8
0
 62
     7
100
AcDbCircle
 10
8.215718936538568
 20
0.9339999703878127
 30
0.0
 40
0.0899999999775035
100
AcDbArc
 50
90.0
 51
135.1896880937424
  0
LINE
  5
127
330
63
100
AcDbEntity
  8
0
 62
     7
100
AcDbLine
 10
8.126227326295087
 20
1.007999970369317
 30
0.0
 11
8.126227326295094
 21
1.359999970281315
 31
0.0
  0
ARC
  5
128
330
63
100
AcDbEntity
  8
0
 62
     7
100
AcDbCircle
 10
7.846227326365024
 20
1.119999970341311
 30
0.0
 40
0.0299999999925
100
AcDbArc
 50
359.9999999999996
 51
90.0
  0
LINE
  5
129
330
63
100
AcDbEntity
  8
0
 62
     7
100
AcDbLine
 10
7.846227326365024
 20
1.149999970333812
 30
0.0
 11
7.806227326375022
 21
1.149999970333805
 31
0.0
  0
ARC
  5
12A
330
63
100
AcDbEntity
  8
0
 62
     7
100
AcDbCircle
 10
7.806227326375022
 20
1.119999970341311
 30
0.0
 40
0.0299999999924998
100
AcDbArc
 50
90.0
 51
180.0000000000008
  0
LINE
  5
12B
330
63
100
AcDbEntity
  8
0
 62
     7
100
AcDbLine
 10
7.87646403032442
 20
1.109607023103512
 30
0.0
 11
8.126464030261928
 21
1.109607023103512
 31
0.0
  0
LINE
  5
12C
330
63
100
AcDbEntity
  8
0
 62
     7
100
AcDbLine
 10
8.126227326295087
 20
0.7699999704288114
 30
0.0
 11
8.126227326295087
 21
0.8519999704083183
 31
0.0
  0
ARC
  5
12D
330
63
100
AcDbEntity
  8
0
 62
     7
100
AcDbCircle
 10
8.215718936538589
 20
0.9259999703898103
 30
0.0
 40
0.0899999999774928
100
AcDbArc
 50
224.8103119062448
 51
270.0
  0
ARC
  5
12E
330
63
100
AcDbEntity
  8
0
 62
     7
100
AcDbCircle
 10
8.146227326290091
 20
0.7699999704288114
 30
0.0
 40
0.0199999999949996
100
AcDbArc
 50
180.0
 51
270.0
  0
LINE
  5
12F
330
63
100
AcDbEntity
  8
0
 62
     7
100
AcDbLine
 10
8.215718936538582
 20
0.8359999704123133
 30
0.0
 11
8.226227326270098
 21
0.8359999704123133
 31
0.0
  0
ARC
  5
130
330
63
100
AcDbEntity
  8
0
 62
     7
100
AcDbCircle
 10
8.141227326291346
 20
0.8519999704083183
 30
0.0
 40
0.0149999999962583
100
AcDbArc
 50
44.81031190625492
 51
180.0000000000067
  0
ARC
  5
131
330
63
100
AcDbEntity
  8
0
 62
     7
100
AcDbCircle
 10
7.716227326397522
 20
0.9099999703938106
 30
0.0
 40
0.0599999999850002
100
AcDbArc
 50
270.0
 51
0.0000000000004071
  0
LINE
  5
132
330
63
100
AcDbEntity
  8
0
 62
     7
100
AcDbLine
 10
8.126464030261928
 20
0.7496070231935282
 30
0.0
 11
7.876464030324427
 21
0.7496070231935282
 31
0.0
  0
LINE
  5
133
330
63
100
AcDbEntity
  8
0
 62
     7
100
AcDbLine
 10
7.876227326357525
 20
0.7499999704338141
 30
0.0
 11
7.876227326357525
 21
1.119999970341311
 31
0.0
  0
LINE
  5
134
330
63
100
AcDbEntity
  8
0
 62
     7
100
AcDbLine
 10
7.776227326382525
 20
1.119999970341311
 30
0.0
 11
7.776227326382525
 21
0.9099999703938106
 31
0.0
  0
LINE
  5
135
330
63
100
AcDbEntity
  8
0
 62
     7
100
AcDbLine
 10
8.126227326295094
 20
1.389999970273814
 30
0.0
 11
8.126227326295094
 21
1.736999970187039
 31
0.0
  0
ARC
  5
136
330
63
100
AcDbEntity
  8
0
 62
     7
100
AcDbCircle
 10
8.040227326316589
 20
1.696999970197046
 30
0.0
 40
0.0099999999974998
100
AcDbArc
 50
270.0
 51
0.0
  0
LINE
  5
137
330
63
100
AcDbEntity
  8
0
 62
     7
100
AcDbLine
 10
8.451227326213864
 20
0.7499999704337999
 30
0.0
 11
8.451227326213864
 21
0.2499999705588003
 31
0.0
  0
LINE
  5
138
330
63
100
AcDbEntity
  8
0
 62
     7
100
AcDbLine
 10
8.41222732622359
 20
1.806999970169567
 30
0.0
 11
8.297227326252347
 21
1.806999970169567
 31
0.0
  0
LINE
  5
139
330
63
100
AcDbEntity
  8
0
 62
     7
100
AcDbLine
 10
8.297227326252347
 20
1.806999970169567
 30
0.0
 11
8.297227326252347
 21
1.839999970161297
 31
0.0
  0
LINE
  5
13A
330
63
100
AcDbEntity
  8
0
 62
     7
100
AcDbLine
 10
8.432227326218587
 20
1.706999970194559
 30
0.0
 11
8.432227326218594
 21
1.786999970174564
 31
0.0
  0
ARC
  5
13B
330
63
100
AcDbEntity
  8
0
 62
     7
100
AcDbCircle
 10
8.41222732622359
 20
1.786999970174564
 30
0.0
 40
0.0199999999949994
100
AcDbArc
 50
359.9999999999992
 51
90.0
  0
LINE
  5
13C
330
63
100
AcDbEntity
  8
0
 62
     7
100
AcDbLine
 10
8.297227326252347
 20
1.154999970332566
 30
0.0
 11
8.297227326252347
 21
1.686999970199561
 31
0.0
  0
ARC
  5
13D
330
63
100
AcDbEntity
  8
0
 62
     7
100
AcDbCircle
 10
8.41222732622359
 20
1.13499997033757
 30
0.0
 40
0.019999999995
100
AcDbArc
 50
0.0000000000012213
 51
90.0
  0
LINE
  5
13E
330
63
100
AcDbEntity
  8
0
 62
     7
100
AcDbLine
 10
8.412227326223582
 20
1.154999970332566
 30
0.0
 11
8.297227326252347
 21
1.154999970332566
 31
0.0
  0
LINE
  5
13F
330
63
100
AcDbEntity
  8
0
 62
     7
100
AcDbLine
 10
8.297227326252347
 20
1.686999970199561
 30
0.0
 11
8.41222732622359
 21
1.686999970199561
 31
0.0
  0
ARC
  5
140
330
63
100
AcDbEntity
  8
0
 62
     7
100
AcDbCircle
 10
8.452227326213595
 20
0.9259999703898174
 30
0.0
 40
0.019999999995
100
AcDbArc
 50
180.0000000000012
 51
270.0
  0
LINE
  5
141
330
63
100
AcDbEntity
  8
0
 62
     7
100
AcDbLine
 10
8.432227326218594
 20
0.9259999703898174
 30
0.0
 11
8.432227326218587
 21
1.13499997033757
 31
0.0
  0
LINE
  5
142
330
63
100
AcDbEntity
  8
0
 62
     7
100
AcDbLine
 10
8.276227326257593
 20
0.8859999703998102
 30
0.0
 11
8.276227326257593
 21
0.9739999703778181
 31
0.0
  0
ARC
  5
143
330
63
100
AcDbEntity
  8
0
 62
     7
100
AcDbCircle
 10
8.41222732622359
 20
1.706999970194559
 30
0.0
 40
0.0199999999949996
100
AcDbArc
 50
270.0
 51
0.0
  0
LINE
  5
144
330
63
100
AcDbEntity
  8
0
 62
     7
100
AcDbLine
 10
9.626223325920101
 20
1.37500022315806
 30
0.0
 11
9.5182223259471
 21
1.482999970250569
 31
0.0
  0
LINE
  5
145
330
63
100
AcDbEntity
  8
0
 62
     7
100
AcDbLine
 10
9.626223325920101
 20
1.374999717397066
 30
0.0
 11
9.518223325947097
 21
1.267000270304571
 31
0.0
  0
ARC
  5
146
330
63
100
AcDbEntity
  8
0
 62
     7
100
AcDbCircle
 10
9.50122732595134
 20
1.999999970121301
 30
0.0
 40
0.135999999966
100
AcDbArc
 50
259.1930771251396
 51
280.8069228748603
  0
LINE
  5
147
330
63
100
AcDbEntity
  8
0
 62
     7
100
AcDbLine
 10
7.875982248381518
 20
3.386921026906527
 30
0.0
 11
8.415982248246518
 21
3.310385593854787
 31
0.0
  0
LINE
  5
148
330
63
100
AcDbEntity
  8
0
 62
     7
100
AcDbLine
 10
9.305408055550959
 20
3.530558931172528
 30
0.0
 11
8.120422341392551
 21
3.530558931172528
 31
0.0
  0
LINE
  5
149
330
63
100
AcDbEntity
  8
0
 62
     7
100
AcDbLine
 10
9.317869059847993
 20
3.500453844778707
 30
0.0
 11
8.021632326321249
 21
3.500453844778707
 31
0.0
  0
LINE
  5
14A
330
63
100
AcDbEntity
  8
0
 62
     7
100
AcDbLine
 10
8.115894030383486
 20
3.570181863838971
 30
0.0
 11
9.522354344786318
 21
3.895911169761493
 31
0.0
  0
LINE
  5
14B
330
63
100
AcDbEntity
  8
0
 62
     7
100
AcDbLine
 10
7.941352326341323
 20
3.560663844763652
 30
0.0
 11
9.552459065906141
 21
3.93378825838622
 31
0.0
  0
ARC
  5
14C
330
63
100
AcDbEntity
  8
0
 62
     7
100
AcDbCircle
 10
8.226227326270091
 20
3.025999969864825
 30
0.0
 40
0.0499999999875007
100
AcDbArc
 50
270.0
 51
359.9999999999959
  0
ARC
  5
14D
330
63
100
AcDbEntity
  8
0
 62
     7
100
AcDbCircle
 10
8.237227326267344
 20
2.159999970081297
 30
0.0
 40
0.0599999999849993
100
AcDbArc
 50
270.0
 51
359.9999999999993
  0
LINE
  5
14E
330
63
100
AcDbEntity
  8
0
 62
     7
100
AcDbLine
 10
8.253919526263178
 20
2.732999769938038
 30
0.0
 11
9.518223325947097
 21
2.732999769938038
 31
0.0
  0
LINE
  5
14F
330
63
100
AcDbEntity
  8
0
 62
     7
100
AcDbLine
 10
8.253918626263175
 20
2.516999769992029
 30
0.0
 11
9.5182223259471
 21
2.516999769992029
 31
0.0
  0
ARC
  5
150
330
63
100
AcDbEntity
  8
0
 62
     7
100
AcDbCircle
 10
8.226227326270098
 20
3.113999969842819
 30
0.0
 40
0.0499999999875007
100
AcDbArc
 50
0.0
 51
90.0
  0
LINE
  5
151
330
63
100
AcDbEntity
  8
0
 62
     7
100
AcDbLine
 10
7.126227326545102
 20
4.304451517439966
 30
0.0
 11
9.632227325918602
 21
4.304451517439966
 31
0.0
  0
LINE
  5
152
330
63
100
AcDbEntity
  8
0
 62
     7
100
AcDbLine
 10
7.126227326545102
 20
4.054451517502466
 30
0.0
 11
9.632227325918602
 21
4.054451517502466
 31
0.0
  0
LINE
  5
153
330
63
100
AcDbEntity
  8
0
 62
     7
100
AcDbLine
 10
7.126227326545102
 20
3.804451517564967
 30
0.0
 11
8.994240370527968
 21
3.804451517564967
 31
0.0
  0
LINE
  5
154
330
63
100
AcDbEntity
  8
0
 62
     7
100
AcDbLine
 10
8.126227326295087
 20
3.147999969834318
 30
0.0
 11
8.126227326295087
 21
3.229999969813817
 31
0.0
  0
LINE
  5
155
330
63
100
AcDbEntity
  8
0
 62
     7
100
AcDbLine
 10
7.878633576357
 20
3.375016344810061
 30
0.0
 11
7.878633576357
 21
2.767898844961843
 31
0.0
  0
LINE
  5
156
330
63
100
AcDbEntity
  8
0
 62
     7
100
AcDbLine
 10
7.848528576364529
 20
3.481782966228974
 30
0.0
 11
7.848528576364529
 21
2.798003844954315
 31
0.0
  0
LWPOLYLINE
  5
157
330
63
100
AcDbEntity
  8
0
 62
     7
100
AcDbPolyline
 90
        4
 70
     1
 43
0.0
 10
7.188727326529477
 20
3.376846969777087
 10
7.188727326529477
 20
3.001846969870836
 10
7.126227326545102
 20
3.001846969870836
 10
7.126227326545102
 20
3.376846969777087
  0
LINE
  5
158
330
63
100
AcDbEntity
  8
0
 62
     7
100
AcDbLine
 10
7.218832326521951
 20
3.019486368634048
 30
0.0
 11
7.218832326521951
 21
3.34647357424965
 31
0.0
  0
LINE
  5
159
330
63
100
AcDbEntity
  8
0
 62
     7
100
AcDbLine
 10
7.188727326529477
 20
3.007017111051265
 30
0.0
 11
7.188727326529477
 21
3.370405969778715
 31
0.0
  0
LINE
  5
15A
330
63
100
AcDbEntity
  8
0
 62
     7
100
AcDbLine
 10
7.166227326535121
 20
2.125389970089948
 30
0.0
 11
7.501227326451374
 21
1.999999970121301
 31
0.0
  0
LINE
  5
15B
330
63
100
AcDbEntity
  8
0
 62
     7
100
AcDbLine
 10
7.524339505092289
 20
2.041556987983119
 30
0.0
 11
7.306227326500067
 21
2.099999970096295
 31
0.0
  0
LINE
  5
15C
330
63
100
AcDbEntity
  8
0
 62
     7
100
AcDbLine
 10
7.858563576362023
 20
2.747828844966861
 30
0.0
 11
7.447915592714231
 21
2.747828844966861
 31
0.0
  0
LINE
  5
15D
330
63
100
AcDbEntity
  8
0
 62
     7
100
AcDbLine
 10
7.828458576369541
 20
2.777933844959333
 30
0.0
 11
7.460384850196664
 21
2.777933844959333
 31
0.0
  0
LINE
  5
15E
330
63
100
AcDbEntity
  8
0
 62
     7
100
AcDbLine
 10
6.876227326607565
 20
2.312999970043067
 30
0.0
 11
8.040227326316589
 21
2.312999970043053
 31
0.0
  0
LINE
  5
15F
330
63
100
AcDbEntity
  8
0
 62
     7
100
AcDbLine
 10
6.813727326623229
 20
2.749999969933799
 30
0.0
 11
8.063727326310726
 21
2.749999969933799
 31
0.0
  0
LINE
  5
160
330
63
100
AcDbEntity
  8
0
 62
     7
100
AcDbLine
 10
7.626227326420103
 20
2.437999970011794
 30
0.0
 11
7.251227326513852
 21
2.437999970011794
 31
0.0
  0
ARC
  5
161
330
63
100
AcDbEntity
  8
0
 62
     7
100
AcDbCircle
 10
7.208797326524457
 20
3.007017111051265
 30
0.0
 40
0.0200699999949825
100
AcDbArc
 50
179.9999999999
 51
225.0
  0
LINE
  5
162
330
63
100
AcDbEntity
  8
0
 62
     7
100
AcDbLine
 10
7.446192239917309
 20
2.783812616594818
 30
0.0
 11
7.224711098257781
 21
3.005293758254344
 31
0.0
  0
LINE
  5
163
330
63
100
AcDbEntity
  8
0
 62
     7
100
AcDbLine
 10
7.307026326499912
 20
2.881700969900881
 30
0.0
 11
7.183554326530771
 21
2.758228969931757
 31
0.0
  0
LINE
  5
164
330
63
100
AcDbEntity
  8
0
 62
     7
100
AcDbLine
 10
7.377739326482231
 20
2.810988969918559
 30
0.0
 11
7.330695326493991
 21
2.763944969930321
 31
0.0
  0
LINE
  5
165
330
63
100
AcDbEntity
  8
0
 62
     7
100
AcDbLine
 10
7.342384326491064
 20
2.846342969909718
 30
0.0
 11
7.259849326511698
 21
2.763810969930352
 31
0.0
  0
ARC
  5
166
330
63
100
AcDbEntity
  8
0
 62
     7
100
AcDbCircle
 10
7.447915592714231
 20
2.767898844961843
 30
0.0
 40
0.0200699999949825
100
AcDbArc
 50
225.0
 51
270.0
  0
ARC
  5
167
330
63
100
AcDbEntity
  8
0
 62
     7
100
AcDbCircle
 10
7.460384850196664
 20
2.798005226874167
 30
0.0
 40
0.0200713819148322
100
AcDbArc
 50
225.0
 51
270.0
  0
LINE
  5
168
330
63
100
AcDbEntity
  8
0
 62
     7
100
AcDbLine
 10
7.433723959643177
 20
2.753707211890793
 30
0.0
 11
7.194605693453411
 21
2.992825477980215
 31
0.0
  0
ARC
  5
169
330
63
100
AcDbEntity
  8
0
 62
     7
100
AcDbCircle
 10
7.238903708637479
 20
3.019486368634048
 30
0.0
 40
0.0200713821155322
100
AcDbArc
 50
180.0
 51
225.0
  0
LINE
  5
16A
330
63
100
AcDbEntity
  8
0
 62
     7
100
AcDbLine
 10
6.876227326607601
 20
2.624999969965049
 30
0.0
 11
6.813727326623229
 21
2.624999969965049
 31
0.0
  0
ARC
  5
16B
330
63
100
AcDbEntity
  8
0
 62
     7
100
AcDbCircle
 10
6.813727326623229
 20
2.687499969949424
 30
0.0
 40
0.0624999999843759
100
AcDbArc
 50
90.0
 51
270.0
  0
LINE
  5
16C
330
63
100
AcDbEntity
  8
0
 62
     7
100
AcDbLine
 10
7.200959326526415
 20
2.987767969874376
 30
0.0
 11
7.126227326545102
 21
2.913031969893058
 31
0.0
  0
ARC
  5
16D
330
63
100
AcDbEntity
  8
0
 62
     7
100
AcDbCircle
 10
7.298423326502053
 20
1.764937970180067
 30
0.0
 40
0.9999999997499999
100
AcDbArc
 50
82.27343300000027
 51
99.91552700000024
  0
LINE
  5
16E
330
63
100
AcDbEntity
  8
0
 62
     7
100
AcDbLine
 10
7.236317326517578
 20
2.952409969883198
 30
0.0
 11
7.126227326545102
 21
2.842322969910727
 31
0.0
  0
LINE
  5
16F
330
63
100
AcDbEntity
  8
0
 62
     7
100
AcDbLine
 10
7.271672326508742
 20
2.917055969892052
 30
0.0
 11
7.126227326545102
 21
2.771610969928405
 31
0.0
  0
LINE
  5
170
330
63
100
AcDbEntity
  8
0
 62
     7
100
AcDbLine
 10
6.876227326607601
 20
2.272999970053053
 30
0.0
 11
6.876227326607565
 21
2.312999970043067
 31
0.0
  0
LINE
  5
171
330
63
100
AcDbEntity
  8
0
 62
     7
100
AcDbLine
 10
6.876227326607601
 20
2.250499970058671
 30
0.0
 11
6.876227326607601
 21
2.312999970043046
 31
0.0
  0
LINE
  5
172
330
63
100
AcDbEntity
  8
0
 62
     7
100
AcDbLine
 10
6.876227326607601
 20
2.099999970096302
 30
0.0
 11
6.876227326607601
 21
2.139999970086307
 31
0.0
  0
LINE
  5
173
330
63
100
AcDbEntity
  8
0
 62
     7
100
AcDbLine
 10
6.876227326607601
 20
2.139999970086307
 30
0.0
 11
6.861227326611444
 21
2.154999970082466
 31
0.0
  0
LINE
  5
174
330
63
100
AcDbEntity
  8
0
 62
     7
100
AcDbLine
 10
6.861227326611444
 20
2.154999970082466
 30
0.0
 11
6.876227326607601
 21
2.169999970138231
 31
0.0
  0
LINE
  5
175
330
63
100
AcDbEntity
  8
0
 62
     7
100
AcDbLine
 10
6.876227326607601
 20
2.169999970138231
 30
0.0
 11
6.876227326607601
 21
2.242999970120187
 31
0.0
  0
LINE
  5
176
330
63
100
AcDbEntity
  8
0
 62
     7
100
AcDbLine
 10
6.876227326607601
 20
2.242999970120187
 30
0.0
 11
6.861227326611359
 21
2.257999970056809
 31
0.0
  0
LINE
  5
177
330
63
100
AcDbEntity
  8
0
 62
     7
100
AcDbLine
 10
6.861227326611359
 20
2.257999970056809
 30
0.0
 11
6.876227326607601
 21
2.272999970053053
 31
0.0
  0
LINE
  5
178
330
63
100
AcDbEntity
  8
0
 62
     7
100
AcDbLine
 10
7.306227326500067
 20
2.099999970096295
 30
0.0
 11
6.876227326607601
 21
2.099999970096302
 31
0.0
  0
LINE
  5
179
330
63
100
AcDbEntity
  8
0
 62
     7
100
AcDbLine
 10
7.251227326513852
 20
2.312999970043046
 30
0.0
 11
6.876227326607601
 21
2.312999970043046
 31
0.0
  0
LINE
  5
17A
330
63
100
AcDbEntity
  8
0
 62
     7
100
AcDbLine
 10
6.876227326607601
 20
2.312999970043046
 30
0.0
 11
6.876227326607601
 21
2.624999969965049
 31
0.0
  0
LINE
  5
17B
330
63
100
AcDbEntity
  8
0
 62
     7
100
AcDbLine
 10
7.251227326513852
 20
2.437999970011794
 30
0.0
 11
7.251227326513852
 21
2.312999970043046
 31
0.0
  0
ARC
  5
17C
330
63
100
AcDbEntity
  8
0
 62
     7
100
AcDbCircle
 10
8.141227326291346
 20
3.147999969834318
 30
0.0
 40
0.0149999999962573
100
AcDbArc
 50
179.999999999993
 51
315.1896880937413
  0
LINE
  5
17D
330
63
100
AcDbEntity
  8
0
 62
     7
100
AcDbLine
 10
8.226227326270098
 20
3.163999969830316
 30
0.0
 11
8.215718936538582
 21
3.163999969830316
 31
0.0
  0
ARC
  5
17E
330
63
100
AcDbEntity
  8
0
 62
     7
100
AcDbCircle
 10
8.215718936538582
 20
3.073999969852813
 30
0.0
 40
0.0899999999774982
100
AcDbArc
 50
90.0
 51
135.1896880937517
  0
ARC
  5
17F
330
63
100
AcDbEntity
  8
0
 62
     7
100
AcDbCircle
 10
8.141227326291346
 20
2.991999969873319
 30
0.0
 40
0.0149999999962509
100
AcDbArc
 50
44.81031190625463
 51
180.0
  0
ARC
  5
180
330
63
100
AcDbEntity
  8
0
 62
     7
100
AcDbCircle
 10
8.215718936538575
 20
3.065999969854816
 30
0.0
 40
0.0899999999774982
100
AcDbArc
 50
224.8103119062545
 51
270.0
  0
LINE
  5
181
330
63
100
AcDbEntity
  8
0
 62
     7
100
AcDbLine
 10
8.126229008733098
 20
2.843999169910285
 30
0.0
 11
8.253919926263176
 21
2.732999069938037
 31
0.0
  0
LINE
  5
182
330
63
100
AcDbEntity
  8
0
 62
     7
100
AcDbLine
 10
8.253918626263175
 20
2.516999769992029
 30
0.0
 11
8.253918626263175
 21
2.732999769938038
 31
0.0
  0
LINE
  5
183
330
63
100
AcDbEntity
  8
0
 62
     7
100
AcDbLine
 10
8.126227326295094
 20
2.609999969968814
 30
0.0
 11
8.141227326291346
 21
2.62499996996507
 31
0.0
  0
LINE
  5
184
330
63
100
AcDbEntity
  8
0
 62
     7
100
AcDbLine
 10
8.141227326291346
 20
2.62499996996507
 30
0.0
 11
8.126227326295101
 21
2.639999969961323
 31
0.0
  0
LINE
  5
185
330
63
100
AcDbEntity
  8
0
 62
     7
100
AcDbLine
 10
8.126227326295101
 20
2.639999969961323
 30
0.0
 11
8.126227326295094
 21
2.991999969873319
 31
0.0
  0
LINE
  5
186
330
63
100
AcDbEntity
  8
0
 62
     7
100
AcDbLine
 10
8.215718936538582
 20
2.975999969877321
 30
0.0
 11
8.226227326270091
 21
2.975999969877321
 31
0.0
  0
ARC
  5
187
330
63
100
AcDbEntity
  8
0
 62
     7
100
AcDbCircle
 10
7.828458576369541
 20
2.798003844954315
 30
0.0
 40
0.0200699999949825
100
AcDbArc
 50
270.0
 51
0.0
  0
ARC
  5
188
330
63
100
AcDbEntity
  8
0
 62
     7
100
AcDbCircle
 10
7.858563576362023
 20
2.767898844961843
 30
0.0
 40
0.0200699999949825
100
AcDbArc
 50
270.0
 51
0.0
  0
LINE
  5
189
330
63
100
AcDbEntity
  8
0
 62
     7
100
AcDbLine
 10
8.063727326310726
 20
2.624999969965049
 30
0.0
 11
8.001227326326354
 21
2.624999969965049
 31
0.0
  0
ARC
  5
18A
330
63
100
AcDbEntity
  8
0
 62
     7
100
AcDbCircle
 10
8.063727326310726
 20
2.687499969949424
 30
0.0
 40
0.062499999984375
100
AcDbArc
 50
270.0
 51
90.0
  0
LINE
  5
18B
330
63
100
AcDbEntity
  8
0
 62
     7
100
AcDbLine
 10
8.125982248319019
 20
2.770385593989795
 30
0.0
 11
7.875982248381518
 21
2.770385593989795
 31
0.0
  0
ARC
  5
18C
330
63
100
AcDbEntity
  8
0
 62
     7
100
AcDbCircle
 10
8.116227326297604
 20
2.262999970055556
 30
0.0
 40
0.0099999999974998
100
AcDbArc
 50
270.0
 51
0.0
  0
LINE
  5
18D
330
63
100
AcDbEntity
  8
0
 62
     7
100
AcDbLine
 10
8.001227326326354
 20
2.312999970043046
 30
0.0
 11
7.626227326420103
 21
2.312999970043046
 31
0.0
  0
LINE
  5
18E
330
63
100
AcDbEntity
  8
0
 62
     7
100
AcDbLine
 10
8.050227326314086
 20
2.302999970045547
 30
0.0
 11
8.050227326314086
 21
2.262999970055556
 31
0.0
  0
ARC
  5
18F
330
63
100
AcDbEntity
  8
0
 62
     7
100
AcDbCircle
 10
8.060227326311586
 20
2.262999970055556
 30
0.0
 40
0.0099999999974998
100
AcDbArc
 50
180.0
 51
270.0
  0
ARC
  5
190
330
63
100
AcDbEntity
  8
0
 62
     7
100
AcDbCircle
 10
8.040227326316589
 20
2.302999970045547
 30
0.0
 40
0.0099999999974998
100
AcDbArc
 50
0.0
 51
90.0
  0
LINE
  5
191
330
63
100
AcDbEntity
  8
0
 62
     7
100
AcDbLine
 10
7.856227326362592
 20
2.099999970096295
 30
0.0
 11
8.237227326267344
 21
2.099999970096295
 31
0.0
  0
LINE
  5
192
330
63
100
AcDbEntity
  8
0
 62
     7
100
AcDbLine
 10
8.060227326311586
 20
2.252999970058057
 30
0.0
 11
8.116227326297604
 21
2.252999970058064
 31
0.0
  0
LINE
  5
193
330
63
100
AcDbEntity
  8
0
 62
     7
100
AcDbLine
 10
7.626227326420103
 20
2.312999970043046
 30
0.0
 11
7.626227326420103
 21
2.437999970011794
 31
0.0
  0
LINE
  5
194
330
63
100
AcDbEntity
  8
0
 62
     7
100
AcDbLine
 10
8.126227326295101
 20
2.262999970055556
 30
0.0
 11
8.126227326295094
 21
2.609999969968814
 31
0.0
  0
LINE
  5
195
330
63
100
AcDbEntity
  8
0
 62
     7
100
AcDbLine
 10
8.001227326326354
 20
2.624999969965049
 30
0.0
 11
8.001227326326354
 21
2.312999970043046
 31
0.0
  0
LINE
  5
196
330
63
100
AcDbEntity
  8
0
 62
     7
100
AcDbLine
 10
8.126227326295094
 20
2.844000769910289
 30
0.0
 11
8.126227326295094
 21
2.405999170019782
 31
0.0
  0
LINE
  5
197
330
63
100
AcDbEntity
  8
0
 62
     7
100
AcDbLine
 10
8.1262291744411
 20
2.406000770019787
 30
0.0
 11
8.253919126263173
 21
2.517000369992036
 31
0.0
  0
LINE
  5
198
330
63
100
AcDbEntity
  8
0
 62
     7
100
AcDbLine
 10
7.234374759502767
 20
3.366026801348013
 30
0.0
 11
7.822732078934873
 21
3.502287885732945
 31
0.0
  0
LINE
  5
199
330
63
100
AcDbEntity
  8
0
 62
     7
100
AcDbLine
 10
7.204269053347346
 20
3.389958454086375
 30
0.0
 11
7.941352326341323
 21
3.560663844763652
 31
0.0
  0
LINE
  5
19A
330
63
100
AcDbEntity
  8
0
 62
     7
100
AcDbLine
 10
7.126227326545102
 20
3.554451517627466
 30
0.0
 11
7.938727326341979
 21
3.554451517627466
 31
0.0
  0
ARC
  5
19B
330
63
100
AcDbEntity
  8
0
 62
     7
100
AcDbCircle
 10
7.208797326524457
 20
3.370405969778715
 30
0.0
 40
0.0200699999949825
100
AcDbArc
 50
103.0395730453999
 51
180.0
  0
ARC
  5
19C
330
63
100
AcDbEntity
  8
0
 62
     7
100
AcDbCircle
 10
7.238902326516935
 20
3.346474153469848
 30
0.0
 40
0.0200699999949825
100
AcDbArc
 50
103.0375036321999
 51
180.0016536357
  0
ARC
  5
19D
330
63
100
AcDbEntity
  8
0
 62
     7
100
AcDbCircle
 10
8.146227326290091
 20
3.229999969813817
 30
0.0
 40
0.0199999999949996
100
AcDbArc
 50
90.0
 51
180.0
  0
ARC
  5
19E
330
63
100
AcDbEntity
  8
0
 62
     7
100
AcDbCircle
 10
8.120422341392551
 20
3.550629156754315
 30
0.0
 40
0.0200702255817825
100
AcDbArc
 50
103.0395345179999
 51
270.0
  0
ARC
  5
19F
330
63
100
AcDbEntity
  8
0
 62
     7
100
AcDbCircle
 10
7.827480932149388
 20
3.481782966228974
 30
0.0
 40
0.0210476442151381
100
AcDbArc
 50
0.0
 51
103.0395730453999
  0
ARC
  5
1A0
330
63
100
AcDbEntity
  8
0
 62
     7
100
AcDbCircle
 10
8.004064984478542
 20
3.376252577031506
 30
0.0
 40
0.1254374999686406
100
AcDbArc
 50
81.94934348029986
 51
180.5646799282999
  0
LINE
  5
1A1
330
63
100
AcDbEntity
  8
0
 62
     7
100
AcDbLine
 10
8.43222732621858
 20
2.864999969905067
 30
0.0
 11
8.432227326218594
 21
3.07399996985282
 31
0.0
  0
LINE
  5
1A2
330
63
100
AcDbEntity
  8
0
 62
     7
100
AcDbLine
 10
8.297227326252347
 20
2.844999969910062
 30
0.0
 11
8.412227326223582
 21
2.844999969910062
 31
0.0
  0
ARC
  5
1A3
330
63
100
AcDbEntity
  8
0
 62
     7
100
AcDbCircle
 10
8.412227326223582
 20
2.864999969905074
 30
0.0
 40
0.019999999995
100
AcDbArc
 50
270.0
 51
359.9999999999985
  0
ARC
  5
1A4
330
63
100
AcDbEntity
  8
0
 62
     7
100
AcDbCircle
 10
8.452227326213595
 20
3.07399996985282
 30
0.0
 40
0.0199999999950005
100
AcDbArc
 50
90.0
 51
179.9999999999973
  0
LINE
  5
1A5
330
63
100
AcDbEntity
  8
0
 62
     7
100
AcDbLine
 10
8.276227326257593
 20
3.025999969864818
 30
0.0
 11
8.276227326257593
 21
3.113999969842819
 31
0.0
  0
LINE
  5
1A6
330
63
100
AcDbEntity
  8
0
 62
     7
100
AcDbLine
 10
8.432227326218594
 20
2.212999970068072
 30
0.0
 11
8.432227326218587
 21
2.292999970048072
 31
0.0
  0
LINE
  5
1A7
330
63
100
AcDbEntity
  8
0
 62
     7
100
AcDbLine
 10
8.297227326252347
 20
2.159999970081297
 30
0.0
 11
8.297227326252347
 21
2.192999970073069
 31
0.0
  0
LINE
  5
1A8
330
63
100
AcDbEntity
  8
0
 62
     7
100
AcDbLine
 10
8.297227326252347
 20
2.192999970073069
 30
0.0
 11
8.41222732622359
 21
2.192999970073069
 31
0.0
  0
ARC
  5
1A9
330
63
100
AcDbEntity
  8
0
 62
     7
100
AcDbCircle
 10
8.41222732622359
 20
2.212999970068072
 30
0.0
 40
0.0199999999950003
100
AcDbArc
 50
270.0
 51
0.0000000000032569
  0
ARC
  5
1AA
330
63
100
AcDbEntity
  8
0
 62
     7
100
AcDbCircle
 10
8.41222732622359
 20
2.292999970048072
 30
0.0
 40
0.0199999999949996
100
AcDbArc
 50
0.0
 51
90.0
  0
LINE
  5
1AB
330
63
100
AcDbEntity
  8
0
 62
     7
100
AcDbLine
 10
8.41222732622359
 20
2.312999970043067
 30
0.0
 11
8.297227326252347
 21
2.312999970043067
 31
0.0
  0
LINE
  5
1AC
330
63
100
AcDbEntity
  8
0
 62
     7
100
AcDbLine
 10
8.297227326252347
 20
2.312999970043067
 30
0.0
 11
8.297227326252347
 21
2.844999969910062
 31
0.0
  0
LINE
  5
1AD
330
63
100
AcDbEntity
  8
0
 62
     7
100
AcDbLine
 10
9.626223325920101
 20
2.624999717084538
 30
0.0
 11
9.5182223259471
 21
2.516999969992031
 31
0.0
  0
LINE
  5
1AE
330
63
100
AcDbEntity
  8
0
 62
     7
100
AcDbLine
 10
9.626223325920101
 20
2.625000222845532
 30
0.0
 11
9.518223325947097
 21
2.732999669938029
 31
0.0
  0
LINE
  5
1AF
330
63
100
AcDbEntity
  8
0
 62
     7
100
AcDbLine
 10
9.526727325944964
 20
2.025499970114926
 30
0.0
 11
9.634815311904706
 21
2.025499970114926
 31
0.0
  0
LINE
  5
1B0
330
63
100
AcDbEntity
  8
0
 62
     7
100
AcDbLine
 10
9.526727325944964
 20
1.974499970127673
 30
0.0
 11
9.634815311904706
 21
1.974499970127673
 31
0.0
  0
LINE
  5
1B1
330
63
100
AcDbEntity
  8
0
 62
     7
100
AcDbLine
 10
9.526727325944964
 20
2.133587956074668
 30
0.0
 11
9.526727325944964
 21
2.025499970114926
 31
0.0
  0
ARC
  5
1B2
330
63
100
AcDbEntity
  8
0
 62
     7
100
AcDbCircle
 10
9.50122732595134
 20
1.999999970121301
 30
0.0
 40
0.135999999966
100
AcDbArc
 50
349.1930771251396
 51
10.80692287486035
  0
ARC
  5
1B3
330
63
100
AcDbEntity
  8
0
 62
     7
100
AcDbCircle
 10
9.50122732595134
 20
1.999999970121301
 30
0.0
 40
0.135999999966
100
AcDbArc
 50
169.1930771251396
 51
190.8069228748603
  0
LINE
  5
1B4
330
63
100
AcDbEntity
  8
0
 62
     7
100
AcDbLine
 10
9.367639339997971
 20
2.025499970114926
 30
0.0
 11
9.475727325957713
 21
2.025499970114926
 31
0.0
  0
LINE
  5
1B5
330
63
100
AcDbEntity
  8
0
 62
     7
100
AcDbLine
 10
9.367639339997971
 20
1.974499970127673
 30
0.0
 11
9.475727325957713
 21
1.974499970127673
 31
0.0
  0
LINE
  5
1B6
330
63
100
AcDbEntity
  8
0
 62
     7
100
AcDbLine
 10
9.475727325957713
 20
2.133587956074668
 30
0.0
 11
9.475727325957713
 21
2.025499970114926
 31
0.0
  0
ARC
  5
1B7
330
63
100
AcDbEntity
  8
0
 62
     7
100
AcDbCircle
 10
9.50122732595134
 20
1.999999970121301
 30
0.0
 40
0.135999999966
100
AcDbArc
 50
79.19307712513966
 51
100.8069228748603
  0
LINE
  5
1B8
330
63
100
AcDbEntity
  8
0
 62
     7
100
AcDbLine
 10
8.415982248246518
 20
3.310385593854787
 30
0.0
 11
8.415982248246525
 21
3.250385593869784
 31
0.0
  0
LINE
  5
1B9
330
63
100
AcDbEntity
  8
0
 62
     7
100
AcDbLine
 10
8.415982248246525
 20
3.250385593869784
 30
0.0
 11
8.300351390562084
 21
3.250385593869784
 31
0.0
  0
ARC
  5
1BA
330
63
100
AcDbEntity
  8
0
 62
     7
100
AcDbCircle
 10
9.526882570397539
 20
3.876358831463079
 30
0.0
 40
0.0200698469612326
100
AcDbArc
 50
0.0
 51
103.0395345177998
  0
ARC
  5
1BB
330
63
100
AcDbEntity
  8
0
 62
     7
100
AcDbCircle
 10
9.556987325937413
 20
3.914235771068062
 30
0.0
 40
0.0200699999949825
100
AcDbArc
 50
0.0
 51
103.0395345177998
  0
LINE
  5
1BC
330
63
100
AcDbEntity
  8
0
 62
     7
100
AcDbLine
 10
9.630369059769869
 20
3.665920344737418
 30
0.0
 11
9.490471059804846
 21
3.526022344772405
 31
0.0
  0
LINE
  5
1BD
330
63
100
AcDbEntity
  8
0
 62
     7
100
AcDbLine
 10
9.630369059769869
 20
3.595211344755089
 30
0.0
 11
9.557014059788215
 21
3.521857344773446
 31
0.0
  0
ARC
  5
1BE
330
63
100
AcDbEntity
  8
0
 62
     7
100
AcDbCircle
 10
9.556987325937413
 20
3.759642110863108
 30
0.0
 40
0.0200699999949825
100
AcDbArc
 50
315.0000000001
 51
0.0
  0
ARC
  5
1BF
330
63
100
AcDbEntity
  8
0
 62
     7
100
AcDbCircle
 10
9.52688437157969
 20
3.772107674963791
 30
0.0
 40
0.020068045879433
100
AcDbArc
 50
314.9999999999998
 51
0.0
  0
LWPOLYLINE
  5
1C0
330
63
100
AcDbEntity
  8
0
 62
     7
100
AcDbPolyline
 90
        4
 70
     1
 43
0.0
 10
9.575984084796186
 20
3.941325344668559
 10
9.632380994652564
 20
3.941325344668559
 10
9.632380994652564
 20
3.753817728319901
 10
9.575984084796186
 20
3.753817728319901
  0
LINE
  5
1C1
330
63
100
AcDbEntity
  8
0
 62
     7
100
AcDbLine
 10
9.546952417358774
 20
3.876358831463079
 30
0.0
 11
9.546952417358774
 21
3.772107674963791
 31
0.0
  0
LINE
  5
1C2
330
63
100
AcDbEntity
  8
0
 62
     7
100
AcDbLine
 10
9.5770573259324
 20
3.914235771068062
 30
0.0
 11
9.5770573259324
 21
3.759642110863108
 31
0.0
  0
ARC
  5
1C3
330
63
100
AcDbEntity
  8
0
 62
     7
100
AcDbCircle
 10
9.317869059847993
 20
3.520523844773689
 30
0.0
 40
0.0200699999949825
100
AcDbArc
 50
270.0
 51
314.9999999999998
  0
ARC
  5
1C4
330
63
100
AcDbEntity
  8
0
 62
     7
100
AcDbCircle
 10
9.305408055550959
 20
3.550616398154964
 30
0.0
 40
0.0200574668820856
100
AcDbArc
 50
270.0
 51
314.9999999999998
  0
LINE
  5
1C5
330
63
100
AcDbEntity
  8
0
 62
     7
100
AcDbLine
 10
9.541074622831239
 20
3.757917423712239
 30
0.0
 11
9.319590826412461
 21
3.536433627193108
 31
0.0
  0
LINE
  5
1C6
330
63
100
AcDbEntity
  8
0
 62
     7
100
AcDbLine
 10
9.571178959108816
 20
3.745450477792056
 30
0.0
 11
9.332060692919043
 21
3.506332211702634
 31
0.0
  0
LINE
  5
1C7
330
63
100
AcDbEntity
  8
0
 62
     7
100
AcDbLine
 10
9.630369059769869
 20
3.736633344719752
 30
0.0
 11
9.419262059822646
 21
3.525526344772517
 31
0.0
  0
ARC
  5
1C8
330
63
100
AcDbEntity
  8
0
 62
     7
100
AcDbCircle
 10
-9.460352059812379
 20
2.526825345022196
 30
0.0
 40
0.9999999997499999
210
0.0
220
0.0
230
-1.0
100
AcDbArc
 50
83.43336211487102
 51
99.78876599999988
  0
CIRCLE
  5
1C9
330
63
100
AcDbEntity
  8
0
 62
     7
100
AcDbCircle
 10
12.50122732520134
 20
1.999999970121301
 30
0.0
 40
0.212499999946875
  0
LINE
  5
1CA
330
63
100
AcDbEntity
  8
0
 62
     7
100
AcDbLine
 10
12.52672732519497
 20
1.974499970127673
 30
0.0
 11
12.52672732519497
 21
1.866411984167932
 31
0.0
  0
LINE
  5
1CB
330
63
100
AcDbEntity
  8
0
 62
     7
100
AcDbLine
 10
12.47572732520772
 20
1.974499970127673
 30
0.0
 11
12.47572732520772
 21
1.866411984167932
 31
0.0
  0
LINE
  5
1CC
330
63
100
AcDbEntity
  8
0
 62
     7
100
AcDbLine
 10
11.02672732556996
 20
1.974499970127673
 30
0.0
 11
11.02672732556996
 21
1.866411984167932
 31
0.0
  0
LINE
  5
1CD
330
63
100
AcDbEntity
  8
0
 62
     7
100
AcDbLine
 10
10.97572732558271
 20
1.974499970127673
 30
0.0
 11
10.97572732558271
 21
1.866411984167932
 31
0.0
  0
CIRCLE
  5
1CE
330
63
100
AcDbEntity
  8
0
 62
     7
100
AcDbCircle
 10
11.00122732557633
 20
1.999999970121301
 30
0.0
 40
0.212499999946875
  0
ARC
  5
1CF
330
63
100
AcDbEntity
  8
0
 62
     7
100
AcDbCircle
 10
11.00122732557633
 20
1.999999970121301
 30
0.0
 40
0.135999999966
100
AcDbArc
 50
259.1930771251396
 51
280.8069228748603
  0
LINE
  5
1D0
330
63
100
AcDbEntity
  8
0
 62
     7
100
AcDbLine
 10
12.27922732525686
 20
0.9999999703713147
 30
0.0
 11
12.27922732525686
 21
-0.0000000293787066
 31
0.0
  0
ARC
  5
1D1
330
63
100
AcDbEntity
  8
0
 62
     7
100
AcDbCircle
 10
12.50122732520134
 20
1.999999970121301
 30
0.0
 40
0.135999999966
100
AcDbArc
 50
259.1930771251396
 51
280.8069228748603
  0
ARC
  5
1D2
330
63
100
AcDbEntity
  8
0
 62
     7
100
AcDbCircle
 10
11.00122732557633
 20
1.999999970121301
 30
0.0
 40
0.135999999966
100
AcDbArc
 50
349.1930771251396
 51
10.80692287486035
  0
ARC
  5
1D3
330
63
100
AcDbEntity
  8
0
 62
     7
100
AcDbCircle
 10
11.00122732557633
 20
1.999999970121301
 30
0.0
 40
0.135999999966
100
AcDbArc
 50
79.19307712513966
 51
100.8069228748603
  0
LINE
  5
1D4
330
63
100
AcDbEntity
  8
0
 62
     7
100
AcDbLine
 10
10.97572732558271
 20
2.133587956074668
 30
0.0
 11
10.97572732558271
 21
2.025499970114926
 31
0.0
  0
LINE
  5
1D5
330
63
100
AcDbEntity
  8
0
 62
     7
100
AcDbLine
 10
11.02672732556996
 20
2.133587956074668
 30
0.0
 11
11.02672732556996
 21
2.025499970114926
 31
0.0
  0
LINE
  5
1D6
330
63
100
AcDbEntity
  8
0
 62
     7
100
AcDbLine
 10
11.02672732556996
 20
2.025499970114926
 30
0.0
 11
11.1348153115297
 21
2.025499970114926
 31
0.0
  0
LINE
  5
1D7
330
63
100
AcDbEntity
  8
0
 62
     7
100
AcDbLine
 10
11.02672732556996
 20
1.974499970127673
 30
0.0
 11
11.1348153115297
 21
1.974499970127673
 31
0.0
  0
ARC
  5
1D8
330
63
100
AcDbEntity
  8
0
 62
     7
100
AcDbCircle
 10
11.00122732557633
 20
1.999999970121301
 30
0.0
 40
0.135999999966
100
AcDbArc
 50
169.1930771251396
 51
190.8069228748603
  0
LINE
  5
1D9
330
63
100
AcDbEntity
  8
0
 62
     7
100
AcDbLine
 10
10.86763933962297
 20
2.025499970114926
 30
0.0
 11
10.97572732558271
 21
2.025499970114926
 31
0.0
  0
LINE
  5
1DA
330
63
100
AcDbEntity
  8
0
 62
     7
100
AcDbLine
 10
10.86763933962297
 20
1.974499970127673
 30
0.0
 11
10.97572732558271
 21
1.974499970127673
 31
0.0
  0
ARC
  5
1DB
330
63
100
AcDbEntity
  8
0
 62
     7
100
AcDbCircle
 10
12.50122732520134
 20
1.999999970121301
 30
0.0
 40
0.135999999966
100
AcDbArc
 50
79.19307712513966
 51
100.8069228748603
  0
ARC
  5
1DC
330
63
100
AcDbEntity
  8
0
 62
     7
100
AcDbCircle
 10
12.50122732520134
 20
1.999999970121301
 30
0.0
 40
0.135999999966
100
AcDbArc
 50
169.1930771251396
 51
190.8069228748603
  0
LINE
  5
1DD
330
63
100
AcDbEntity
  8
0
 62
     7
100
AcDbLine
 10
12.36763933924797
 20
2.025499970114926
 30
0.0
 11
12.47572732520772
 21
2.025499970114926
 31
0.0
  0
LINE
  5
1DE
330
63
100
AcDbEntity
  8
0
 62
     7
100
AcDbLine
 10
12.36763933924797
 20
1.974499970127673
 30
0.0
 11
12.47572732520772
 21
1.974499970127673
 31
0.0
  0
ARC
  5
1DF
330
63
100
AcDbEntity
  8
0
 62
     7
100
AcDbCircle
 10
12.50122732520134
 20
1.999999970121301
 30
0.0
 40
0.135999999966
100
AcDbArc
 50
349.1930771251396
 51
10.80692287486035
  0
LINE
  5
1E0
330
63
100
AcDbEntity
  8
0
 62
     7
100
AcDbLine
 10
12.52672732519497
 20
2.025499970114926
 30
0.0
 11
12.63481531115471
 21
2.025499970114926
 31
0.0
  0
LINE
  5
1E1
330
63
100
AcDbEntity
  8
0
 62
     7
100
AcDbLine
 10
12.52672732519497
 20
1.974499970127673
 30
0.0
 11
12.63481531115471
 21
1.974499970127673
 31
0.0
  0
LINE
  5
1E2
330
63
100
AcDbEntity
  8
0
 62
     7
100
AcDbLine
 10
12.47572732520772
 20
2.133587956074668
 30
0.0
 11
12.47572732520772
 21
2.025499970114926
 31
0.0
  0
LINE
  5
1E3
330
63
100
AcDbEntity
  8
0
 62
     7
100
AcDbLine
 10
12.52672732519497
 20
2.133587956074668
 30
0.0
 11
12.52672732519497
 21
2.025499970114926
 31
0.0
  0
LINE
  5
1E4
330
63
100
AcDbEntity
  8
0
 62
     7
100
AcDbLine
 10
15.86722732435988
 20
3.093999969847816
 30
0.0
 11
15.33522732449287
 21
3.093999969847816
 31
0.0
  0
LINE
  5
1E5
330
63
100
AcDbEntity
  8
0
 62
     7
100
AcDbLine
 10
15.33522732449288
 20
0.9059999703948129
 30
0.0
 11
15.86722732435988
 21
0.9059999703948129
 31
0.0
  0
CIRCLE
  5
1E6
330
63
100
AcDbEntity
  8
0
 62
     7
100
AcDbCircle
 10
15.84527757689701
 20
0.4999999704963081
 30
0.0
 40
0.249999999937508
  0
LINE
  5
1E7
330
63
100
AcDbEntity
  8
0
 62
     7
100
AcDbLine
 10
15.14922732453938
 20
3.063999969855322
 30
0.0
 11
15.14922732453938
 21
0.9359999703873143
 31
0.0
  0
LINE
  5
1E8
330
63
100
AcDbEntity
  8
0
 62
     7
100
AcDbLine
 10
15.30522732450038
 20
2.609999969968828
 30
0.0
 11
15.30522732450038
 21
1.389999970273814
 31
0.0
  0
LINE
  5
1E9
330
63
100
AcDbEntity
  8
0
 62
     7
100
AcDbLine
 10
14.02672732481997
 20
1.974499970127673
 30
0.0
 11
14.02672732481997
 21
1.866411984167932
 31
0.0
  0
LINE
  5
1EA
330
63
100
AcDbEntity
  8
0
 62
     7
100
AcDbLine
 10
13.97572732483271
 20
1.974499970127673
 30
0.0
 11
13.97572732483271
 21
1.866411984167932
 31
0.0
  0
CIRCLE
  5
1EB
330
63
100
AcDbEntity
  8
0
 62
     7
100
AcDbCircle
 10
14.00122732482634
 20
1.999999970121301
 30
0.0
 40
0.212499999946875
  0
LINE
  5
1EC
330
63
100
AcDbEntity
  8
0
 62
     7
100
AcDbLine
 10
15.06322732456084
 20
3.078999969851558
 30
0.0
 11
15.06322732456084
 21
0.9209999703910423
 31
0.0
  0
LINE
  5
1ED
330
63
100
AcDbEntity
  8
0
 62
     7
100
AcDbLine
 10
14.43022732471913
 20
1.482999970250569
 30
0.0
 11
14.30522732475038
 21
1.374999970277563
 31
0.0
  0
LINE
  5
1EE
330
63
100
AcDbEntity
  8
0
 62
     7
100
AcDbLine
 10
14.30522732475038
 20
1.374999970277563
 30
0.0
 11
14.43022732471913
 21
1.266999970304567
 31
0.0
  0
ARC
  5
1EF
330
63
100
AcDbEntity
  8
0
 62
     7
100
AcDbCircle
 10
14.00122732482634
 20
1.999999970121301
 30
0.0
 40
0.135999999966
100
AcDbArc
 50
259.1930771251396
 51
280.8069228748603
  0
LINE
  5
1F0
330
63
100
AcDbEntity
  8
0
 62
     7
100
AcDbLine
 10
15.30522732450038
 20
1.482999970250569
 30
0.0
 11
14.43022732471913
 21
1.482999970250569
 31
0.0
  0
LINE
  5
1F1
330
63
100
AcDbEntity
  8
0
 62
     7
100
AcDbLine
 10
15.30522732450038
 20
1.266999970304567
 30
0.0
 11
14.43022732471913
 21
1.266999970304567
 31
0.0
  0
LINE
  5
1F2
330
63
100
AcDbEntity
  8
0
 62
     7
100
AcDbLine
 10
15.30522732450038
 20
1.16249997033069
 30
0.0
 11
15.30522732450038
 21
1.587499970224445
 31
0.0
  0
ARC
  5
1F3
330
63
100
AcDbEntity
  8
0
 62
     7
100
AcDbCircle
 10
15.28751005343971
 20
1.465848866886082
 30
0.0
 40
0.1555759970749123
100
AcDbArc
 50
22.55745101456688
 51
51.4385496038475
  0
LINE
  5
1F4
330
63
100
AcDbEntity
  8
0
 62
     7
100
AcDbLine
 10
15.30522732450038
 20
1.16249997033069
 30
0.0
 11
15.37420586967964
 21
1.16249997033069
 31
0.0
  0
ARC
  5
1F5
330
63
100
AcDbEntity
  8
0
 62
     7
100
AcDbCircle
 10
15.15579404960281
 20
1.411135514378115
 30
0.0
 40
0.2982036823587474
100
AcDbArc
 50
9.762702047341118
 51
22.55745101456688
  0
ARC
  5
1F6
330
63
100
AcDbEntity
  8
0
 62
     7
100
AcDbCircle
 10
14.94577654052113
 20
1.374999970277563
 30
0.0
 40
0.5113072526439889
100
AcDbArc
 50
0.0
 51
9.762702047341118
  0
ARC
  5
1F7
330
63
100
AcDbEntity
  8
0
 62
     7
100
AcDbCircle
 10
14.94577654052113
 20
1.374999970277563
 30
0.0
 40
0.5113072526439901
100
AcDbArc
 50
350.2372979526587
 51
0.0
  0
ARC
  5
1F8
330
63
100
AcDbEntity
  8
0
 62
     7
100
AcDbCircle
 10
15.1557940496028
 20
1.338864426177014
 30
0.0
 40
0.2982036823587486
100
AcDbArc
 50
337.4425489854331
 51
350.2372979526587
  0
ARC
  5
1F9
330
63
100
AcDbEntity
  8
0
 62
     7
100
AcDbCircle
 10
15.28751005343971
 20
1.284151073669047
 30
0.0
 40
0.1555759970749122
100
AcDbArc
 50
314.9188334096753
 51
337.4425489854331
  0
ARC
  5
1FA
330
63
100
AcDbEntity
  8
0
 62
     7
100
AcDbCircle
 10
15.36865555883587
 20
1.202775336586659
 30
0.0
 40
0.040656009119373
100
AcDbArc
 50
270.0
 51
314.9188334096753
  0
ARC
  5
1FB
330
63
100
AcDbEntity
  8
0
 62
     7
100
AcDbCircle
 10
15.36865555883587
 20
1.202775336586659
 30
0.0
 40
0.040656009119373
100
AcDbArc
 50
262.1535442896996
 51
270.0
  0
LINE
  5
1FC
330
63
100
AcDbEntity
  8
0
 62
     7
100
AcDbLine
 10
15.30522732450038
 20
1.389999970273814
 30
0.0
 11
15.29022732450413
 21
1.374999970277563
 31
0.0
  0
LINE
  5
1FD
330
63
100
AcDbEntity
  8
0
 62
     7
100
AcDbLine
 10
15.29022732450413
 20
1.374999970277563
 30
0.0
 11
15.30522732450038
 21
1.359999970281315
 31
0.0
  0
LINE
  5
1FE
330
63
100
AcDbEntity
  8
0
 62
     7
100
AcDbLine
 10
15.38448891671627
 20
1.587499970224445
 30
0.0
 11
15.30522732450038
 21
1.587499970224445
 31
0.0
  0
ARC
  5
1FF
330
63
100
AcDbEntity
  8
0
 62
     7
100
AcDbCircle
 10
15.11922732454688
 20
0.9359999703873143
 30
0.0
 40
0.0299999999924998
100
AcDbArc
 50
270.0
 51
359.9999999999989
  0
ARC
  5
200
330
63
100
AcDbEntity
  8
0
 62
     7
100
AcDbCircle
 10
15.33522732449288
 20
0.9359999703873143
 30
0.0
 40
0.0299999999925003
100
AcDbArc
 50
180.0000000000016
 51
270.0
  0
LINE
  5
201
330
63
100
AcDbEntity
  8
0
 62
     7
100
AcDbLine
 10
15.30522732450038
 20
1.359999970281315
 30
0.0
 11
15.30522732450038
 21
0.9359999703873143
 31
0.0
  0
LINE
  5
202
330
63
100
AcDbEntity
  8
0
 62
     7
100
AcDbLine
 10
14.43022732471913
 20
2.51699996999206
 30
0.0
 11
14.30522732475038
 21
2.624999969965063
 31
0.0
  0
LINE
  5
203
330
63
100
AcDbEntity
  8
0
 62
     7
100
AcDbLine
 10
14.30522732475038
 20
2.624999969965063
 30
0.0
 11
14.43022732471913
 21
2.732999969938061
 31
0.0
  0
LINE
  5
204
330
63
100
AcDbEntity
  8
0
 62
     7
100
AcDbLine
 10
13.30570494026288
 20
3.248787254906496
 30
0.0
 11
13.30570494026288
 21
2.998787254968997
 31
0.0
  0
INSERT
  5
205
330
63
100
AcDbEntity
  8
0
 62
     7
100
AcDbBlockReference
  2
_ARCHTICK
 10
13.30570494026288
 20
3.248787254906496
 30
0.0
 41
-0.2499999999374998
 42
0.2499999999374998
 43
0.2499999999375
 50
270.0
  0
ARC
  5
206
330
63
100
AcDbEntity
  8
0
 62
     7
100
AcDbCircle
 10
14.00122732482634
 20
1.999999970121301
 30
0.0
 40
0.135999999966
100
AcDbArc
 50
79.19307712513966
 51
100.8069228748603
  0
ARC
  5
207
330
63
100
AcDbEntity
  8
0
 62
     7
100
AcDbCircle
 10
14.00122732482634
 20
1.999999970121301
 30
0.0
 40
0.135999999966
100
AcDbArc
 50
169.1930771251396
 51
190.8069228748603
  0
LINE
  5
208
330
63
100
AcDbEntity
  8
0
 62
     7
100
AcDbLine
 10
13.86763933887297
 20
2.025499970114926
 30
0.0
 11
13.97572732483271
 21
2.025499970114926
 31
0.0
  0
LINE
  5
209
330
63
100
AcDbEntity
  8
0
 62
     7
100
AcDbLine
 10
13.86763933887297
 20
1.974499970127673
 30
0.0
 11
13.97572732483271
 21
1.974499970127673
 31
0.0
  0
ARC
  5
20A
330
63
100
AcDbEntity
  8
0
 62
     7
100
AcDbCircle
 10
14.00122732482634
 20
1.999999970121301
 30
0.0
 40
0.135999999966
100
AcDbArc
 50
349.1930771251396
 51
10.80692287486035
  0
LINE
  5
20B
330
63
100
AcDbEntity
  8
0
 62
     7
100
AcDbLine
 10
14.02672732481997
 20
2.025499970114926
 30
0.0
 11
14.13481531077971
 21
2.025499970114926
 31
0.0
  0
LINE
  5
20C
330
63
100
AcDbEntity
  8
0
 62
     7
100
AcDbLine
 10
14.02672732481997
 20
1.974499970127673
 30
0.0
 11
14.13481531077971
 21
1.974499970127673
 31
0.0
  0
LINE
  5
20D
330
63
100
AcDbEntity
  8
0
 62
     7
100
AcDbLine
 10
13.97572732483271
 20
2.133587956074668
 30
0.0
 11
13.97572732483271
 21
2.025499970114926
 31
0.0
  0
LINE
  5
20E
330
63
100
AcDbEntity
  8
0
 62
     7
100
AcDbLine
 10
14.02672732481997
 20
2.133587956074668
 30
0.0
 11
14.02672732481997
 21
2.025499970114926
 31
0.0
  0
LINE
  5
20F
330
63
100
AcDbEntity
  8
0
 62
     7
100
AcDbLine
 10
13.30570494026288
 20
3.506093365243096
 30
0.0
 11
13.30570494026288
 21
3.756093365180595
 31
0.0
  0
INSERT
  5
210
330
63
100
AcDbEntity
  8
0
 62
     7
100
AcDbBlockReference
  2
_ARCHTICK
 10
13.30570494026288
 20
3.506093365243096
 30
0.0
 41
-0.2499999999374998
 42
0.2499999999374998
 43
0.2499999999375
 50
90.0
  0
INSERT
  5
211
330
63
100
AcDbEntity
  8
0
 62
     7
100
AcDbBlockReference
  2
_ARCHTICK
 10
13.30570494026288
 20
3.506093365243096
 30
0.0
 41
-0.2499999999374998
 42
0.2499999999374998
 43
0.2499999999375
 50
90.0
  0
LINE
  5
212
330
63
100
AcDbEntity
  8
0
 62
     7
100
AcDbLine
 10
15.30522732450038
 20
2.51699996999206
 30
0.0
 11
14.43022732471913
 21
2.51699996999206
 31
0.0
  0
LINE
  5
213
330
63
100
AcDbEntity
  8
0
 62
     7
100
AcDbLine
 10
15.30522732450038
 20
2.732999969938061
 30
0.0
 11
14.43022732471913
 21
2.732999969938061
 31
0.0
  0
LINE
  5
214
330
63
100
AcDbEntity
  8
0
 62
     7
100
AcDbLine
 10
15.30522732450037
 20
3.063999969855315
 30
0.0
 11
15.30522732450038
 21
2.639999969961316
 31
0.0
  0
LINE
  5
215
330
63
100
AcDbEntity
  8
0
 62
     7
100
AcDbLine
 10
15.30522732450038
 20
2.837499969911938
 30
0.0
 11
15.30522732450038
 21
2.412499970018183
 31
0.0
  0
LINE
  5
216
330
63
100
AcDbEntity
  8
0
 62
     7
100
AcDbLine
 10
15.38448891671627
 20
2.412499970018183
 30
0.0
 11
15.30522732450038
 21
2.412499970018183
 31
0.0
  0
LINE
  5
217
330
63
100
AcDbEntity
  8
0
 62
     7
100
AcDbLine
 10
15.30522732450038
 20
2.837499969911938
 30
0.0
 11
15.37420586967964
 21
2.837499969911938
 31
0.0
  0
LWPOLYLINE
  5
218
330
63
100
AcDbEntity
  8
0
 62
     7
100
AcDbPolyline
 90
        9
 70
     0
 43
0.0
 10
15.38448891671627
 20
2.412499970018183
 42
0.1266889011641713
 10
15.43118376297843
 20
2.474470623850557
 42
0.0558856962682024
 10
15.44967929274604
 20
2.538298626800719
 42
0.0426236080121984
 10
15.45708379316511
 20
2.624999969965063
 42
0.0426236080121983
 10
15.44967929274604
 20
2.711701313129402
 42
0.0558856962682022
 10
15.43118376297843
 20
2.775529316079566
 42
0.0985958869438301
 10
15.39736294443583
 20
2.82601343985214
 42
0.1985442246528007
 10
15.36865555883587
 20
2.837880612775339
 42
0.0342500047400331
 10
15.36310524799211
 20
2.837499969911938
 42
0.0985958869438299
  0
LINE
  5
219
330
63
100
AcDbEntity
  8
0
 62
     7
100
AcDbLine
 10
15.30522732450038
 20
2.639999969961316
 30
0.0
 11
15.29022732450413
 21
2.62499996996507
 31
0.0
  0
LINE
  5
21A
330
63
100
AcDbEntity
  8
0
 62
     7
100
AcDbLine
 10
15.29022732450413
 20
2.62499996996507
 30
0.0
 11
15.30522732450038
 21
2.609999969968828
 31
0.0
  0
ARC
  5
21B
330
63
100
AcDbEntity
  8
0
 62
     7
100
AcDbCircle
 10
15.11922732454687
 20
3.063999969855322
 30
0.0
 40
0.0299999999924989
100
AcDbArc
 50
359.9999999999957
 51
90.0
  0
ARC
  5
21C
330
63
100
AcDbEntity
  8
0
 62
     7
100
AcDbCircle
 10
15.33522732449287
 20
3.063999969855315
 30
0.0
 40
0.0299999999925007
100
AcDbArc
 50
90.0
 51
180.0000000000008
  0
LINE
  5
21D
330
63
100
AcDbEntity
  8
0
 62
     7
100
AcDbLine
 10
16.3162273242476
 20
0.9679999703793473
 30
0.0
 11
16.3162273242476
 21
3.031999969863338
 31
0.0
  0
LINE
  5
21E
330
63
100
AcDbEntity
  8
0
 62
     7
100
AcDbLine
 10
16.3762273242326
 20
3.219050222348283
 30
0.0
 11
16.3762273242326
 21
0.780949717894405
 31
0.0
  0
LINE
  5
21F
330
63
100
AcDbEntity
  8
0
 62
     7
100
AcDbLine
 10
16.10722732429986
 20
0.7499999704337999
 30
0.0
 11
16.10722732429986
 21
0.2499999705588003
 31
0.0
  0
ARC
  5
220
330
63
100
AcDbEntity
  8
0
 62
     7
100
AcDbCircle
 10
16.53277757672516
 20
0.4999999704963081
 30
0.0
 40
0.312499999921891
100
AcDbArc
 50
126.8698976458454
 51
233.1301023541543
  0
LINE
  5
221
330
63
100
AcDbEntity
  8
0
 62
     7
100
AcDbLine
 10
16.2762273242576
 20
0.9059999703948484
 30
0.0
 11
16.0642273243106
 21
0.9059999703948413
 31
0.0
  0
LINE
  5
222
330
63
100
AcDbEntity
  8
0
 62
     7
100
AcDbLine
 10
16.0642273243106
 20
0.90599997039482
 30
0.0
 11
16.29860482644309
 21
0.82069353603692
 31
0.0
  0
LINE
  5
223
330
63
100
AcDbEntity
  8
0
 62
     7
100
AcDbLine
 10
16.0642273243106
 20
0.9059999703948413
 30
0.0
 11
16.0642273243106
 21
0.8739999704028527
 31
0.0
  0
LINE
  5
224
330
63
100
AcDbEntity
  8
0
 62
     7
100
AcDbLine
 10
16.0642273243106
 20
0.8649999704050745
 30
0.0
 11
16.0642273243106
 21
0.90599997039482
 31
0.0
  0
LINE
  5
225
330
63
100
AcDbEntity
  8
0
 62
     7
100
AcDbLine
 10
16.35924204286263
 20
0.7739141839902289
 30
0.0
 11
16.2762273242576
 21
0.85692890259525
 31
0.0
  0
ARC
  5
226
330
63
100
AcDbEntity
  8
0
 62
     7
100
AcDbCircle
 10
16.36627757676679
 20
0.780949717894405
 30
0.0
 40
0.0099497474658101
100
AcDbArc
 50
225.000000000007
 51
0.0
  0
LINE
  5
227
330
63
100
AcDbEntity
  8
0
 62
     7
100
AcDbLine
 10
16.29860482644309
 20
0.82069353603692
 30
0.0
 11
16.3523131106762
 21
0.7669852518038152
 31
0.0
  0
ARC
  5
228
330
63
100
AcDbEntity
  8
0
 62
     7
100
AcDbCircle
 10
16.34527757677202
 20
0.7599497178996391
 30
0.0
 40
0.0099497474658218
100
AcDbArc
 50
270.0
 51
45.00000000000357
  0
LINE
  5
229
330
63
100
AcDbEntity
  8
0
 62
     7
100
AcDbLine
 10
16.2762273242576
 20
0.85692890259525
 30
0.0
 11
16.2762273242576
 21
0.9059999703948484
 31
0.0
  0
LINE
  5
22A
330
63
100
AcDbEntity
  8
0
 62
     7
100
AcDbLine
 10
15.86722732435988
 20
0.9059999703948129
 30
0.0
 11
15.93822732434212
 21
0.8349999704125732
 31
0.0
  0
LINE
  5
22B
330
63
100
AcDbEntity
  8
0
 62
     7
100
AcDbLine
 10
15.93822732434212
 20
0.8349999704125732
 30
0.0
 11
16.03422732431811
 21
0.8349999704125732
 31
0.0
  0
ARC
  5
22C
330
63
100
AcDbEntity
  8
0
 62
     7
100
AcDbCircle
 10
15.95716583711993
 20
0.9530614576005174
 30
0.0
 40
0.0149385127788242
100
AcDbArc
 50
90.0
 51
239.9999999999964
  0
LINE
  5
22D
330
63
100
AcDbEntity
  8
0
 62
     7
100
AcDbLine
 10
15.95716583711993
 20
0.9679999703793473
 30
0.0
 11
16.3162273242476
 21
0.9679999703793473
 31
0.0
  0
ARC
  5
22E
330
63
100
AcDbEntity
  8
0
 62
     7
100
AcDbCircle
 10
16.03422732431811
 20
0.8649999704050674
 30
0.0
 40
0.0299999999924976
100
AcDbArc
 50
270.0
 51
0.0000000000067173
  0
LINE
  5
22F
330
63
100
AcDbEntity
  8
0
 62
     7
100
AcDbLine
 10
16.0642273243106
 20
0.8739999704028527
 30
0.0
 11
15.94969658073051
 21
0.9401243260392959
 31
0.0
  0
LINE
  5
230
330
63
100
AcDbEntity
  8
0
 62
     7
100
AcDbLine
 10
16.2762273242576
 20
3.143071037647434
 30
0.0
 11
16.35924204286262
 21
3.22608575625245
 31
0.0
  0
LINE
  5
231
330
63
100
AcDbEntity
  8
0
 62
     7
100
AcDbLine
 10
16.3523131106762
 20
3.233014688438814
 30
0.0
 11
16.29860482644309
 21
3.179306404205702
 31
0.0
  0
LINE
  5
232
330
63
100
AcDbEntity
  8
0
 62
     7
100
AcDbLine
 10
16.03422732431811
 20
3.164999969830056
 30
0.0
 11
15.93822732434212
 21
3.164999969830056
 31
0.0
  0
ARC
  5
233
330
63
100
AcDbEntity
  8
0
 62
     7
100
AcDbCircle
 10
16.03422732431811
 20
3.134999969837561
 30
0.0
 40
0.0299999999924976
100
AcDbArc
 50
359.9999999999898
 51
90.0
  0
LINE
  5
234
330
63
100
AcDbEntity
  8
0
 62
     7
100
AcDbLine
 10
16.0642273243106
 20
3.093999969847837
 30
0.0
 11
16.2762273242576
 21
3.093999969847837
 31
0.0
  0
ARC
  5
235
330
63
100
AcDbEntity
  8
0
 62
     7
100
AcDbCircle
 10
15.95716583711993
 20
3.046938482642168
 30
0.0
 40
0.014938512778826
100
AcDbArc
 50
120.0
 51
270.0
  0
LINE
  5
236
330
63
100
AcDbEntity
  8
0
 62
     7
100
AcDbLine
 10
16.3162273242476
 20
3.031999969863338
 30
0.0
 11
15.95716583711993
 21
3.031999969863338
 31
0.0
  0
LINE
  5
237
330
63
100
AcDbEntity
  8
0
 62
     7
100
AcDbLine
 10
16.29860482644309
 20
3.179306404205702
 30
0.0
 11
16.0642273243106
 21
3.093999969847809
 31
0.0
  0
LINE
  5
238
330
63
100
AcDbEntity
  8
0
 62
     7
100
AcDbLine
 10
16.0642273243106
 20
3.125999969839833
 30
0.0
 11
16.0642273243106
 21
3.093999969847837
 31
0.0
  0
LINE
  5
239
330
63
100
AcDbEntity
  8
0
 62
     7
100
AcDbLine
 10
16.0642273243106
 20
3.093999969847809
 30
0.0
 11
16.0642273243106
 21
3.134999969837554
 31
0.0
  0
LINE
  5
23A
330
63
100
AcDbEntity
  8
0
 62
     7
100
AcDbLine
 10
15.93822732434212
 20
3.164999969830056
 30
0.0
 11
15.86722732435988
 21
3.093999969847816
 31
0.0
  0
LINE
  5
23B
330
63
100
AcDbEntity
  8
0
 62
     7
100
AcDbLine
 10
15.94969658073051
 20
3.05987561420339
 30
0.0
 11
16.0642273243106
 21
3.125999969839833
 31
0.0
  0
LINE
  5
23C
330
63
100
AcDbEntity
  8
0
 62
     7
100
AcDbLine
 10
16.2762273242576
 20
3.093999969847837
 30
0.0
 11
16.2762273242576
 21
3.143071037647434
 31
0.0
  0
ARC
  5
23D
330
63
100
AcDbEntity
  8
0
 62
     7
100
AcDbCircle
 10
16.36627757676679
 20
3.219050222348283
 30
0.0
 40
0.0099497474658107
100
AcDbArc
 50
359.9999999999985
 51
135.0000000000008
  0
ARC
  5
23E
330
63
100
AcDbEntity
  8
0
 62
     7
100
AcDbCircle
 10
16.34527757677202
 20
3.24005022234299
 30
0.0
 40
0.0099497474658226
100
AcDbArc
 50
314.9999999999929
 51
90.0
  0
LINE
  5
23F
330
63
100
AcDbEntity
  8
0
 62
     7
100
AcDbLine
 10
6.493338369698964
 20
12.49251478730558
 30
0.0
 11
7.158338369532714
 21
12.49251478730558
 31
0.0
  0
LINE
  5
240
330
63
100
AcDbEntity
  8
0
 62
     7
100
AcDbLine
 10
6.493338369698964
 20
12.74328478724289
 30
0.0
 11
7.158338369532714
 21
12.74328478724289
 31
0.0
  0
LINE
  5
241
330
63
100
AcDbEntity
  8
0
 62
     7
100
AcDbLine
 10
6.618338369667693
 20
12.93090478719598
 30
0.0
 11
6.868338369605194
 21
12.93090478719597
 31
0.0
  0
LINE
  5
242
330
63
100
AcDbEntity
  8
0
 62
     7
100
AcDbLine
 10
6.868338369605194
 20
12.30490478735249
 30
0.0
 11
6.618338369667693
 21
12.30490478735249
 31
0.0
  0
LINE
  5
243
330
63
100
AcDbEntity
  8
0
 62
     7
100
AcDbLine
 10
6.618583447643779
 20
11.84751916340573
 30
0.0
 11
6.868583447581276
 21
11.84751916340573
 31
0.0
  0
LINE
  5
244
330
63
100
AcDbEntity
  8
0
 62
     7
100
AcDbLine
 10
6.868583447581276
 20
11.230983730489
 30
0.0
 11
6.328583447716283
 21
11.30751916354074
 31
0.0
  0
LINE
  5
245
330
63
100
AcDbEntity
  8
DIM
 62
     7
100
AcDbLine
 10
6.872480103454964
 20
7.69785045689418
 30
0.0
 11
6.268502497526178
 21
7.69785045689418
 31
0.0
  0
DIMENSION
  5
246
330
63
100
AcDbEntity
  8
0
 62
     7
100
AcDbDimension
  2
*D4
 10
7.122480103392465
 20
7.69785045689418
 30
0.0
 11
5.956098157558294
 21
7.677207536318885
 31
0.0
 12
-19.94798261558708
 22
-7.433580074446126
 32
0.0
 70
   128
  1
<>
 71
     5
 42
0.2499999999375007
  3
Standard
100
AcDbAlignedDimension
 13
6.872480103454964
 23
8.732947765633696
 33
0.0
 14
7.122480103392465
 24
8.732947765633696
 34
0.0
100
AcDbRotatedDimension
1001
ACAD
1000
DSTYLE
1002
{
1070
   287
1070
     5
1070
   270
1070
     4
1070
    40
1040
2.0
1070
    41
1040
0.09375
1070
    42
1040
0.125
1070
    43
1040
0.375
1070
    44
1040
0.125
1070
   140
1040
0.125
1070
   141
1040
0.0625
1070
   147
1040
0.0625
1070
   171
1070
     1
1070
   174
1070
     1
1070
   271
1070
     5
1070
   272
1070
     5
1070
   274
1070
     1
1070
   277
1070
     4
1070
   279
1070
     2
1070
     5
1000
ARCHTICK
1002
}
  0
DIMENSION
  5
247
330
63
100
AcDbEntity
  8
0
 62
     7
100
AcDbDimension
  2
*D3
 10
7.122480103392465
 20
7.712429869052527
 30
0.0
 11
5.956098157558294
 21
7.691786948477233
 31
0.0
 12
-19.94798261558708
 22
-7.433580074446126
 32
0.0
 70
   128
  1
<>
 71
     5
 42
0.2499999999375007
  3
Standard
100
AcDbAlignedDimension
 13
6.872480103454964
 23
8.747527177792044
 33
0.0
 14
7.122480103392465
 24
8.747527177792044
 34
0.0
100
AcDbRotatedDimension
1001
ACAD
1000
DSTYLE
1002
{
1070
   287
1070
     5
1070
   270
1070
     4
1070
    40
1040
2.0
1070
    41
1040
0.09375
1070
    42
1040
0.125
1070
    43
1040
0.375
1070
    44
1040
0.125
1070
   140
1040
0.125
1070
   141
1040
0.0625
1070
   147
1040
0.0625
1070
   171
1070
     1
1070
   174
1070
     1
1070
   271
1070
     5
1070
   272
1070
     5
1070
   274
1070
     1
1070
   277
1070
     4
1070
   279
1070
     2
1070
     5
1000
ARCHTICK
1002
}
  0
LINE
  5
248
330
63
100
AcDbEntity
  8
0
 62
     7
100
AcDbLine
 10
5.001466780712078
 20
8.68034647135509
 30
0.0
 11
7.452101474913277
 21
8.68034647135509
 31
0.0
  0
LINE
  5
249
330
63
100
AcDbEntity
  8
0
 62
     7
100
AcDbLine
 10
5.009355737714489
 20
5.937558286040445
 30
0.0
 11
7.459990431915688
 21
5.937558286040445
 31
0.0
  0
LWPOLYLINE
  5
24A
330
63
100
AcDbEntity
  8
0
 62
     7
100
AcDbPolyline
 90
       53
 70
     1
 43
0.0
 10
6.518338369692678
 20
11.74190478749324
 10
6.518338369692678
 20
12.29290478735549
 10
6.493338369698928
 20
12.31790478734924
 10
6.493338369698921
 20
12.60290478727799
 10
6.50833836969517
 20
12.61790478727424
 10
6.493338369698921
 20
12.63290478727049
 10
6.493338369698921
 20
12.91790478719924
 10
6.518338369692678
 20
12.94290478719299
 10
6.518338369692685
 20
13.66790478701171
 10
6.247513700568237
 20
13.66790478701171
 10
6.142338369786678
 20
13.60718178147287
 42
-1.000000000000005
 10
6.102338369796679
 20
13.67646381375831
 10
6.28496749262171
 20
13.78190478698321
 42
0.8490904586570023
 10
6.382338369726682
 20
13.79790478697922
 10
6.382338369726682
 20
13.83790478696924
 42
-0.4142135623731124
 10
6.412338369719176
 20
13.86790478696174
 10
7.868338369355114
 20
13.86790478696171
 10
7.868338369355114
 20
13.49790478705422
 42
-0.4142135623730994
 10
7.838338369362613
 20
13.46790478706172
 10
7.798338369372608
 20
13.46790478706172
 42
-0.4142135623730871
 10
7.768338369380114
 20
13.49790478705422
 10
7.768338369380114
 20
13.70790478700172
 42
0.4142135623730894
 10
7.708338369395111
 20
13.76790478698672
 10
6.678338369652674
 20
13.76790478698673
 42
0.4142135623731006
 10
6.618338369667672
 20
13.70790478700175
 10
6.618338369667672
 20
12.84290478721799
 10
6.63333836966392
 20
12.82790478722174
 10
6.618338369667672
 20
12.8129047872255
 10
6.618338369667672
 20
12.42290478732298
 10
6.63333836966392
 20
12.40790478732675
 10
6.618338369667672
 20
12.39290478733048
 10
6.618338369667672
 20
11.62590478752224
 42
-0.66937649506875
 10
6.592696711064679
 20
11.61533335895346
 42
0.1997729274168698
 10
6.528846759424183
 20
11.64190478751823
 10
6.518338369692678
 20
11.64190478751823
 42
0.4142135623730951
 10
6.468338369705179
 20
11.59190478753074
 10
6.468338369705179
 20
11.50390478755274
 42
0.4142135623731054
 10
6.518338369692678
 20
11.45390478756524
 10
6.528846759424183
 20
11.45390478756524
 42
0.1997729274168814
 10
6.592696711064672
 20
11.48047621613002
 42
-0.6693764950686888
 10
6.618338369667679
 20
11.46990478756123
 10
6.618338369667679
 20
11.38790478758174
 42
-0.4142135623730951
 10
6.598338369672674
 20
11.36790478758673
 10
6.412338369719169
 20
11.36790478758673
 42
-0.4142135623731082
 10
6.382338369726674
 20
11.39790478757923
 10
6.382338369726674
 20
11.43790478756926
 42
0.8490904586569916
 10
6.284967492621731
 20
11.45390478756527
 10
6.102338369796679
 20
11.55934576079017
 42
-1.000000000000009
 10
6.142338369786678
 20
11.6286277930756
 10
6.247513700568237
 20
11.56790478753677
 10
6.382338369726682
 20
11.56790478753677
 10
6.382338369726682
 20
11.68190478750822
 42
-0.4142135623730517
 10
6.44233836971167
 20
11.74190478749322
  0
LINE
  5
24B
330
63
100
AcDbEntity
  8
0
 62
     7
100
AcDbLine
 10
5.618338369917694
 20
14.36790478683673
 30
0.0
 11
16.6183383671677
 21
14.36790478683673
 31
0.0
  0
ARC
  5
24C
330
63
100
AcDbEntity
  8
0
 62
     7
100
AcDbCircle
 10
6.224838369766512
 20
14.11790478689957
 30
0.0
 40
0.312499999921875
100
AcDbArc
 50
306.8698976457423
 51
53.13010235425764
  0
MTEXT
  5
24D
330
63
100
AcDbEntity
  8
DIM
100
AcDbMText
 10
-0.0000003122424275
 20
6.283961362138981
 30
0.0
 40
0.33333333325
 41
4.291733332260399
 71
     1
 72
     5
  1
  PANEL DIMENSION
 11
0.0000000000000001
 21
1.0
 31
0.0
 73
     1
 44
1.0
  0
LINE
  5
24E
330
63
100
AcDbEntity
  8
DIM
100
AcDbLine
 10
5.618373879111587
 20
11.84770917396075
 30
0.0
 11
0.1629778845009824
 21
11.84770917396075
 31
0.0
  0
LINE
  5
24F
330
63
100
AcDbEntity
  8
DIM
100
AcDbLine
 10
0.4963112177509857
 20
11.84770917396075
 30
0.0
 11
0.4963112177509857
 21
9.306827461856041
 31
0.0
  0
INSERT
  5
250
330
63
100
AcDbEntity
  8
DIM
100
AcDbBlockReference
  2
_ARCHTICK
 10
0.4963112177509857
 20
11.84770917396075
 30
0.0
 41
0.2499999999374998
 42
0.2499999999374998
 43
0.2499999999375
 50
90.0
  0
LINE
  5
251
330
63
100
AcDbEntity
  8
0
 62
     7
100
AcDbLine
 10
5.868338369855191
 20
11.36790478758673
 30
0.0
 11
5.868338369855191
 21
9.367904788086732
 31
0.0
  0
MTEXT
  5
252
330
63
100
AcDbEntity
  8
DIM
 62
     7
100
AcDbMText
 10
3.421540456527896
 20
7.181381637380393
 30
0.0
 40
0.33333333325
 41
0.0
 71
     5
 72
     1
  1
\A1;FINISHED OPENING
 11
0.0000000000000001
 21
1.0
 31
0.0
 73
     1
 44
1.0
  0
LINE
  5
253
330
63
100
AcDbEntity
  8
DIM
 62
     7
100
AcDbLine
 10
5.622606545118529
 20
11.36793829574612
 30
0.0
 11
3.098224947983041
 21
11.36793829574612
 31
0.0
  0
LINE
  5
254
330
63
100
AcDbEntity
  8
DIM
 62
     7
100
AcDbLine
 10
3.431558281233044
 20
11.36793829574612
 30
0.0
 11
3.431558281233044
 21
9.970308071020518
 31
0.0
  0
INSERT
  5
255
330
63
100
AcDbEntity
  8
DIM
 62
     7
100
AcDbBlockReference
  2
_ARCHTICK
 10
3.431558281233044
 20
11.36793829574612
 30
0.0
 41
0.3333333332499997
 42
0.3333333332499997
 43
0.33333333325
 50
90.0
  0
LWPOLYLINE
  5
256
330
63
100
AcDbEntity
  8
0
 62
     7
100
AcDbPolyline
 90
       14
 70
     1
 43
0.0
 10
5.928338369840194
 20
13.81790478697422
 10
6.292338369749192
 20
13.81790478697423
 10
6.292338369749192
 20
13.7879047869817
 42
1.0
 10
6.372338369729192
 20
13.7879047869817
 10
6.372338369729192
 20
13.80790478697672
 42
0.4142135623730908
 10
6.312338369744189
 20
13.86790478696173
 10
5.868338369855191
 20
13.86790478696173
 10
5.868338369855191
 20
11.36790478758673
 10
6.312338369744189
 20
11.36790478758673
 42
0.4142135623730907
 10
6.372338369729192
 20
11.42790478757173
 10
6.372338369729192
 20
11.44790478756675
 42
1.0
 10
6.292338369749185
 20
11.44790478756675
 10
6.292338369749185
 20
11.41790478757423
 10
5.928338369840194
 20
11.41790478757424
  0
LWPOLYLINE
  5
257
330
63
100
AcDbEntity
  8
0
 62
     7
100
AcDbPolyline
 90
        4
 70
     1
 43
0.0
 10
6.240338369762191
 20
11.36790478758673
 10
5.928338369840194
 20
11.41790478757423
 10
5.928338369840194
 20
11.36790478758673
 10
6.240338369762191
 20
11.41790478757423
  0
LINE
  5
258
330
63
100
AcDbEntity
  8
0
 62
     7
100
AcDbLine
 10
6.328583447716283
 20
11.30751916354074
 30
0.0
 11
6.328583447716269
 21
11.36751916352574
 31
0.0
  0
LINE
  5
259
330
63
100
AcDbEntity
  8
0
 62
     7
100
AcDbLine
 10
6.328583447716269
 20
11.36751916352574
 30
0.0
 11
6.444214305400713
 21
11.36751916352574
 31
0.0
  0
LINE
  5
25A
330
63
100
AcDbEntity
  8
0
 62
     7
100
AcDbLine
 10
6.313658369743887
 20
12.8208147872235
 30
0.0
 11
6.453338369708966
 21
12.8208147872235
 31
0.0
  0
LINE
  5
25B
330
63
100
AcDbEntity
  8
0
 62
     7
100
AcDbLine
 10
6.313658369743887
 20
12.71935978724886
 30
0.0
 11
6.453338369708966
 21
12.71935978724886
 31
0.0
  0
LINE
  5
25C
330
63
100
AcDbEntity
  8
0
 62
     7
100
AcDbLine
 10
6.313658369743887
 20
12.5164397872996
 30
0.0
 11
6.453338369708966
 21
12.5164397872996
 31
0.0
  0
ARC
  5
25D
330
63
100
AcDbEntity
  8
0
 62
     7
100
AcDbCircle
 10
6.443583369711404
 20
12.61790478727423
 30
0.0
 40
0.1648491499587877
100
AcDbArc
 50
142.0123000000002
 51
217.9876999999997
  0
ARC
  5
25E
330
63
100
AcDbEntity
  8
0
 62
     7
100
AcDbCircle
 10
6.333043369739041
 20
12.77008478723618
 30
0.0
 40
0.0543125999864219
100
AcDbArc
 50
110.9106999999999
 51
249.0893000000001
  0
LINE
  5
25F
330
63
100
AcDbEntity
  8
0
 62
     7
100
AcDbLine
 10
6.291028369749536
 20
12.80449478722758
 30
0.0
 11
6.309733369744858
 21
12.80449478722758
 31
0.0
  0
LINE
  5
260
330
63
100
AcDbEntity
  8
0
 62
     7
100
AcDbLine
 10
6.453338369708966
 20
12.86790478721173
 30
0.0
 11
6.493338369698964
 21
12.86790478721173
 31
0.0
  0
LINE
  5
261
330
63
100
AcDbEntity
  8
0
 62
     7
100
AcDbLine
 10
6.618338369667693
 20
12.93090478719598
 30
0.0
 11
6.618338369667693
 21
12.86840478721161
 31
0.0
  0
LINE
  5
262
330
63
100
AcDbEntity
  8
0
 62
     7
100
AcDbLine
 10
6.618338369667679
 20
12.4849047873075
 30
0.0
 11
6.493338369698928
 21
12.4849047873075
 31
0.0
  0
LINE
  5
263
330
63
100
AcDbEntity
  8
0
 62
     7
100
AcDbLine
 10
6.618338369667679
 20
12.75090478724099
 30
0.0
 11
6.493338369698928
 21
12.75090478724099
 31
0.0
  0
LINE
  5
264
330
63
100
AcDbEntity
  8
0
 62
     7
100
AcDbLine
 10
6.618338369667693
 20
12.36740478733686
 30
0.0
 11
6.618338369667693
 21
12.30490478735249
 31
0.0
  0
LINE
  5
265
330
63
100
AcDbEntity
  8
0
 62
     7
100
AcDbLine
 10
6.313658369743887
 20
12.41498478732495
 30
0.0
 11
6.453338369708966
 21
12.41498478732495
 31
0.0
  0
LINE
  5
266
330
63
100
AcDbEntity
  8
0
 62
     7
100
AcDbLine
 10
6.291028369749536
 20
12.43130478732088
 30
0.0
 11
6.309733369744858
 21
12.43130478732088
 31
0.0
  0
LINE
  5
267
330
63
100
AcDbEntity
  8
0
 62
     7
100
AcDbLine
 10
6.453338369708966
 20
12.36790478733673
 30
0.0
 11
6.493338369698964
 21
12.36790478733673
 31
0.0
  0
ARC
  5
268
330
63
100
AcDbEntity
  8
0
 62
     7
100
AcDbCircle
 10
6.333043369739041
 20
12.46570978731227
 30
0.0
 40
0.0543125999864219
100
AcDbArc
 50
110.9106999999999
 51
249.0893000000001
  0
LINE
  5
269
330
63
100
AcDbEntity
  8
0
 62
     7
100
AcDbLine
 10
6.309733369744858
 20
12.80449478722758
 30
0.0
 11
6.309733369744858
 21
12.43130478732088
 31
0.0
  0
LINE
  5
26A
330
63
100
AcDbEntity
  8
0
 62
     7
100
AcDbLine
 10
6.278733369752615
 20
12.77008478723618
 30
0.0
 11
6.278733369752615
 21
12.46570978731227
 31
0.0
  0
LINE
  5
26B
330
63
100
AcDbEntity
  8
0
 62
     7
100
AcDbLine
 10
6.453338369708966
 20
12.86790478721173
 30
0.0
 11
6.453338369708966
 21
12.36790478733673
 31
0.0
  0
LINE
  5
26C
330
63
100
AcDbEntity
  8
0
 62
     7
100
AcDbLine
 10
6.493338369698964
 20
12.86790478721173
 30
0.0
 11
6.493338369698964
 21
12.36790478733673
 31
0.0
  0
LINE
  5
26D
330
63
100
AcDbEntity
  8
0
 62
     7
100
AcDbLine
 10
16.09933836729744
 20
13.86790478696173
 30
0.0
 11
16.09933836729744
 21
14.36790478683673
 31
0.0
  0
ARC
  5
26E
330
63
100
AcDbEntity
  8
0
 62
     7
100
AcDbCircle
 10
16.52488861972275
 20
14.11790478689923
 30
0.0
 40
0.3124999999218924
100
AcDbArc
 50
126.8698976458456
 51
233.1301023541543
  0
CIRCLE
  5
26F
330
63
100
AcDbEntity
  8
0
 62
     7
100
AcDbCircle
 10
15.83738861989461
 20
14.11790478689923
 30
0.0
 40
0.249999999937509
  0
LINE
  5
270
330
63
100
AcDbEntity
  8
0
 62
     7
100
AcDbLine
 10
12.27133836825444
 20
13.61790478702421
 30
0.0
 11
12.27133836825444
 21
14.61790478677423
 31
0.0
  0
LINE
  5
271
330
63
100
AcDbEntity
  8
0
 62
     7
100
AcDbLine
 10
8.443338369211453
 20
13.86790478696173
 30
0.0
 11
8.443338369211453
 21
14.36790478683673
 31
0.0
  0
CIRCLE
  5
272
330
63
100
AcDbEntity
  8
0
 62
     7
100
AcDbCircle
 10
7.037338369564047
 20
14.11790478689889
 30
0.0
 40
0.2499999999378324
  0
LINE
  5
273
330
63
100
AcDbEntity
  8
0
 62
     7
100
AcDbLine
 10
11.98542580848223
 20
11.36911750248903
 30
0.0
 11
13.54781598319797
 21
11.36911750248903
 31
0.0
  0
LWPOLYLINE
  5
274
330
63
100
AcDbEntity
  8
0
 62
     7
100
AcDbPolyline
 90
        4
 70
     1
 43
0.0
 10
8.431338369214429
 20
13.69690478700448
 10
8.431338369214429
 20
11.53890478754397
 10
15.05533836755843
 20
11.53890478754397
 10
15.05533836755843
 20
13.69690478700448
  0
LINE
  5
275
330
63
100
AcDbEntity
  8
0
 62
     7
100
AcDbLine
 10
15.05533836755842
 20
12.21288494485572
 30
0.0
 11
8.431338369214429
 21
12.21288494485572
 31
0.0
  0
LINE
  5
276
330
63
100
AcDbEntity
  8
0
 62
     7
100
AcDbLine
 10
15.05533836755842
 20
11.76248917931243
 30
0.0
 11
8.431338369214429
 21
11.76248917931243
 31
0.0
  0
LINE
  5
277
330
63
100
AcDbEntity
  8
0
 62
     7
100
AcDbLine
 10
15.05533836755842
 20
13.02292462969275
 30
0.0
 11
8.431338369214429
 21
13.02292462969275
 31
0.0
  0
LINE
  5
278
330
63
100
AcDbEntity
  8
0
 62
     7
100
AcDbLine
 10
15.05533836755842
 20
13.47332039523604
 30
0.0
 11
8.431338369214429
 21
13.47332039523604
 31
0.0
  0
LWPOLYLINE
  5
279
330
63
100
AcDbEntity
  8
0
 62
     7
100
AcDbPolyline
 90
       32
 70
     1
 43
0.0
 10
8.404338369221186
 20
12.81090478722596
 10
8.289338369249936
 20
12.81090478722596
 10
8.289338369249936
 20
12.77790478723422
 42
-0.4142135623730956
 10
8.229338369264933
 20
12.71790478724922
 10
7.848338369360174
 20
12.71790478724922
 42
1.0
 10
7.848338369360174
 20
12.51790478729923
 10
8.229338369264933
 20
12.51790478729923
 42
-0.4142135623730965
 10
8.289338369249936
 20
12.45790478731423
 10
8.289338369249936
 20
12.42490478732246
 10
8.404338369221179
 20
12.42490478732246
 42
-0.414213562373108
 10
8.424338369216183
 20
12.40490478732746
 10
8.424338369216176
 20
12.32490478734746
 42
-0.4142135623730951
 10
8.404338369221179
 20
12.30490478735246
 10
8.289338369249936
 20
12.30490478735246
 10
8.289338369249936
 20
11.77290478748545
 10
8.404338369221171
 20
11.77290478748545
 42
-0.4142135623730821
 10
8.424338369216169
 20
11.75290478749047
 10
8.424338369216183
 20
11.54390478754271
 42
0.4142135623730756
 10
8.444338369211177
 20
11.5239047875477
 10
15.11133836754446
 20
11.5239047875477
 42
0.4142135623731038
 10
15.14133836753696
 20
11.5539047875402
 10
15.14133836753697
 20
13.68190478700822
 42
0.4142135623731038
 10
15.11133836754447
 20
13.71190478700072
 10
8.444338369211177
 20
13.71190478700072
 42
0.4142135623730887
 10
8.424338369216183
 20
13.69190478700571
 10
8.424338369216176
 20
13.48290478705796
 42
-0.4142135623730951
 10
8.404338369221171
 20
13.46290478706296
 10
8.289338369249936
 20
13.46290478706296
 10
8.289338369249936
 20
12.93090478719597
 10
8.404338369221179
 20
12.93090478719597
 42
-0.4142135623730951
 10
8.424338369216176
 20
12.91090478720096
 10
8.424338369216183
 20
12.83090478722097
 42
-0.4142135623731015
  0
LINE
  5
27A
330
63
100
AcDbEntity
  8
0
 62
     7
100
AcDbLine
 10
16.09933836729744
 20
14.11790478689923
 30
0.0
 11
8.443338369211453
 21
14.11790478689923
 31
0.0
  0
LINE
  5
27B
330
63
100
AcDbEntity
  8
0
 62
     7
100
AcDbLine
 10
11.97389185280733
 20
8.723680031798217
 30
0.0
 11
13.5791788525947
 21
8.723680031798217
 31
0.0
  0
LINE
  5
27C
330
63
100
AcDbEntity
  8
0
 62
     7
100
AcDbLine
 10
11.98178080980975
 20
5.894224725597318
 30
0.0
 11
13.58706780959712
 21
5.894224725597318
 31
0.0
  0
LWPOLYLINE
  5
27D
330
63
100
AcDbEntity
  8
0
 62
     7
100
AcDbPolyline
 90
       88
 70
     1
 43
0.0
 10
8.118338369292686
 20
13.25790478711421
 10
8.133338369288935
 20
13.24290478711796
 10
8.118338369292686
 20
13.22790478712171
 10
8.118338369292686
 20
12.88090478720848
 42
-0.4142135623730857
 10
8.108338369295186
 20
12.87090478721099
 10
8.052338369309175
 20
12.87090478721099
 42
-0.4142135623730951
 10
8.042338369311679
 20
12.88090478720848
 10
8.042338369311679
 20
12.92090478719847
 42
0.4142135623730951
 10
8.032338369314171
 20
12.93090478719598
 10
6.868338369605158
 20
12.93090478719597
 10
6.868338369605186
 20
12.89090478720597
 10
6.853338369608948
 20
12.87590478720974
 10
6.868338369605186
 20
12.86090478727311
 10
6.868338369605186
 20
12.78790478729116
 10
6.853338369609033
 20
12.77290478723539
 10
6.868338369605186
 20
12.75790478723924
 10
6.868338369605194
 20
12.71790478724922
 10
7.298338369497663
 20
12.71790478724922
 10
7.516450548089878
 20
12.65946180513605
 42
-0.7673269879789282
 10
7.516450548089878
 20
12.57634776941241
 10
7.298338369497649
 20
12.51790478729923
 10
6.868338369605194
 20
12.51790478729923
 10
6.868338369605186
 20
12.47790478730921
 10
6.853338369609033
 20
12.46290478731306
 10
6.868338369605186
 20
12.4479047872573
 10
6.868338369605186
 20
12.37490478727534
 10
6.853338369608948
 20
12.35990478733872
 10
6.868338369605186
 20
12.34490478734248
 10
6.868338369605158
 20
12.30490478735246
 10
8.032338369314171
 20
12.30490478735247
 42
0.4142135623730951
 10
8.042338369311679
 20
12.31490478734998
 10
8.042338369311679
 20
12.35490478733997
 42
-0.4142135623730951
 10
8.052338369309175
 20
12.36490478733746
 10
8.108338369295193
 20
12.36490478733746
 42
-0.4142135623730951
 10
8.118338369292693
 20
12.35490478733997
 10
8.118338369292686
 20
12.00790478742671
 10
8.133338369288935
 20
11.99290478743045
 10
8.118338369292686
 20
11.97790478743421
 10
8.118338369292686
 20
11.62590478752221
 42
0.6693764950686992
 10
8.143980027895675
 20
11.61533335895341
 42
-0.1997729274168816
 10
8.207829979536171
 20
11.6419047875182
 10
8.21833836926768
 20
11.6419047875182
 42
-0.4142135623730744
 10
8.268338369255175
 20
11.59190478753072
 10
8.268338369255182
 20
11.50390478755271
 42
-0.4142135623730951
 10
8.21833836926768
 20
11.45390478756521
 10
8.207829979536171
 20
11.45390478756521
 42
-0.1997729274168747
 10
8.143980027895683
 20
11.48047621613
 42
0.6693764950687187
 10
8.118338369292679
 20
11.4699047875612
 10
8.118338369292679
 20
11.38790478758171
 42
0.4142135623730951
 10
8.13833836928768
 20
11.3679047875867
 10
16.33738861976961
 20
11.3679047875867
 42
0.6681786379193447
 10
16.34442415367379
 20
11.3848900689567
 10
16.29071586944069
 20
11.43859835318981
 10
16.05633836730818
 20
11.5239047875477
 10
16.05633836730819
 20
11.48290478755796
 42
-0.4142135623731471
 10
16.0263383673157
 20
11.45290478756546
 10
15.93033836733971
 20
11.45290478756546
 10
15.85933836735746
 20
11.5239047875477
 10
15.32733836749047
 20
11.5239047875477
 42
-0.4142135623731039
 10
15.29733836749796
 20
11.5539047875402
 10
15.29733836749796
 20
11.97790478743421
 10
15.28233836750172
 20
11.99290478743045
 10
15.29733836749796
 20
12.0079047874267
 10
15.29733836749796
 20
13.22790478712171
 10
15.28233836750172
 20
13.24290478711796
 10
15.29733836749796
 20
13.25790478711421
 10
15.29733836749796
 20
13.68190478700822
 42
-0.4142135623730951
 10
15.32733836749047
 20
13.71190478700072
 10
15.85933836735746
 20
13.71190478700072
 10
15.93033836733971
 20
13.78290478698295
 10
16.0263383673157
 20
13.78290478698295
 42
-0.4142135623731297
 10
16.05633836730819
 20
13.75290478699046
 10
16.05633836730818
 20
13.71190478700071
 10
16.29071586944069
 20
13.7972112213586
 10
16.34442415367379
 20
13.85091950559171
 42
0.6681786379193217
 10
16.33738861976961
 20
13.86790478696171
 10
8.13833836928768
 20
13.86790478696171
 42
0.4142135623730951
 10
8.118338369292679
 20
13.84790478696672
 10
8.118338369292679
 20
13.76590478698721
 42
0.6693764950687414
 10
8.14398002789569
 20
13.75533335841843
 42
-0.1997729274168794
 10
8.207829979536171
 20
13.78190478698321
 10
8.21833836926768
 20
13.78190478698321
 42
-0.4142135623730847
 10
8.268338369255182
 20
13.7319047869957
 10
8.268338369255175
 20
13.64390478701771
 42
-0.4142135623730847
 10
8.21833836926768
 20
13.59390478703021
 10
8.207829979536178
 20
13.59390478703021
 42
-0.1997729274168768
 10
8.143980027895675
 20
13.62047621559498
 42
0.6693764950687373
 10
8.118338369292686
 20
13.60990478702622
  0
LINE
  5
27E
330
63
100
AcDbEntity
  8
0
 62
     7
100
AcDbLine
 10
9.622480102767458
 20
8.772850662541202
 30
0.0
 11
9.622480102767458
 21
11.1056384126197
 31
0.0
  0
LINE
  5
27F
330
63
100
AcDbEntity
  8
0
 62
     7
100
AcDbLine
 10
9.872480102704958
 20
11.1056384126197
 30
0.0
 11
9.872480102704958
 21
8.772850662541202
 31
0.0
  0
3DFACE
  5
280
330
63
100
AcDbEntity
  8
0
 62
     7
100
AcDbFace
 10
6.868338369605194
 20
9.367904788086732
 30
0.0
 11
7.118338369542691
 21
11.86790478746173
 31
0.0
 12
6.868338369605194
 22
11.86790478746173
 32
0.0
 13
6.868338369605194
 23
11.86790478746173
 33
0.0
 70
     1
  0
3DFACE
  5
281
330
63
100
AcDbEntity
  8
0
 62
     7
100
AcDbFace
 10
7.118338369542691
 20
11.86790478746173
 30
0.0
 11
6.868338369605194
 21
9.367904788086732
 31
0.0
 12
6.868338369605194
 22
8.742904788242984
 32
0.0
 13
7.118338369542691
 23
9.375065788084942
 33
0.0
 70
     5
  0
LINE
  5
282
330
63
100
AcDbEntity
  8
0
 62
     7
100
AcDbLine
 10
9.622480102767458
 20
8.772850662541202
 30
0.0
 11
9.872480102704958
 21
8.772850662541202
 31
0.0
  0
DIMENSION
  5
283
330
63
100
AcDbEntity
  8
0
 62
     7
100
AcDbDimension
  2
*D5
 10
9.878480102703466
 20
7.69785045689418
 30
0.0
 11
10.87110991563341
 21
7.71165855403384
 31
0.0
 12
-19.94798261558708
 22
-7.433580074446126
 32
0.0
 70
   128
 71
     5
 42
0.2499999999375007
  3
Standard
100
AcDbAlignedDimension
 13
9.628480102765966
 23
8.71128098541213
 33
0.0
 14
9.878480102703466
 24
8.71128098541213
 34
0.0
100
AcDbRotatedDimension
1001
ACAD
1000
DSTYLE
1002
{
1070
   287
1070
     5
1070
   270
1070
     4
1070
    40
1040
2.0
1070
    41
1040
0.09375
1070
    42
1040
0.125
1070
    43
1040
0.375
1070
    44
1040
0.125
1070
   140
1040
0.125
1070
   141
1040
0.0625
1070
   147
1040
0.0625
1070
   171
1070
     1
1070
   174
1070
     1
1070
   271
1070
     5
1070
   272
1070
     5
1070
   274
1070
     1
1070
   277
1070
     4
1070
   279
1070
     2
1070
     5
1000
ARCHTICK
1002
}
  0
LINE
  5
284
330
63
100
AcDbEntity
  8
0
 62
     7
100
AcDbLine
 10
9.630369059769869
 20
5.845054094854333
 30
0.0
 11
9.880369059707369
 21
5.845054094854333
 31
0.0
  0
LINE
  5
285
330
63
100
AcDbEntity
  8
0
 62
     7
100
AcDbLine
 10
7.78538665051661
 20
5.91589150581888
 30
0.0
 11
11.65638459120882
 21
5.91589150581888
 31
0.0
  0
LINE
  5
286
330
63
100
AcDbEntity
  8
0
 62
     7
100
AcDbLine
 10
7.777497693514199
 20
8.702013251576651
 30
0.0
 11
11.64849563420641
 21
8.702013251576651
 31
0.0
  0
TEXT
  5
287
330
63
100
AcDbEntity
  8
DIM
 62
     7
100
AcDbText
 10
9.371358261373458
 20
6.244531853973075
 30
0.0
 40
0.2499999999375
  1
SOLERA-T   TGU
 41
0.8
  7
ADESK1
100
AcDbText
  0
LINE
  5
288
330
63
100
AcDbEntity
  8
DIM
 62
     7
100
AcDbLine
 10
7.122480103392465
 20
7.69785045689418
 30
0.0
 11
10.57958454544076
 21
7.69785045689418
 31
0.0
  0
LINE
  5
289
330
63
100
AcDbEntity
  8
0
 62
     7
100
AcDbLine
 10
7.126227326545102
 20
5.332787719949806
 30
0.0
 11
9.632227325918602
 21
5.332787719949806
 31
0.0
  0
LINE
  5
28A
330
63
100
AcDbEntity
  8
0
 62
     7
100
AcDbLine
 10
7.126227326545102
 20
5.082787720012305
 30
0.0
 11
9.632227325918602
 21
5.082787720012305
 31
0.0
  0
LINE
  5
28B
330
63
100
AcDbEntity
  8
0
 62
     7
100
AcDbLine
 10
7.126227326545102
 20
4.832787720074804
 30
0.0
 11
9.632227325918602
 21
4.832787720074804
 31
0.0
  0
LINE
  5
28C
330
63
100
AcDbEntity
  8
0
 62
     7
100
AcDbLine
 10
7.126227326545102
 20
5.832787719824803
 30
0.0
 11
9.632227325918602
 21
5.832787719824803
 31
0.0
  0
LINE
  5
28D
330
63
100
AcDbEntity
  8
0
 62
     7
100
AcDbLine
 10
7.126227326545102
 20
5.582787719887305
 30
0.0
 11
9.632227325918602
 21
5.582787719887305
 31
0.0
  0
LINE
  5
28E
330
63
100
AcDbEntity
  8
0
 62
     7
100
AcDbLine
 10
7.126227326545102
 20
4.554451517377465
 30
0.0
 11
9.632227325918602
 21
4.554451517377465
 31
0.0
  0
3DFACE
  5
28F
330
63
100
AcDbEntity
  8
0
 62
     7
100
AcDbFace
 10
7.126227326545102
 20
5.242838969310593
 30
0.0
 11
6.876227326607601
 21
5.87499996915255
 31
0.0
 12
7.126227326545102
 22
5.87499996915255
 32
0.0
 13
7.126227326545102
 23
5.249999969308799
 33
0.0
 70
     1
  0
LINE
  5
290
330
63
100
AcDbEntity
  8
0
 62
     7
100
AcDbLine
 10
7.915545043084108
 20
5.807557860086038
 30
0.0
 11
7.35152518383683
 21
6.045891676398261
 31
0.0
  0
LINE
  5
291
330
63
100
AcDbEntity
  8
0
 62
     7
100
AcDbLine
 10
7.35152518383683
 20
6.045891676398261
 30
0.0
 11
7.459990431915688
 21
5.937558286040445
 31
0.0
  0
LINE
  5
292
330
63
100
AcDbEntity
  8
0
 62
     7
100
AcDbLine
 10
7.78538665051661
 20
5.91589150581888
 30
0.0
 11
7.915545043084108
 21
5.807557860086038
 31
0.0
  0
LEADER
  5
293
330
63
100
AcDbEntity
  8
0
 62
     7
100
AcDbLeader
  3
Standard
 72
     1
 76
     3
 10
8.603972933547474
 20
5.36060018098111
 30
0.0
 10
8.881941983977007
 20
6.123507416200844
 30
0.0
 10
9.247134940320044
 20
6.318956112408365
 30
0.0
211
0.9996231383637681
221
-0.0274514343481541
231
0.0
1001
ACAD
1000
DSTYLE
1002
{
1070
     5
1000
ARCHTICK
1070
    40
1040
2.0
1070
    41
1040
0.09375
1070
    42
1040
0.125
1070
    43
1040
0.375
1070
    44
1040
0.125
1070
    77
1070
     0
1070
   140
1040
0.125
1070
   141
1040
0.0625
1070
   147
1040
0.0625
1070
   170
1070
     1
1070
   171
1070
     1
1070
   174
1070
     1
1070
   271
1070
     5
1070
   272
1070
     5
1070
   274
1070
     1
1070
   277
1070
     4
1070
   279
1070
     2
1070
   341
1005
2B
1070
   342
1005
2B
1002
}
  0
LINE
  5
294
330
63
100
AcDbEntity
  8
0
 62
     7
100
AcDbLine
 10
7.118338369542691
 20
9.285117037445729
 30
0.0
 11
9.624338368916191
 21
9.285117037445729
 31
0.0
  0
LINE
  5
295
330
63
100
AcDbEntity
  8
0
 62
     7
100
AcDbLine
 10
7.118338369542691
 20
9.035117037508229
 30
0.0
 11
9.624338368916191
 21
9.035117037508229
 31
0.0
  0
LINE
  5
296
330
63
100
AcDbEntity
  8
0
 62
     7
100
AcDbLine
 10
7.118338369542691
 20
8.785117037570731
 30
0.0
 11
9.624338368916191
 21
8.785117037570731
 31
0.0
  0
DIMENSION
  5
297
330
63
100
AcDbEntity
  8
0
 62
     7
100
AcDbDimension
  2
*D2
 10
9.628480102765966
 20
7.69785045689418
 30
0.0
 11
8.39949308610171
 21
8.053260996306292
 31
0.0
 12
-19.94798261558708
 22
-7.433580074446126
 32
0.0
 70
   128
 71
     5
 42
2.5059999993735
  3
Standard
100
AcDbAlignedDimension
 13
7.122480103392465
 23
7.572850456925429
 33
0.0
 14
9.628480102765966
 24
8.71128098541213
 34
0.0
100
AcDbRotatedDimension
1001
ACAD
1000
DSTYLE
1002
{
1070
   287
1070
     5
1070
   270
1070
     4
1070
    40
1040
2.0
1070
    41
1040
0.09375
1070
    42
1040
0.125
1070
    43
1040
0.375
1070
    44
1040
0.125
1070
   140
1040
0.125
1070
   141
1040
0.0625
1070
   147
1040
0.0625
1070
   171
1070
     1
1070
   174
1070
     1
1070
   271
1070
     5
1070
   272
1070
     5
1070
   274
1070
     1
1070
   277
1070
     4
1070
   279
1070
     2
1070
     5
1000
ARCHTICK
1002
}
  0
LINE
  5
298
330
63
100
AcDbEntity
  8
0
 62
     7
100
AcDbLine
 10
7.907656086081697
 20
8.810346897309496
 30
0.0
 11
7.343636226834419
 21
8.572013080997272
 31
0.0
  0
LINE
  5
299
330
63
100
AcDbEntity
  8
0
 62
     7
100
AcDbLine
 10
7.343636226834419
 20
8.572013080997272
 30
0.0
 11
7.452101474913277
 21
8.68034647135509
 31
0.0
  0
3DFACE
  5
29A
330
63
100
AcDbEntity
  8
0
 62
     7
100
AcDbFace
 10
7.118338369542691
 20
9.375065788084942
 30
0.0
 11
6.868338369605194
 21
8.742904788242984
 31
0.0
 12
7.118338369542691
 22
8.742904788242984
 32
0.0
 13
7.118338369542691
 23
9.367904788086732
 33
0.0
 70
     1
  0
LINE
  5
29B
330
63
100
AcDbEntity
  8
0
 62
     7
100
AcDbLine
 10
7.777497693514199
 20
8.702013251576651
 30
0.0
 11
7.907656086081697
 21
8.810346897309496
 31
0.0
  0
LINE
  5
29C
330
63
100
AcDbEntity
  8
0
 62
     7
100
AcDbLine
 10
12.0902460578886
 20
5.785891335239501
 30
0.0
 11
11.98178080980975
 21
5.894224725597318
 31
0.0
  0
LINE
  5
29D
330
63
100
AcDbEntity
  8
0
 62
     7
100
AcDbLine
 10
11.52622619864132
 20
6.024225151551725
 30
0.0
 11
12.0902460578886
 21
5.785891335239501
 31
0.0
  0
LINE
  5
29E
330
63
100
AcDbEntity
  8
0
 62
     7
100
AcDbLine
 10
11.65638459120882
 20
5.91589150581888
 30
0.0
 11
11.52622619864132
 21
6.024225151551725
 31
0.0
  0
LINE
  5
29F
330
63
100
AcDbEntity
  8
0
 62
     7
100
AcDbLine
 10
12.08235710088619
 20
8.832013422156034
 30
0.0
 11
11.97389185280733
 21
8.723680031798217
 31
0.0
  0
LINE
  5
2A0
330
63
100
AcDbEntity
  8
0
 62
     7
100
AcDbLine
 10
11.51833724163891
 20
8.59367960584381
 30
0.0
 11
12.08235710088619
 21
8.832013422156034
 31
0.0
  0
LINE
  5
2A1
330
63
100
AcDbEntity
  8
0
 62
     7
100
AcDbLine
 10
11.64849563420641
 20
8.702013251576651
 30
0.0
 11
11.51833724163891
 21
8.59367960584381
 31
0.0
  0
LINE
  5
2A2
330
63
100
AcDbEntity
  8
0
 62
     7
100
AcDbLine
 10
9.622480102767458
 20
11.1056384126197
 30
0.0
 11
9.872480102704958
 21
11.1056384126197
 31
0.0
  0
POLYLINE
  5
2A3
330
63
100
AcDbEntity
  8
0
 62
     7
100
AcDbPolyFaceMesh
 66
     1
 10
0.0
 20
0.0
 30
0.0
 70
    64
  0
VERTEX
  5
2A4
330
2A3
100
AcDbEntity
  8
0
 62
     7
100
AcDbVertex
100
AcDbPolyFaceMeshVertex
 10
9.927602102691182
 20
11.01644691264207
 30
0.0
 70
   192
  0
VERTEX
  5
2A5
330
2A3
100
AcDbEntity
  8
0
 62
     7
100
AcDbVertex
100
AcDbPolyFaceMeshVertex
 10
9.995570102674189
 20
10.96637991265459
 30
0.0
 70
   192
  0
VERTEX
  5
2A6
330
2A3
100
AcDbEntity
  8
0
 62
     7
100
AcDbVertex
100
AcDbPolyFaceMeshVertex
 10
10.57248010252996
 20
11.36745091255432
 30
0.0
 70
   192
  0
VERTEX
  5
2A7
330
2A3
100
AcDbEntity
  8
0
 62
     7
100
AcDbVertex
100
AcDbPolyFaceMeshVertex
 10
9.159980102883082
 20
11.24245091258557
 30
0.0
 70
   192
  0
VERTEX
  5
2A8
330
2A3
100
AcDbEntity
  8
0
 62
     7
100
AcDbVertex
100
AcDbPolyFaceMeshVertex
 10
9.359980102833088
 20
11.24245091258557
 30
0.0
 70
   192
  0
VERTEX
  5
2A9
330
2A3
100
AcDbEntity
  8
0
 62
     7
100
AcDbVertex
100
AcDbPolyFaceMeshVertex
 10
9.559980102783082
 20
11.17995091260119
 30
0.0
 70
   192
  0
VERTEX
  5
2AA
330
2A3
100
AcDbEntity
  8
0
 62
     7
100
AcDbVertex
100
AcDbPolyFaceMeshVertex
 10
10.36667910258141
 20
11.22738191258932
 30
0.0
 70
   192
  0
VERTEX
  5
2AB
330
2A3
100
AcDbEntity
  8
0
 62
     7
100
AcDbVertex
100
AcDbPolyFaceMeshVertex
 10
9.997480102673709
 20
11.17995091260119
 30
0.0
 70
   192
  0
VERTEX
  5
2AC
330
2A3
100
AcDbEntity
  8
0
 62
     7
100
AcDbVertex
100
AcDbPolyFaceMeshVertex
 10
9.459980102808088
 20
11.24245091258557
 30
0.0
 70
   192
  0
VERTEX
  5
2AD
330
2A3
100
AcDbEntity
  8
0
 62
     7
100
AcDbVertex
100
AcDbPolyFaceMeshVertex
 10
9.259980102858087
 20
11.24245091258557
 30
0.0
 70
   192
  0
VERTEX
  5
2AE
330
2A3
100
AcDbEntity
  8
0
 62
     7
100
AcDbVertex
100
AcDbPolyFaceMeshVertex
 10
9.059980102908085
 20
11.24245091258557
 30
0.0
 70
   192
  0
VERTEX
  5
2AF
330
2A3
100
AcDbEntity
  8
0
 62
     7
100
AcDbVertex
100
AcDbPolyFaceMeshVertex
 10
9.99655110267394
 20
10.96830091265411
 30
0.0
 70
   192
  0
VERTEX
  5
2B0
330
2A3
100
AcDbEntity
  8
0
 62
     7
100
AcDbVertex
100
AcDbPolyFaceMeshVertex
 10
10.01254810266994
 20
10.87325091267787
 30
0.0
 70
   192
  0
VERTEX
  5
2B1
330
2A3
100
AcDbEntity
  8
0
 62
     7
100
AcDbVertex
100
AcDbPolyFaceMeshVertex
 10
9.059980102908085
 20
11.36745091255432
 30
0.0
 70
   192
  0
VERTEX
  5
2B2
330
2A3
100
AcDbEntity
  8
0
 62
     7
100
AcDbVertex
100
AcDbPolyFaceMeshVertex
 10
9.209980102870588
 20
11.11745091261682
 30
0.0
 70
   192
  0
VERTEX
  5
2B3
330
2A3
100
AcDbEntity
  8
0
 62
     7
100
AcDbVertex
100
AcDbPolyFaceMeshVertex
 10
9.309980102845582
 20
11.11745091261682
 30
0.0
 70
   192
  0
VERTEX
  5
2B4
330
2A3
100
AcDbEntity
  8
0
 62
     7
100
AcDbVertex
100
AcDbPolyFaceMeshVertex
 10
9.409980102820583
 20
11.11745091261682
 30
0.0
 70
   192
  0
VERTEX
  5
2B5
330
2A3
100
AcDbEntity
  8
0
 62
     7
100
AcDbVertex
100
AcDbPolyFaceMeshVertex
 10
9.509980102795587
 20
11.11745091261682
 30
0.0
 70
   192
  0
VERTEX
  5
2B6
330
2A3
100
AcDbEntity
  8
0
 62
     7
100
AcDbVertex
100
AcDbPolyFaceMeshVertex
 10
9.872523102704953
 20
10.84738391268433
 30
0.0
 70
   192
  0
VERTEX
  5
2B7
330
2A3
100
AcDbEntity
  8
0
 62
     7
100
AcDbVertex
100
AcDbPolyFaceMeshVertex
 10
9.872480102704958
 20
10.66745091272932
 30
0.0
 70
   192
  0
VERTEX
  5
2B8
330
2A3
100
AcDbEntity
  8
0
 62
     7
100
AcDbVertex
100
AcDbPolyFaceMeshVertex
 10
10.17848510262846
 20
11.06144491263081
 30
0.0
 70
   192
  0
VERTEX
  5
2B9
330
2A3
100
AcDbEntity
  8
0
 62
     7
100
AcDbFaceRecord
 10
0.0
 20
0.0
 30
0.0
 70
   128
 71
    -1
 72
     2
 73
   -12
 74
     8
  0
VERTEX
  5
2BA
330
2A3
100
AcDbEntity
  8
0
 62
     7
100
AcDbFaceRecord
 10
0.0
 20
0.0
 30
0.0
 70
   128
 71
    -2
 72
     1
 73
    19
  0
VERTEX
  5
2BB
330
2A3
100
AcDbEntity
  8
0
 62
     7
100
AcDbFaceRecord
 10
0.0
 20
0.0
 30
0.0
 70
   128
 71
    -3
 72
    -4
 73
   -10
 74
    -5
  0
VERTEX
  5
2BC
330
2A3
100
AcDbEntity
  8
0
 62
     7
100
AcDbFaceRecord
 10
0.0
 20
0.0
 30
0.0
 70
   128
 71
    -4
 72
     3
 73
    14
 74
   -11
  0
VERTEX
  5
2BD
330
2A3
100
AcDbEntity
  8
0
 62
     7
100
AcDbFaceRecord
 10
0.0
 20
0.0
 30
0.0
 70
   128
 71
    -3
 72
    -5
 73
     9
 74
    -6
  0
VERTEX
  5
2BE
330
2A3
100
AcDbEntity
  8
0
 62
     7
100
AcDbFaceRecord
 10
0.0
 20
0.0
 30
0.0
 70
   128
 71
    -3
 72
     6
 73
    -8
 74
     7
  0
VERTEX
  5
2BF
330
2A3
100
AcDbEntity
  8
0
 62
     7
100
AcDbFaceRecord
 10
0.0
 20
0.0
 30
0.0
 70
   128
 71
    -7
 72
    -8
 73
    13
 74
    21
  0
VERTEX
  5
2C0
330
2A3
100
AcDbEntity
  8
0
 62
     7
100
AcDbFaceRecord
 10
0.0
 20
0.0
 30
0.0
 70
   128
 71
    -9
 72
     5
 73
    18
  0
VERTEX
  5
2C1
330
2A3
100
AcDbEntity
  8
0
 62
     7
100
AcDbFaceRecord
 10
0.0
 20
0.0
 30
0.0
 70
   128
 71
    -5
 72
    10
 73
    17
  0
VERTEX
  5
2C2
330
2A3
100
AcDbEntity
  8
0
 62
     7
100
AcDbFaceRecord
 10
0.0
 20
0.0
 30
0.0
 70
   128
 71
   -10
 72
     4
 73
    16
  0
VERTEX
  5
2C3
330
2A3
100
AcDbEntity
  8
0
 62
     7
100
AcDbFaceRecord
 10
0.0
 20
0.0
 30
0.0
 70
   128
 71
    -4
 72
    11
 73
    15
  0
VERTEX
  5
2C4
330
2A3
100
AcDbEntity
  8
0
 62
     7
100
AcDbFaceRecord
 10
0.0
 20
0.0
 30
0.0
 70
   128
 71
    -8
 72
    12
 73
    20
 74
   -13
  0
SEQEND
  5
2C5
330
2A3
100
AcDbEntity
  8
0
 62
     7
  0
LINE
  5
2C6
330
63
100
AcDbEntity
  8
0
 62
     7
100
AcDbLine
 10
8.118340051730683
 20
11.77390558748524
 30
0.0
 11
8.246030969260758
 21
11.88490568745749
 31
0.0
  0
LINE
  5
2C7
330
63
100
AcDbEntity
  8
0
 62
     7
100
AcDbLine
 10
8.118338369292686
 20
11.77390398748525
 30
0.0
 11
8.118338369292686
 21
12.21190558737575
 31
0.0
  0
ARC
  5
2C8
330
63
100
AcDbEntity
  8
0
 62
     7
100
AcDbCircle
 10
7.850674619359612
 20
11.85000591243369
 30
0.0
 40
0.0200699999949825
100
AcDbArc
 50
0.0
 51
90.0
  0
ARC
  5
2C9
330
63
100
AcDbEntity
  8
0
 62
     7
100
AcDbCircle
 10
7.290534369499642
 20
12.85296678721546
 30
0.0
 40
0.9999999997499999
100
AcDbArc
 50
260.0844729999997
 51
277.7265670000001
  0
LINE
  5
2CA
330
63
100
AcDbEntity
  8
0
 62
     7
100
AcDbLine
 10
7.425835002640766
 20
11.86419754550474
 30
0.0
 11
7.186716736451
 21
11.62507927941532
 31
0.0
  0
LINE
  5
2CB
330
63
100
AcDbEntity
  8
0
 62
     7
100
AcDbLine
 10
7.868093291379107
 20
11.230983730489
 30
0.0
 11
8.408093291244099
 21
11.30751916354074
 31
0.0
  0
LINE
  5
2CC
330
63
100
AcDbEntity
  8
0
 62
     7
100
AcDbLine
 10
9.309980102845582
 20
11.11745091261682
 30
0.0
 11
8.013743369318838
 21
11.11745091261682
 31
0.0
  0
LINE
  5
2CD
330
63
100
AcDbEntity
  8
0
 62
     7
100
AcDbLine
 10
9.297519098548548
 20
11.087345826223
 30
0.0
 11
8.11253338439014
 21
11.087345826223
 31
0.0
  0
LINE
  5
2CE
330
63
100
AcDbEntity
  8
0
 62
     7
100
AcDbLine
 10
7.933463369338912
 20
11.05724091263188
 30
0.0
 11
9.544570108903734
 21
10.68411649900931
 31
0.0
  0
LINE
  5
2CF
330
63
100
AcDbEntity
  8
0
 62
     7
100
AcDbLine
 10
8.108005073381075
 20
11.04772289355656
 30
0.0
 11
9.514465387783907
 21
10.72199358763404
 31
0.0
  0
LINE
  5
2D0
330
63
100
AcDbEntity
  8
0
 62
     7
100
AcDbLine
 10
7.118338369542691
 20
10.06345324001806
 30
0.0
 11
9.624338368916191
 21
10.06345324001806
 31
0.0
  0
LINE
  5
2D1
330
63
100
AcDbEntity
  8
0
 62
     7
100
AcDbLine
 10
7.118338369542691
 20
9.785117037320731
 30
0.0
 11
9.624338368916191
 21
9.785117037320731
 31
0.0
  0
LINE
  5
2D2
330
63
100
AcDbEntity
  8
0
 62
     7
100
AcDbLine
 10
7.118338369542691
 20
9.53511703738323
 30
0.0
 11
9.624338368916191
 21
9.53511703738323
 31
0.0
  0
LINE
  5
2D3
330
63
100
AcDbEntity
  8
0
 62
     7
100
AcDbLine
 10
7.118338369542691
 20
10.81345323983056
 30
0.0
 11
8.986351413525557
 21
10.81345323983056
 31
0.0
  0
LINE
  5
2D4
330
63
100
AcDbEntity
  8
0
 62
     7
100
AcDbLine
 10
7.118338369542691
 20
10.56345323989306
 30
0.0
 11
9.624338368916191
 21
10.56345323989306
 31
0.0
  0
LINE
  5
2D5
330
63
100
AcDbEntity
  8
0
 62
     7
100
AcDbLine
 10
7.118338369542691
 20
10.31345323995556
 30
0.0
 11
9.624338368916191
 21
10.31345323995556
 31
0.0
  0
LINE
  5
2D6
330
63
100
AcDbEntity
  8
0
 62
     7
100
AcDbLine
 10
7.118338369542691
 20
11.06345323976807
 30
0.0
 11
7.930838369339568
 21
11.06345323976807
 31
0.0
  0
LINE
  5
2D7
330
63
100
AcDbEntity
  8
0
 62
     7
100
AcDbLine
 10
7.226485802500356
 20
11.25187795604752
 30
0.0
 11
7.814843121932462
 21
11.11561687166259
 31
0.0
  0
LINE
  5
2D8
330
63
100
AcDbEntity
  8
0
 62
     7
100
AcDbLine
 10
7.196380096344935
 20
11.22794630330916
 30
0.0
 11
7.933463369338912
 21
11.05724091263188
 31
0.0
  0
LINE
  5
2D9
330
63
100
AcDbEntity
  8
0
 62
     7
100
AcDbLine
 10
7.82056961936713
 20
11.83997091243619
 30
0.0
 11
7.452495893194253
 21
11.83997091243619
 31
0.0
  0
LINE
  5
2DA
330
63
100
AcDbEntity
  8
0
 62
     7
100
AcDbLine
 10
7.36985036947982
 20
11.80691578747697
 30
0.0
 11
7.32280636949158
 21
11.85395978746521
 31
0.0
  0
LINE
  5
2DB
330
63
100
AcDbEntity
  8
0
 62
     7
100
AcDbLine
 10
7.334495369488656
 20
11.77156178748581
 30
0.0
 11
7.251960369509291
 21
11.85409378746517
 31
0.0
  0
ARC
  5
2DC
330
63
100
AcDbEntity
  8
0
 62
     7
100
AcDbCircle
 10
7.452495893194253
 20
11.81989953052136
 30
0.0
 40
0.0200713819148322
100
AcDbArc
 50
90.0
 51
134.9999999999998
  0
ARC
  5
2DD
330
63
100
AcDbEntity
  8
0
 62
     7
100
AcDbCircle
 10
7.200908369522046
 20
11.61088764634426
 30
0.0
 40
0.0200699999949825
100
AcDbArc
 50
134.9999999999998
 51
180.0000000000999
  0
ARC
  5
2DE
330
63
100
AcDbEntity
  8
0
 62
     7
100
AcDbCircle
 10
7.200908369522046
 20
11.24749878761681
 30
0.0
 40
0.0200699999949825
100
AcDbArc
 50
180.0
 51
256.9604269546
  0
LINE
  5
2DF
330
63
100
AcDbEntity
  8
0
 62
     7
100
AcDbLine
 10
7.180838369527066
 20
11.61088764634426
 30
0.0
 11
7.180838369527066
 21
11.24749878761681
 31
0.0
  0
ARC
  5
2E0
330
63
100
AcDbEntity
  8
0
 62
     7
100
AcDbCircle
 10
7.231014751635072
 20
11.59841838876149
 30
0.0
 40
0.0200713821155322
100
AcDbArc
 50
134.9999999999998
 51
180.0
  0
ARC
  5
2E1
330
63
100
AcDbEntity
  8
0
 62
     7
100
AcDbCircle
 10
7.231013369514528
 20
11.27143060392569
 30
0.0
 40
0.0200699999949825
100
AcDbArc
 50
179.9983463642999
 51
256.9624963678
  0
LINE
  5
2E2
330
63
100
AcDbEntity
  8
0
 62
     7
100
AcDbLine
 10
7.21094336951954
 20
11.59841838876149
 30
0.0
 11
7.21094336951954
 21
11.27143118314589
 31
0.0
  0
LWPOLYLINE
  5
2E3
330
63
100
AcDbEntity
  8
0
 62
     7
100
AcDbPolyline
 90
        4
 70
     1
 43
0.0
 10
7.180838369527066
 20
11.24105778761844
 10
7.180838369527066
 20
11.61605778752469
 10
7.118338369542691
 20
11.61605778752469
 10
7.118338369542691
 20
11.24105778761844
  0
LINE
  5
2E4
330
63
100
AcDbEntity
  8
0
 62
     7
100
AcDbLine
 10
7.193070369524008
 20
11.63013678752115
 30
0.0
 11
7.118338369542691
 21
11.70487278750247
 31
0.0
  0
LINE
  5
2E5
330
63
100
AcDbEntity
  8
0
 62
     7
100
AcDbLine
 10
7.438303282914898
 20
11.83409214080071
 30
0.0
 11
7.21682214125537
 21
11.61261099914119
 31
0.0
  0
LINE
  5
2E6
330
63
100
AcDbEntity
  8
0
 62
     7
100
AcDbLine
 10
7.299137369497501
 20
11.73620378749465
 30
0.0
 11
7.17566536952836
 21
11.85967578746377
 31
0.0
  0
LINE
  5
2E7
330
63
100
AcDbEntity
  8
0
 62
     7
100
AcDbLine
 10
7.263783369506334
 20
11.70084878750347
 30
0.0
 11
7.118338369542691
 21
11.84629378746712
 31
0.0
  0
LINE
  5
2E8
330
63
100
AcDbEntity
  8
0
 62
     7
100
AcDbLine
 10
7.228428369515171
 20
11.66549478751233
 30
0.0
 11
7.118338369542691
 21
11.7755817874848
 31
0.0
  0
ARC
  5
2E9
330
63
100
AcDbEntity
  8
0
 62
     7
100
AcDbCircle
 10
7.82056961936713
 20
11.81990091244122
 30
0.0
 40
0.0200699999949825
100
AcDbArc
 50
0.0
 51
90.0
  0
LINE
  5
2EA
330
63
100
AcDbEntity
  8
0
 62
     7
100
AcDbLine
 10
8.118093291316608
 20
11.84751916340573
 30
0.0
 11
7.868093291379107
 21
11.84751916340573
 31
0.0
  0
ARC
  5
2EB
330
63
100
AcDbEntity
  8
0
 62
     7
100
AcDbCircle
 10
8.11253338439014
 20
11.06727560064122
 30
0.0
 40
0.0200702255817825
100
AcDbArc
 50
90.0
 51
256.960465482
  0
ARC
  5
2EC
330
63
100
AcDbEntity
  8
0
 62
     7
100
AcDbCircle
 10
7.996176027476131
 20
11.24165218036402
 30
0.0
 40
0.1254374999686406
100
AcDbArc
 50
179.4353200717
 51
278.0506565197001
  0
ARC
  5
2ED
330
63
100
AcDbEntity
  8
0
 62
     7
100
AcDbCircle
 10
7.819591975146977
 20
11.13612179116655
 30
0.0
 40
0.0210476442151381
100
AcDbArc
 50
256.9604269546
 51
0.0
  0
LINE
  5
2EE
330
63
100
AcDbEntity
  8
0
 62
     7
100
AcDbLine
 10
7.840639619362118
 20
11.13612179116655
 30
0.0
 11
7.840639619362118
 21
11.81990091244122
 31
0.0
  0
LINE
  5
2EF
330
63
100
AcDbEntity
  8
0
 62
     7
100
AcDbLine
 10
7.870744619354589
 20
11.24288841258547
 30
0.0
 11
7.870744619354589
 21
11.85000591243369
 31
0.0
  0
LINE
  5
2F0
330
63
100
AcDbEntity
  8
0
 62
     7
100
AcDbLine
 10
8.408093291244099
 20
11.30751916354074
 30
0.0
 11
8.408093291244114
 21
11.36751916352574
 31
0.0
  0
LINE
  5
2F1
330
63
100
AcDbEntity
  8
0
 62
     7
100
AcDbLine
 10
8.408093291244114
 20
11.36751916352574
 30
0.0
 11
8.292462433559673
 21
11.36751916352574
 31
0.0
  0
ARC
  5
2F2
330
63
100
AcDbEntity
  8
0
 62
     7
100
AcDbCircle
 10
9.518993613395128
 20
10.74154592593245
 30
0.0
 40
0.0200698469612326
100
AcDbArc
 50
256.9604654822001
 51
0.0
  0
ARC
  5
2F3
330
63
100
AcDbEntity
  8
0
 62
     7
100
AcDbCircle
 10
9.549098368935002
 20
10.85826264653242
 30
0.0
 40
0.0200699999949825
100
AcDbArc
 50
0.0
 51
44.99999999989993
  0
ARC
  5
2F4
330
63
100
AcDbEntity
  8
0
 62
     7
100
AcDbCircle
 10
9.518995414577279
 20
10.84579708243174
 30
0.0
 40
0.020068045879433
100
AcDbArc
 50
0.0
 51
45.0000000000001
  0
ARC
  5
2F5
330
63
100
AcDbEntity
  8
0
 62
     7
100
AcDbCircle
 10
9.549098368935002
 20
10.70366898632747
 30
0.0
 40
0.0200699999949825
100
AcDbArc
 50
256.9604654822001
 51
0.0
  0
LINE
  5
2F6
330
63
100
AcDbEntity
  8
0
 62
     7
100
AcDbLine
 10
9.569168368929986
 20
10.70366898632747
 30
0.0
 11
9.569168368929986
 21
10.85826264653242
 31
0.0
  0
LINE
  5
2F7
330
63
100
AcDbEntity
  8
0
 62
     7
100
AcDbLine
 10
9.539063460356363
 20
10.74154592593245
 30
0.0
 11
9.539063460356363
 21
10.84579708243174
 31
0.0
  0
LWPOLYLINE
  5
2F8
330
63
100
AcDbEntity
  8
0
 62
     7
100
AcDbPolyline
 90
        4
 70
     1
 43
0.0
 10
9.568095127793775
 20
10.67657941272697
 10
9.624492037650156
 20
10.67657941272697
 10
9.624492037650156
 20
10.86408702907563
 10
9.568095127793775
 20
10.86408702907563
  0
LINE
  5
2F9
330
63
100
AcDbEntity
  8
0
 62
     7
100
AcDbLine
 10
9.622480102767458
 20
10.95198441265811
 30
0.0
 11
9.482582102802439
 21
11.09188241262312
 31
0.0
  0
LINE
  5
2FA
330
63
100
AcDbEntity
  8
0
 62
     7
100
AcDbLine
 10
9.622480102767458
 20
11.02269341264044
 30
0.0
 11
9.549125102785804
 21
11.09604741262208
 31
0.0
  0
ARC
  5
2FB
330
63
100
AcDbEntity
  8
0
 62
     7
100
AcDbCircle
 10
9.297519098548548
 20
11.06728835924057
 30
0.0
 40
0.0200574668820856
100
AcDbArc
 50
45.0000000000001
 51
90.0
  0
ARC
  5
2FC
330
63
100
AcDbEntity
  8
0
 62
     7
100
AcDbCircle
 10
9.309980102845582
 20
11.09738091262184
 30
0.0
 40
0.0200699999949825
100
AcDbArc
 50
45.0000000000001
 51
90.0
  0
ARC
  5
2FD
330
63
100
AcDbEntity
  8
0
 62
     7
100
AcDbCircle
 10
-9.452463102809968
 20
12.09107941237333
 30
0.0
 40
0.9999999997499999
210
0.0
220
0.0
230
-1.0
100
AcDbArc
 50
260.2112339999997
 51
276.566637885129
  0
LINE
  5
2FE
330
63
100
AcDbEntity
  8
0
 62
     7
100
AcDbLine
 10
9.622480102767458
 20
10.88127141267578
 30
0.0
 11
9.411373102820235
 21
11.09237841262301
 31
0.0
  0
LINE
  5
2FF
330
63
100
AcDbEntity
  8
0
 62
     7
100
AcDbLine
 10
9.563290002106406
 20
10.87245427960347
 30
0.0
 11
9.324171735916632
 21
11.1115725456929
 31
0.0
  0
LINE
  5
300
330
63
100
AcDbEntity
  8
0
 62
     7
100
AcDbLine
 10
9.533185665828824
 20
10.85998733368329
 30
0.0
 11
9.31170186941005
 21
11.08147113020242
 31
0.0
  0
LINE
  5
301
330
63
100
AcDbEntity
  8
0
 62
     7
100
AcDbLine
 10
8.246029669260764
 20
12.1009049874035
 30
0.0
 11
9.510333368944689
 21
12.1009049874035
 31
0.0
  0
LINE
  5
302
330
63
100
AcDbEntity
  8
0
 62
     7
100
AcDbLine
 10
8.24603056926076
 20
11.88490498745749
 30
0.0
 11
9.510334368944686
 21
11.88490498745749
 31
0.0
  0
LINE
  5
303
330
63
100
AcDbEntity
  8
0
 62
     7
100
AcDbLine
 10
8.24603056926076
 20
13.35090458709097
 30
0.0
 11
9.510334368944686
 21
13.35090458709097
 31
0.0
  0
LINE
  5
304
330
63
100
AcDbEntity
  8
0
 62
     7
100
AcDbLine
 10
8.246029669260764
 20
13.13490458714495
 30
0.0
 11
9.510333368944689
 21
13.13490458714495
 31
0.0
  0
LINE
  5
305
330
63
100
AcDbEntity
  8
0
 62
     7
100
AcDbLine
 10
8.118340217438685
 20
13.02390558717271
 30
0.0
 11
8.246030169260762
 21
13.13490518714496
 31
0.0
  0
LINE
  5
306
330
63
100
AcDbEntity
  8
0
 62
     7
100
AcDbLine
 10
8.118338369292686
 20
13.4619055870632
 30
0.0
 11
8.118338369292686
 21
13.02390398717271
 31
0.0
  0
LINE
  5
307
330
63
100
AcDbEntity
  8
0
 62
     7
100
AcDbLine
 10
7.850674619359612
 20
11.87007591242867
 30
0.0
 11
7.440026635711824
 21
11.87007591242867
 31
0.0
  0
LINE
  5
308
330
63
100
AcDbEntity
  8
0
 62
     7
100
AcDbLine
 10
7.493338369448963
 20
12.61790478727423
 30
0.0
 11
7.158338369532714
 21
12.74328478724289
 31
0.0
  0
LINE
  5
309
330
63
100
AcDbEntity
  8
0
 62
     7
100
AcDbLine
 10
7.158338369532714
 20
12.49251478730558
 30
0.0
 11
7.493338369448963
 21
12.61790478727423
 31
0.0
  0
LINE
  5
30A
330
63
100
AcDbEntity
  8
0
 62
     7
100
AcDbLine
 10
6.868338369605194
 20
12.93090478719597
 30
0.0
 11
6.868338369605194
 21
12.86840478721159
 31
0.0
  0
ARC
  5
30B
330
63
100
AcDbEntity
  8
0
 62
     7
100
AcDbCircle
 10
7.440026635711824
 20
11.85000591243369
 30
0.0
 40
0.0200699999949825
100
AcDbArc
 50
90.0
 51
134.9999999999998
  0
LINE
  5
30C
330
63
100
AcDbEntity
  8
0
 62
     7
100
AcDbLine
 10
6.868338369605194
 20
12.36740478733686
 30
0.0
 11
6.868338369605194
 21
12.30490478735249
 31
0.0
  0
LINE
  5
30D
330
63
100
AcDbEntity
  8
0
 62
     7
100
AcDbLine
 10
8.118340217438685
 20
12.21190398737574
 30
0.0
 11
8.246030169260762
 21
12.10090438740349
 31
0.0
  0
LINE
  5
30E
330
63
100
AcDbEntity
  8
0
 62
     7
100
AcDbLine
 10
8.246029669260764
 20
12.1009049874035
 30
0.0
 11
8.246029669260764
 21
11.88490498745749
 31
0.0
  0
LINE
  5
30F
330
63
100
AcDbEntity
  8
0
 62
     7
100
AcDbLine
 10
8.118340051730683
 20
13.46190398706321
 30
0.0
 11
8.246030969260758
 21
13.35090388709097
 31
0.0
  0
LINE
  5
310
330
63
100
AcDbEntity
  8
0
 62
     7
100
AcDbLine
 10
7.868575073322009
 20
13.508297734292
 30
0.0
 11
8.11857507325951
 21
13.508297734292
 31
0.0
  0
LINE
  5
311
330
63
100
AcDbEntity
  8
0
 62
     7
100
AcDbLine
 10
8.11857507325951
 20
13.868297734202
 30
0.0
 11
7.868575073322009
 21
13.868297734202
 31
0.0
  0
LINE
  5
312
330
63
100
AcDbEntity
  8
0
 62
     7
100
AcDbLine
 10
8.246029669260764
 20
13.13490458714495
 30
0.0
 11
8.246029669260764
 21
13.35090458709097
 31
0.0
  0
LINE
  5
313
330
63
100
AcDbEntity
  8
0
 62
     7
100
AcDbLine
 10
9.518838368942553
 20
12.59240478728061
 30
0.0
 11
9.626926354902295
 21
12.59240478728061
 31
0.0
  0
LINE
  5
314
330
63
100
AcDbEntity
  8
0
 62
     7
100
AcDbLine
 10
9.518838368942553
 20
12.64340478726785
 30
0.0
 11
9.626926354902295
 21
12.64340478726785
 31
0.0
  0
LINE
  5
315
330
63
100
AcDbEntity
  8
0
 62
     7
100
AcDbLine
 10
9.518838368942553
 20
12.48431680132086
 30
0.0
 11
9.518838368942553
 21
12.59240478728061
 31
0.0
  0
LINE
  5
316
330
63
100
AcDbEntity
  8
0
 62
     7
100
AcDbLine
 10
9.518838368942553
 20
12.64340478726785
 30
0.0
 11
9.518838368942553
 21
12.7514927732276
 31
0.0
  0
ARC
  5
317
330
63
100
AcDbEntity
  8
0
 62
     7
100
AcDbCircle
 10
9.493338368948926
 20
12.61790478727423
 30
0.0
 40
0.135999999966
100
AcDbArc
 50
349.1930771251396
 51
10.80692287486035
  0
LINE
  5
318
330
63
100
AcDbEntity
  8
0
 62
     7
100
AcDbLine
 10
9.61833436891769
 20
11.99290504031099
 30
0.0
 11
9.510333368944689
 21
12.1009047874035
 31
0.0
  0
LINE
  5
319
330
63
100
AcDbEntity
  8
0
 62
     7
100
AcDbLine
 10
9.61833436891769
 20
11.99290453454999
 30
0.0
 11
9.510334368944686
 21
11.88490508745748
 31
0.0
  0
ARC
  5
31A
330
63
100
AcDbEntity
  8
0
 62
     7
100
AcDbCircle
 10
9.493338368948926
 20
12.61790478727423
 30
0.0
 40
0.135999999966
100
AcDbArc
 50
169.1930771251396
 51
190.8069228748603
  0
LINE
  5
31B
330
63
100
AcDbEntity
  8
0
 62
     7
100
AcDbLine
 10
9.35975038299556
 20
12.59240478728061
 30
0.0
 11
9.467838368955302
 21
12.59240478728061
 31
0.0
  0
LINE
  5
31C
330
63
100
AcDbEntity
  8
0
 62
     7
100
AcDbLine
 10
9.467838368955302
 20
12.48431680132086
 30
0.0
 11
9.467838368955302
 21
12.59240478728061
 31
0.0
  0
LINE
  5
31D
330
63
100
AcDbEntity
  8
0
 62
     7
100
AcDbLine
 10
9.35975038299556
 20
12.64340478726785
 30
0.0
 11
9.467838368955302
 21
12.64340478726785
 31
0.0
  0
LINE
  5
31E
330
63
100
AcDbEntity
  8
0
 62
     7
100
AcDbLine
 10
9.467838368955302
 20
12.64340478726785
 30
0.0
 11
9.467838368955302
 21
12.7514927732276
 31
0.0
  0
CIRCLE
  5
31F
330
63
100
AcDbEntity
  8
0
 62
     7
100
AcDbCircle
 10
9.493338368948926
 20
12.61790478727423
 30
0.0
 40
0.212499999946875
  0
ARC
  5
320
330
63
100
AcDbEntity
  8
0
 62
     7
100
AcDbCircle
 10
9.493338368948926
 20
12.61790478727423
 30
0.0
 40
0.135999999966
100
AcDbArc
 50
79.19307712513966
 51
100.8069228748603
  0
ARC
  5
321
330
63
100
AcDbEntity
  8
0
 62
     7
100
AcDbCircle
 10
9.493338368948926
 20
12.61790478727423
 30
0.0
 40
0.135999999966
100
AcDbArc
 50
259.1930771251396
 51
280.8069228748603
  0
LINE
  5
322
330
63
100
AcDbEntity
  8
0
 62
     7
100
AcDbLine
 10
9.61833436891769
 20
13.24290503999846
 30
0.0
 11
9.510334368944686
 21
13.35090448709097
 31
0.0
  0
LINE
  5
323
330
63
100
AcDbEntity
  8
0
 62
     7
100
AcDbLine
 10
9.61833436891769
 20
13.24290453423747
 30
0.0
 11
9.510333368944689
 21
13.13490478714496
 31
0.0
  0
ARC
  5
324
330
63
100
AcDbEntity
  8
0
 62
     7
100
AcDbCircle
 10
10.99333836857393
 20
12.61790478727423
 30
0.0
 40
0.135999999966
100
AcDbArc
 50
349.1930771251396
 51
10.80692287486035
  0
LINE
  5
325
330
63
100
AcDbEntity
  8
0
 62
     7
100
AcDbLine
 10
10.9678383685803
 20
12.48431680132086
 30
0.0
 11
10.9678383685803
 21
12.59240478728061
 31
0.0
  0
LINE
  5
326
330
63
100
AcDbEntity
  8
0
 62
     7
100
AcDbLine
 10
11.01883836856755
 20
12.48431680132086
 30
0.0
 11
11.01883836856755
 21
12.59240478728061
 31
0.0
  0
ARC
  5
327
330
63
100
AcDbEntity
  8
0
 62
     7
100
AcDbCircle
 10
10.99333836857393
 20
12.61790478727423
 30
0.0
 40
0.135999999966
100
AcDbArc
 50
79.19307712513966
 51
100.8069228748603
  0
ARC
  5
328
330
63
100
AcDbEntity
  8
0
 62
     7
100
AcDbCircle
 10
10.99333836857393
 20
12.61790478727423
 30
0.0
 40
0.135999999966
100
AcDbArc
 50
259.1930771251396
 51
280.8069228748603
  0
LINE
  5
329
330
63
100
AcDbEntity
  8
0
 62
     7
100
AcDbLine
 10
11.01883836856755
 20
12.64340478726785
 30
0.0
 11
11.01883836856755
 21
12.7514927732276
 31
0.0
  0
LINE
  5
32A
330
63
100
AcDbEntity
  8
0
 62
     7
100
AcDbLine
 10
10.9678383685803
 20
12.64340478726785
 30
0.0
 11
10.9678383685803
 21
12.7514927732276
 31
0.0
  0
LINE
  5
32B
330
63
100
AcDbEntity
  8
0
 62
     7
100
AcDbLine
 10
11.01883836856755
 20
12.59240478728061
 30
0.0
 11
11.12692635452729
 21
12.59240478728061
 31
0.0
  0
LINE
  5
32C
330
63
100
AcDbEntity
  8
0
 62
     7
100
AcDbLine
 10
11.01883836856755
 20
12.64340478726785
 30
0.0
 11
11.12692635452729
 21
12.64340478726785
 31
0.0
  0
ARC
  5
32D
330
63
100
AcDbEntity
  8
0
 62
     7
100
AcDbCircle
 10
10.99333836857393
 20
12.61790478727423
 30
0.0
 40
0.135999999966
100
AcDbArc
 50
169.1930771251396
 51
190.8069228748603
  0
LINE
  5
32E
330
63
100
AcDbEntity
  8
0
 62
     7
100
AcDbLine
 10
10.85975038262056
 20
12.59240478728061
 30
0.0
 11
10.9678383685803
 21
12.59240478728061
 31
0.0
  0
LINE
  5
32F
330
63
100
AcDbEntity
  8
0
 62
     7
100
AcDbLine
 10
10.85975038262056
 20
12.64340478726785
 30
0.0
 11
10.9678383685803
 21
12.64340478726785
 31
0.0
  0
CIRCLE
  5
330
330
63
100
AcDbEntity
  8
0
 62
     7
100
AcDbCircle
 10
10.99333836857393
 20
12.61790478727423
 30
0.0
 40
0.212499999946875
  0
ARC
  5
331
330
63
100
AcDbEntity
  8
0
 62
     7
100
AcDbCircle
 10
12.49333836819892
 20
12.61790478727423
 30
0.0
 40
0.135999999966
100
AcDbArc
 50
169.1930771251396
 51
190.8069228748603
  0
LINE
  5
332
330
63
100
AcDbEntity
  8
0
 62
     7
100
AcDbLine
 10
12.35975038224555
 20
12.59240478728061
 30
0.0
 11
12.4678383682053
 21
12.59240478728061
 31
0.0
  0
LINE
  5
333
330
63
100
AcDbEntity
  8
0
 62
     7
100
AcDbLine
 10
12.4678383682053
 20
12.48431680132086
 30
0.0
 11
12.4678383682053
 21
12.59240478728061
 31
0.0
  0
LINE
  5
334
330
63
100
AcDbEntity
  8
0
 62
     7
100
AcDbLine
 10
12.51883836819255
 20
12.48431680132086
 30
0.0
 11
12.51883836819255
 21
12.59240478728061
 31
0.0
  0
LINE
  5
335
330
63
100
AcDbEntity
  8
0
 62
     7
100
AcDbLine
 10
12.35975038224555
 20
12.64340478726785
 30
0.0
 11
12.4678383682053
 21
12.64340478726785
 31
0.0
  0
ARC
  5
336
330
63
100
AcDbEntity
  8
0
 62
     7
100
AcDbCircle
 10
12.49333836819892
 20
12.61790478727423
 30
0.0
 40
0.135999999966
100
AcDbArc
 50
79.19307712513966
 51
100.8069228748603
  0
ARC
  5
337
330
63
100
AcDbEntity
  8
0
 62
     7
100
AcDbCircle
 10
12.49333836819892
 20
12.61790478727423
 30
0.0
 40
0.135999999966
100
AcDbArc
 50
349.1930771251396
 51
10.80692287486035
  0
ARC
  5
338
330
63
100
AcDbEntity
  8
0
 62
     7
100
AcDbCircle
 10
12.49333836819892
 20
12.61790478727423
 30
0.0
 40
0.135999999966
100
AcDbArc
 50
259.1930771251396
 51
280.8069228748603
  0
LINE
  5
339
330
63
100
AcDbEntity
  8
0
 62
     7
100
AcDbLine
 10
12.51883836819255
 20
12.59240478728061
 30
0.0
 11
12.62692635415229
 21
12.59240478728061
 31
0.0
  0
LINE
  5
33A
330
63
100
AcDbEntity
  8
0
 62
     7
100
AcDbLine
 10
12.51883836819255
 20
12.64340478726785
 30
0.0
 11
12.62692635415229
 21
12.64340478726785
 31
0.0
  0
LINE
  5
33B
330
63
100
AcDbEntity
  8
0
 62
     7
100
AcDbLine
 10
12.51883836819255
 20
12.64340478726785
 30
0.0
 11
12.51883836819255
 21
12.7514927732276
 31
0.0
  0
LINE
  5
33C
330
63
100
AcDbEntity
  8
0
 62
     7
100
AcDbLine
 10
12.4678383682053
 20
12.64340478726785
 30
0.0
 11
12.4678383682053
 21
12.7514927732276
 31
0.0
  0
CIRCLE
  5
33D
330
63
100
AcDbEntity
  8
0
 62
     7
100
AcDbCircle
 10
12.49333836819892
 20
12.61790478727423
 30
0.0
 40
0.212499999946875
  0
TEXT
  5
33E
330
63
100
AcDbEntity
  8
0
 62
     7
100
AcDbText
 10
13.61005651405645
 20
4.802309688899239
 30
0.0
 40
0.2499999999375
  1
REBATE
 41
0.8
  7
ADESK1
100
AcDbText
  0
LINE
  5
33F
330
63
100
AcDbEntity
  8
0
 62
     7
100
AcDbLine
 10
13.30570494026288
 20
5.015633858226411
 30
0.0
 11
13.52181448716904
 21
5.015633858226411
 31
0.0
  0
LINE
  5
340
330
63
100
AcDbEntity
  8
0
 62
     7
100
AcDbLine
 10
15.29733836749797
 20
11.7804047874836
 30
0.0
 11
15.29733836749797
 21
12.20540478737733
 31
0.0
  0
ARC
  5
341
330
63
100
AcDbEntity
  8
0
 62
     7
100
AcDbCircle
 10
15.14790509260039
 20
11.95676924332991
 30
0.0
 40
0.2982036823587486
100
AcDbArc
 50
337.4425489854333
 51
350.2372979526587
  0
LINE
  5
342
330
63
100
AcDbEntity
  8
0
 62
     7
100
AcDbLine
 10
15.29733836749797
 20
11.7804047874836
 30
0.0
 11
15.36631691267722
 21
11.7804047874836
 31
0.0
  0
ARC
  5
343
330
63
100
AcDbEntity
  8
0
 62
     7
100
AcDbCircle
 10
15.27962109643729
 20
11.90205589082196
 30
0.0
 40
0.1555759970749122
100
AcDbArc
 50
314.9188334096753
 51
337.4425489854333
  0
ARC
  5
344
330
63
100
AcDbEntity
  8
0
 62
     7
100
AcDbCircle
 10
15.36076660183346
 20
11.82068015373956
 30
0.0
 40
0.040656009119373
100
AcDbArc
 50
270.0
 51
314.9188334096753
  0
ARC
  5
345
330
63
100
AcDbEntity
  8
0
 62
     7
100
AcDbCircle
 10
15.36076660183346
 20
11.82068015373956
 30
0.0
 40
0.040656009119373
100
AcDbArc
 50
262.1535442896996
 51
270.0
  0
LINE
  5
346
330
63
100
AcDbEntity
  8
0
 62
     7
100
AcDbLine
 10
14.29733836774796
 20
13.24290478711796
 30
0.0
 11
14.42233836771672
 21
13.35090478709095
 31
0.0
  0
LINE
  5
347
330
63
100
AcDbEntity
  8
0
 62
     7
100
AcDbLine
 10
14.42233836771672
 20
12.10090478740347
 30
0.0
 11
14.29733836774796
 21
11.99290478743046
 31
0.0
  0
LINE
  5
348
330
63
100
AcDbEntity
  8
0
 62
     7
100
AcDbLine
 10
14.29733836774796
 20
11.99290478743046
 30
0.0
 11
14.42233836771672
 21
11.88490478745747
 31
0.0
  0
LINE
  5
349
330
63
100
AcDbEntity
  8
0
 62
     7
100
AcDbLine
 10
14.42233836771672
 20
13.13490478714496
 30
0.0
 11
14.29733836774796
 21
13.24290478711796
 31
0.0
  0
ARC
  5
34A
330
63
100
AcDbEntity
  8
0
 62
     7
100
AcDbCircle
 10
13.99333836782392
 20
12.61790478727423
 30
0.0
 40
0.135999999966
100
AcDbArc
 50
169.1930771251396
 51
190.8069228748603
  0
LINE
  5
34B
330
63
100
AcDbEntity
  8
0
 62
     7
100
AcDbLine
 10
13.85975038187056
 20
12.59240478728061
 30
0.0
 11
13.96783836783031
 21
12.59240478728061
 31
0.0
  0
LINE
  5
34C
330
63
100
AcDbEntity
  8
0
 62
     7
100
AcDbLine
 10
13.96783836783031
 20
12.48431680132086
 30
0.0
 11
13.96783836783031
 21
12.59240478728061
 31
0.0
  0
LINE
  5
34D
330
63
100
AcDbEntity
  8
0
 62
     7
100
AcDbLine
 10
14.01883836781755
 20
12.48431680132086
 30
0.0
 11
14.01883836781755
 21
12.59240478728061
 31
0.0
  0
LINE
  5
34E
330
63
100
AcDbEntity
  8
0
 62
     7
100
AcDbLine
 10
13.85975038187056
 20
12.64340478726785
 30
0.0
 11
13.96783836783031
 21
12.64340478726785
 31
0.0
  0
ARC
  5
34F
330
63
100
AcDbEntity
  8
0
 62
     7
100
AcDbCircle
 10
13.99333836782392
 20
12.61790478727423
 30
0.0
 40
0.135999999966
100
AcDbArc
 50
79.19307712513966
 51
100.8069228748603
  0
ARC
  5
350
330
63
100
AcDbEntity
  8
0
 62
     7
100
AcDbCircle
 10
13.99333836782392
 20
12.61790478727423
 30
0.0
 40
0.135999999966
100
AcDbArc
 50
349.1930771251396
 51
10.80692287486035
  0
ARC
  5
351
330
63
100
AcDbEntity
  8
0
 62
     7
100
AcDbCircle
 10
13.99333836782392
 20
12.61790478727423
 30
0.0
 40
0.135999999966
100
AcDbArc
 50
259.1930771251396
 51
280.8069228748603
  0
LINE
  5
352
330
63
100
AcDbEntity
  8
0
 62
     7
100
AcDbLine
 10
14.01883836781755
 20
12.59240478728061
 30
0.0
 11
14.12692635377729
 21
12.59240478728061
 31
0.0
  0
LINE
  5
353
330
63
100
AcDbEntity
  8
0
 62
     7
100
AcDbLine
 10
14.01883836781755
 20
12.64340478726785
 30
0.0
 11
14.12692635377729
 21
12.64340478726785
 31
0.0
  0
LINE
  5
354
330
63
100
AcDbEntity
  8
0
 62
     7
100
AcDbLine
 10
14.01883836781755
 20
12.64340478726785
 30
0.0
 11
14.01883836781755
 21
12.7514927732276
 31
0.0
  0
LINE
  5
355
330
63
100
AcDbEntity
  8
0
 62
     7
100
AcDbLine
 10
13.96783836783031
 20
12.64340478726785
 30
0.0
 11
13.96783836783031
 21
12.7514927732276
 31
0.0
  0
CIRCLE
  5
356
330
63
100
AcDbEntity
  8
0
 62
     7
100
AcDbCircle
 10
13.99333836782392
 20
12.61790478727423
 30
0.0
 40
0.212499999946875
  0
LINE
  5
357
330
63
100
AcDbEntity
  8
0
 62
     7
100
AcDbLine
 10
15.29733836749797
 20
13.45540478706483
 30
0.0
 11
15.29733836749797
 21
13.0304047871711
 31
0.0
  0
LWPOLYLINE
  5
358
330
63
100
AcDbEntity
  8
0
 62
     7
100
AcDbPolyline
 90
        9
 70
     0
 43
0.0
 10
15.37659995971385
 20
13.0304047871711
 42
0.1266889011641713
 10
15.42329480597602
 20
13.09237544100345
 42
0.0558856962682024
 10
15.44179033574362
 20
13.15620344395362
 42
0.0426236080121984
 10
15.4491948361627
 20
13.24290478711796
 42
0.0426236080121983
 10
15.44179033574362
 20
13.32960613028231
 42
0.0558856962682022
 10
15.42329480597602
 20
13.39343413323247
 42
0.0985958869438301
 10
15.38947398743341
 20
13.44391825700505
 42
0.1985442246528007
 10
15.36076660183346
 20
13.45578542992825
 42
0.0342500047400331
 10
15.3552162909897
 20
13.45540478706483
 42
0.0985958869438299
  0
LINE
  5
359
330
63
100
AcDbEntity
  8
0
 62
     7
100
AcDbLine
 10
15.29733836749797
 20
12.10090478740347
 30
0.0
 11
14.42233836771672
 21
12.10090478740347
 31
0.0
  0
LINE
  5
35A
330
63
100
AcDbEntity
  8
0
 62
     7
100
AcDbLine
 10
15.29733836749797
 20
11.88490478745747
 30
0.0
 11
14.42233836771672
 21
11.88490478745747
 31
0.0
  0
LINE
  5
35B
330
63
100
AcDbEntity
  8
0
 62
     7
100
AcDbLine
 10
15.37659995971385
 20
13.0304047871711
 30
0.0
 11
15.29733836749797
 21
13.0304047871711
 31
0.0
  0
LINE
  5
35C
330
63
100
AcDbEntity
  8
0
 62
     7
100
AcDbLine
 10
15.37659995971385
 20
12.20540478737733
 30
0.0
 11
15.29733836749797
 21
12.20540478737733
 31
0.0
  0
ARC
  5
35D
330
63
100
AcDbEntity
  8
0
 62
     7
100
AcDbCircle
 10
15.27962109643729
 20
12.08375368403898
 30
0.0
 40
0.1555759970749123
100
AcDbArc
 50
22.55745101456665
 51
51.43854960384757
  0
ARC
  5
35E
330
63
100
AcDbEntity
  8
0
 62
     7
100
AcDbCircle
 10
15.14790509260039
 20
12.02904033153101
 30
0.0
 40
0.2982036823587474
100
AcDbArc
 50
9.762702047341118
 51
22.55745101456665
  0
ARC
  5
35F
330
63
100
AcDbEntity
  8
0
 62
     7
100
AcDbCircle
 10
14.9378875835187
 20
11.99290478743046
 30
0.0
 40
0.5113072526439889
100
AcDbArc
 50
0.0
 51
9.762702047341118
  0
ARC
  5
360
330
63
100
AcDbEntity
  8
0
 62
     7
100
AcDbCircle
 10
14.9378875835187
 20
11.99290478743046
 30
0.0
 40
0.5113072526439901
100
AcDbArc
 50
350.2372979526587
 51
0.0
  0
LINE
  5
361
330
63
100
AcDbEntity
  8
0
 62
     7
100
AcDbLine
 10
15.29733836749797
 20
13.13490478714496
 30
0.0
 11
14.42233836771672
 21
13.13490478714496
 31
0.0
  0
LINE
  5
362
330
63
100
AcDbEntity
  8
0
 62
     7
100
AcDbLine
 10
15.29733836749797
 20
13.35090478709095
 30
0.0
 11
14.42233836771672
 21
13.35090478709095
 31
0.0
  0
LINE
  5
363
330
63
100
AcDbEntity
  8
0
 62
     7
100
AcDbLine
 10
15.29733836749797
 20
13.45540478706483
 30
0.0
 11
15.36631691267722
 21
13.45540478706483
 31
0.0
  0
LINE
  5
364
330
63
100
AcDbEntity
  8
DIM
100
AcDbLine
 10
17.29740996587128
 20
13.63860191201686
 30
0.0
 11
17.29740996587128
 21
11.53860191254187
 31
0.0
  0
LWPOLYLINE
  5
365
330
63
100
AcDbEntity
  8
0
 62
     7
100
AcDbPolyline
 90
       18
 70
     1
 43
0.0
 10
16.36833836723019
 20
13.83695503950112
 42
0.6681786379192535
 10
16.35135308586021
 20
13.84399057340528
 10
16.26833836725519
 20
13.76097585480028
 10
16.26833836725519
 20
13.71190478700068
 10
16.05633836730818
 20
13.71190478700069
 10
16.05633836730818
 20
13.74390478699268
 10
15.9418076237281
 20
13.67778043135622
 42
0.767326987978942
 10
15.94927688011751
 20
13.64990478701618
 10
16.30833836724519
 20
13.64990478701618
 10
16.30833836724519
 20
11.58590478753219
 10
15.94927688011751
 20
11.58590478753219
 42
0.7673269879789422
 10
15.9418076237281
 20
11.55802914319214
 10
16.05633836730818
 20
11.49190478755569
 10
16.05633836730818
 20
11.52390478754769
 10
16.26833836725519
 20
11.52390478754769
 10
16.26833836725519
 20
11.47483371974809
 10
16.35135308586021
 20
11.39181900114308
 42
0.6681786379192988
 10
16.36833836723019
 20
11.39885453504724
  0
LINE
  5
366
330
63
100
AcDbEntity
  8
DIM
100
AcDbLine
 10
17.83584924603087
 20
11.33860191259186
 30
0.0
 11
16.54804421691092
 21
11.33860191259187
 31
0.0
  0
SOLID
  5
367
330
63
100
AcDbEntity
  8
0
 62
     7
100
AcDbTrace
 10
17.33074329919628
 20
11.53860191254187
 30
0.0
 11
17.26407663254629
 21
11.53860191254187
 31
0.0
 12
17.29740996587128
 22
11.33860191259186
 32
0.0
 13
17.29740996587128
 23
11.33860191259186
 33
0.0
  0
LINE
  5
368
330
63
100
AcDbEntity
  8
DIM
100
AcDbLine
 10
17.83584924603087
 20
13.83860191196687
 30
0.0
 11
16.54740996605878
 21
13.83860191196687
 31
0.0
  0
TEXT
  5
369
330
63
100
AcDbEntity
  8
DIM
100
AcDbText
 10
17.17240996590253
 20
11.96360191243561
 30
0.0
 40
0.2499999999375
  1
2 1/2"
 50
90.0
 72
     1
 11
17.04740996593378
 21
12.58860191227936
 31
0.0
100
AcDbText
 73
     2
  0
SOLID
  5
36A
330
63
100
AcDbEntity
  8
0
 62
     7
100
AcDbTrace
 10
17.33074329919628
 20
13.63860191201686
 30
0.0
 11
17.26407663254629
 21
13.63860191201686
 31
0.0
 12
17.29740996587128
 22
13.83860191196687
 32
0.0
 13
17.29740996587128
 23
13.83860191196687
 33
0.0
  0
ENDBLK
  5
36C
330
63
100
AcDbEntity
  8
0
100
AcDbBlockEnd
  0
BLOCK
  5
3A6
330
373
100
AcDbEntity
  8
0
100
AcDbBlockBegin
  2
A$C456541E9
 70
     0
 10
0.0
 20
0.0
 30
0.0
  3
A$C456541E9
  1

  0
TEXT
  5
374
330
373
100
AcDbEntity
  8
0
 62
     7
100
AcDbText
 10
11.27933345782341
 20
0.6389854730818243
 30
0.0
 40
0.25
  1
300-3046-12
 41
0.8
100
AcDbText
  0
INSERT
  5
375
330
373
100
AcDbEntity
  8
0
100
AcDbBlockReference
  2
A$C1D7A5A9E
 10
0.3563130224973747
 20
6.488738904519749
 30
0.0
 41
0.75
 42
0.75
 43
0.75
  0
TEXT
  5
376
330
373
100
AcDbEntity
  8
DIM
 62
     7
100
AcDbText
 10
12.55359837144986
 20
18.0761531287891
 30
0.0
 40
0.25
  1
INTERIOR
 41
0.8
  7
ADESK1
100
AcDbText
  0
TEXT
  5
377
330
373
100
AcDbEntity
  8
DIM
 62
     7
100
AcDbText
 10
11.73398020857113
 20
3.715101755920954
 30
0.0
 40
0.13
  1
DESCRIPTION:
 41
0.8
100
AcDbText
  0
LINE
  5
378
330
373
100
AcDbEntity
  8
0
 62
     7
100
AcDbLine
 10
6.747108967803924
 20
4.489115709959381
 30
0.0
 11
14.48940168966242
 21
4.489115709959381
 31
0.0
  0
LINE
  5
379
330
373
100
AcDbEntity
  8
0
 62
     7
100
AcDbLine
 10
6.739401689662422
 20
3.969944754739096
 30
0.0
 11
14.48940168966242
 21
3.969944754739096
 31
0.0
  0
LINE
  5
37A
330
373
100
AcDbEntity
  8
0
 62
     7
100
AcDbLine
 10
6.759774637096256
 20
1.260000071536062
 30
0.0
 11
14.49710896780392
 21
1.260000071536062
 31
0.0
  0
LINE
  5
37B
330
373
100
AcDbEntity
  8
0
 62
     7
100
AcDbLine
 10
6.747108967803924
 20
0.5000000715360607
 30
0.0
 11
14.49710896780392
 21
0.5000000715360607
 31
0.0
  0
LINE
  5
37C
330
373
100
AcDbEntity
  8
0
 62
     7
100
AcDbLine
 10
6.747108967803924
 20
2.50000007153606
 30
0.0
 11
14.49710896780392
 21
2.50000007153606
 31
0.0
  0
MTEXT
  5
37D
330
373
100
AcDbEntity
  8
DIM
100
AcDbMText
 10
7.513197744342079
 20
2.417989256179772
 30
0.0
 40
0.25
 41
6.75
 71
     1
 72
     5
  1
SOLERA-T TGU WITHIN KAWNEER 1600 WALL SYSTEM 1 SERIES CURTAIN WALL FRAMING SYSTEM
 73
     1
 44
1.0
  0
LWPOLYLINE
  5
37E
330
373
100
AcDbEntity
  8
0
 62
     7
100
AcDbPolyline
 90
        4
 70
     1
 43
0.05
 10
0.017108967803928
 20
20.05000007153606
 10
0.017108967803928
 20
0.0000000715360606
 10
14.49710896780392
 20
0.0000000715360606
 10
14.49710896780392
 20
20.05000007153606
  0
LWPOLYLINE
  5
37F
330
373
100
AcDbEntity
  8
0
 62
     7
100
AcDbPolyline
 90
        2
 70
     0
 43
0.05
 10
0.017108967803928
 20
3.50000007153606
 10
14.49710896780392
 20
3.50000007153606
  0
TEXT
  5
380
330
373
100
AcDbEntity
  8
DIM
 62
     7
100
AcDbText
 10
0.4215235926544949
 20
4.70374181294089
 30
0.0
 40
0.25
  1
"INTRA FRAME CAVITY"
 41
0.8
  7
ADESK1
100
AcDbText
  0
TEXT
  5
381
330
373
100
AcDbEntity
  8
DIM
 62
     7
100
AcDbText
 10
0.4215235926544949
 20
5.011727772097678
 30
0.0
 40
0.25
  1
FOR DETAILS OF
 41
0.8
  7
ADESK1
100
AcDbText
  0
TEXT
  5
382
330
373
100
AcDbEntity
  8
DIM
 62
     7
100
AcDbText
 10
-0.0135021956543255
 20
5.353139898726183
 30
0.0
 40
0.25
  1
 * SEE 300-3003-12
 41
0.8
  7
ADESK1
100
AcDbText
  0
MTEXT
  5
383
330
373
100
AcDbEntity
  8
DIM
100
AcDbMText
 10
0.3585286863300325
 20
3.307778830802888
 30
0.0
 40
0.625
 41
3.875
 71
     1
 72
     5
  1
{\Fisocp.shx;SOLERA}
 73
     1
 44
1.0
  0
LINE
  5
384
330
373
100
AcDbEntity
  8
0
 62
     7
100
AcDbLine
 10
0.0359907063201988
 20
0.9931941581879115
 30
0.0
 11
6.758707426923159
 21
0.9931941581879115
 31
0.0
  0
TEXT
  5
385
330
373
100
AcDbEntity
  8
4
  6
Continuous
 62
     7
370
    30
100
AcDbText
 10
0.2924672995644926
 20
2.008662167731472
 30
-2.3346
 40
0.25
  1
ADVANCED GLAZINGS Ltd.
 41
0.8
  7
style1
 11
0.2924672995644926
 21
2.133662167731472
 31
-2.3346
100
AcDbText
 73
     2
  0
LINE
  5
386
330
373
100
AcDbEntity
  8
0
 62
     7
100
AcDbLine
 10
0.0000000786718388
 20
1.858082241760051
 30
0.0
 11
6.691339285792906
 21
1.858082241760051
 31
0.0
  0
TEXT
  5
387
330
373
100
AcDbEntity
  8
DIM
 62
     7
100
AcDbText
 10
11.85270896780392
 20
0.1850000715360593
 30
0.0
 40
0.13
  1
Sheet
 41
0.8
100
AcDbText
  0
LINE
  5
388
330
373
100
AcDbEntity
  8
0
 62
     7
100
AcDbLine
 10
11.74710896780392
 20
0.0000000715360606
 30
0.0
 11
11.74710896780392
 21
0.5000000715360607
 31
0.0
  0
LINE
  5
389
330
373
100
AcDbEntity
  8
0
 62
     7
100
AcDbLine
 10
8.747108967803924
 20
0.0000000715360606
 30
0.0
 11
8.747108967803924
 21
0.5000000715360607
 31
0.0
  0
TEXT
  5
38A
330
373
100
AcDbEntity
  8
DIM
 62
     7
100
AcDbText
 10
6.851708967803929
 20
0.1850000715360593
 30
0.0
 40
0.13
  1
Scale
 41
0.8
100
AcDbText
  0
LWPOLYLINE
  5
38B
330
373
100
AcDbEntity
  8
0
 62
     7
100
AcDbPolyline
 90
        2
 70
     0
 43
0.05
 10
6.747108967803924
 20
0.0000000715360606
 10
6.747108967803924
 20
3.48742064247785
  0
TEXT
  5
38C
330
373
100
AcDbEntity
  8
DIM
 62
     7
100
AcDbText
 10
7.743835466368345
 20
5.028005806265348
 30
0.0
 40
0.375
  1
SILL SECTION
 41
0.8
100
AcDbText
  0
TEXT
  5
38D
330
373
100
AcDbEntity
  8
DIM
 62
     7
100
AcDbText
 10
8.065400270779633
 20
1.031800071536061
 30
0.0
 40
0.13
  1
DATE:
 41
0.8
100
AcDbText
  0
TEXT
  5
38E
330
373
100
AcDbEntity
  8
DIM
 62
     7
100
AcDbText
 10
8.062560096553617
 20
0.6389854730818243
 30
0.0
 40
0.1875
  1
06/28/04
 41
0.8
100
AcDbText
  0
TEXT
  5
38F
330
373
100
AcDbEntity
  8
DIM
 62
     7
100
AcDbText
 10
6.990307348132233
 20
0.6389854730818243
 30
0.0
 40
0.1875
  1
JWS
 41
0.8
100
AcDbText
  0
TEXT
  5
390
330
373
100
AcDbEntity
  8
DIM
 62
     7
100
AcDbText
 10
6.922908967803927
 20
1.031800071536061
 30
0.0
 40
0.13
  1
DRWN.
 41
0.8
100
AcDbText
  0
LINE
  5
391
330
373
100
AcDbEntity
  8
0
 62
     7
100
AcDbLine
 10
7.927600270779635
 20
0.5000000715360607
 30
0.0
 11
7.927600270779635
 21
1.260000071536062
 31
0.0
  0
TEXT
  5
392
330
373
100
AcDbEntity
  8
DIM
 62
     7
100
AcDbText
 10
6.922908967803927
 20
2.256870362113268
 30
0.0
 40
0.13
  1
TITLE:
 41
0.8
100
AcDbText
  0
LINE
  5
393
330
373
100
AcDbEntity
  8
0
 62
     7
100
AcDbLine
 10
7.927600270779635
 20
3.540906862250569
 30
0.0
 11
7.927600270779635
 21
4.585224277714765
 31
0.0
  0
LINE
  5
394
330
373
100
AcDbEntity
  8
0
 62
     7
100
AcDbLine
 10
6.747108967803924
 20
3.48742064247785
 30
0.0
 11
6.747108967803924
 21
4.619977475359945
 31
0.0
  0
TEXT
  5
395
330
373
100
AcDbEntity
  8
DIM
 62
     7
100
AcDbText
 10
6.922908967803927
 20
3.258012883577848
 30
0.0
 40
0.13
  1
PROJECT:
 41
0.8
100
AcDbText
  0
TEXT
  5
396
330
373
100
AcDbEntity
  8
DIM
 62
     7
100
AcDbText
 10
6.915201689662424
 20
3.715101755920954
 30
0.0
 40
0.13
  1
ISSUE
 41
0.8
100
AcDbText
  0
TEXT
  5
397
330
373
100
AcDbEntity
  8
DIM
 62
     7
100
AcDbText
 10
8.680964174223902
 20
3.715101755920954
 30
0.0
 40
0.13
  1
DATE:
 41
0.8
100
AcDbText
  0
TEXT
  5
398
330
373
100
AcDbEntity
  8
DIM
 62
     7
100
AcDbText
 10
10.41472309652356
 20
1.031800071536061
 30
0.0
 40
0.13
  1
DWG NO.
 41
0.8
100
AcDbText
  0
LINE
  5
399
330
373
100
AcDbEntity
  8
0
 62
     7
100
AcDbLine
 10
10.27272309652356
 20
0.5000000715360607
 30
0.0
 11
10.27272309652356
 21
1.260000071536062
 31
0.0
  0
LINE
  5
39A
330
373
100
AcDbEntity
  8
0
 62
     7
100
AcDbLine
 10
10.27272309652356
 20
3.540906862250569
 30
0.0
 11
10.27272309652356
 21
4.567847678892171
 31
0.0
  0
TEXT
  5
39B
330
373
100
AcDbEntity
  8
DIM
 62
     7
100
AcDbText
 10
1.682070024269805
 20
18.0761531287891
 30
0.0
 40
0.25
  1
EXTERIOR
 41
0.8
  7
ADESK1
100
AcDbText
  0
TEXT
  5
39C
330
373
100
AcDbEntity
  8
DIM
 62
     7
100
AcDbText
 10
7.518947026047314
 20
18.81628780552958
 30
0.0
 40
0.375
  1
HEAD SECTION
 41
0.8
100
AcDbText
  0
TEXT
  5
39D
330
373
100
AcDbEntity
  8
DIM
 62
     7
100
AcDbText
 10
13.89810896780392
 20
1.031800071536061
 30
0.0
 40
0.13
  1
REV
  7
ADESK1
100
AcDbText
  0
TEXT
  5
39E
330
373
100
AcDbEntity
  8
0
 62
     7
100
AcDbText
 10
13.98566661942985
 20
0.6485184959104587
 30
0.0
 40
0.25
  1
01
 41
0.8
100
AcDbText
  0
LINE
  5
39F
330
373
100
AcDbEntity
  8
0
 62
     7
100
AcDbLine
 10
13.73710896780392
 20
0.5000000715360607
 30
0.0
 11
13.73710896780392
 21
1.260000071536062
 31
0.0
  0
TEXT
  5
3A0
330
373
100
AcDbEntity
  8
DIM
100
AcDbText
 10
0.2694438931190746
 20
3.689950622443537
 30
7.003999999999999
 40
0.187
  1
DIMENSIONS IN INCHES  
 41
0.8
  7
ADESK1
 11
0.2694438931190746
 21
3.876950622443537
 31
7.003999999999999
100
AcDbText
 73
     3
  0
TEXT
  5
3A1
330
373
100
AcDbEntity
  8
DIM
100
AcDbText
 10
0.3118811691713432
 20
0.6750539303606262
 30
7.003999999999999
 40
0.195
  1
DRAWINGS CONFORM TO
  7
style1
 11
0.3118811691713432
 21
0.8700539303606262
 31
7.003999999999999
100
AcDbText
 73
     3
  0
TEXT
  5
3A2
330
373
100
AcDbEntity
  8
DIM
100
AcDbText
 10
0.3118811691713432
 20
0.3674338595905414
 30
7.003999999999999
 40
0.195
  1
CSI UNIFORM DRAWING SYSTEM 2000
  7
style1
 11
0.3118811691713432
 21
0.5624338595905414
 31
7.003999999999999
100
AcDbText
 73
     3
  0
TEXT
  5
3A3
330
373
100
AcDbEntity
  8
DIM
100
AcDbText
 10
0.2856339764916669
 20
1.230177169631297
 30
11.67329999999999
 40
0.195
  1
ADVANCED GLAZINGS LTD.
  7
style1
 11
0.2856339764916669
 21
1.425177169631297
 31
11.67329999999999
100
AcDbText
 73
     3
  0
TEXT
  5
3A4
330
373
100
AcDbEntity
  8
DIM
100
AcDbText
 10
0.2856339764916669
 20
1.53139053210922
 30
11.67329999999999
 40
0.195
  1
SOLERA IS A REGISTERED TRADEMARK
  7
style1
 11
0.2856339764916669
 21
1.72639053210922
 31
11.67329999999999
100
AcDbText
 73
     3
  0
TEXT
  5
3A5
330
373
100
AcDbEntity
  8
5
  6
Continuous
 62
     7
100
AcDbText
 10
7.799147238342179
 20
2.804961842445255
 30
9.338599999999999
 40
0.3125
  1
SOLERA-T TGU 
 41
0.8
 11
7.799147238342179
 21
2.961211842445255
 31
9.338599999999999
100
AcDbText
 73
     2
  0
ENDBLK
  5
3A7
330
373
100
AcDbEntity
  8
0
100
AcDbBlockEnd
  0
ENDSEC
  0
SECTION
  2
ENTITIES
  0
TEXT
  5
3B7
330
1F
100
AcDbEntity
  8
0
 62
     7
100
AcDbText
 10
12.18005857832837
 20
1.538985476853667
 30
0.0
 40
0.25
  1
300-3046-12
 41
0.8
100
AcDbText
  0
TEXT
  5
3B9
330
1F
100
AcDbEntity
  8
DIM
 62
     7
100
AcDbText
 10
12.64145502366661
 20
18.97615313256094
 30
0.0
 40
0.25
  1
INTERIOR
 41
0.8
  7
ADESK1
100
AcDbText
  0
TEXT
  5
3BA
330
1F
100
AcDbEntity
  8
DIM
 62
     7
100
AcDbText
 10
12.63470532907609
 20
4.615101759692798
 30
0.0
 40
0.13
  1
DESCRIPTION:
 41
0.8
100
AcDbText
  0
LINE
  5
3BB
330
1F
100
AcDbEntity
  8
0
 62
     7
100
AcDbLine
 10
7.647834088308883
 20
5.389115713731225
 30
0.0
 11
15.39012681016738
 21
5.389115713731225
 31
0.0
  0
LINE
  5
3BC
330
1F
100
AcDbEntity
  8
0
 62
     7
100
AcDbLine
 10
7.64012681016738
 20
4.869944758510939
 30
0.0
 11
15.39012681016738
 21
4.869944758510939
 31
0.0
  0
LINE
  5
3BD
330
1F
100
AcDbEntity
  8
0
 62
     7
100
AcDbLine
 10
7.660499757601215
 20
2.160000075307905
 30
0.0
 11
15.39783408830888
 21
2.160000075307905
 31
0.0
  0
LINE
  5
3BE
330
1F
100
AcDbEntity
  8
0
 62
     7
100
AcDbLine
 10
7.647834088308883
 20
1.400000075307904
 30
0.0
 11
15.39783408830888
 21
1.400000075307904
 31
0.0
  0
LINE
  5
3BF
330
1F
100
AcDbEntity
  8
0
 62
     7
100
AcDbLine
 10
7.647834088308883
 20
3.400000075307904
 30
0.0
 11
15.39783408830888
 21
3.400000075307904
 31
0.0
  0
MTEXT
  5
3C0
330
1F
100
AcDbEntity
  8
DIM
100
AcDbMText
 10
8.413922864847037
 20
3.317989259951616
 30
0.0
 40
0.25
 41
6.75
 71
     1
 72
     5
  1
{\fProxy 1|b0|i0|c0|p2;SOLERA-T TGU WITHIN KAWNEER 1600 WALL SYSTEM 1 SERIES CURTAIN WALL FRAMING SYSTEM}
 73
     1
 44
1.0
  0
LWPOLYLINE
  5
3C1
330
1F
100
AcDbEntity
  8
0
 62
     7
100
AcDbPolyline
 90
        4
 70
     1
 43
0.05
 10
0.9178340883088864
 20
20.9500000753079
 10
0.9178340883088864
 20
0.9000000753079042
 10
15.39783408830888
 20
0.9000000753079042
 10
15.39783408830888
 20
20.9500000753079
  0
LWPOLYLINE
  5
3C2
330
1F
100
AcDbEntity
  8
0
 62
     7
100
AcDbPolyline
 90
        2
 70
     0
 43
0.05
 10
0.9178340883088864
 20
4.400000075307904
 10
15.39783408830888
 20
4.400000075307904
  0
TEXT
  5
3C3
330
1F
100
AcDbEntity
  8
DIM
 62
     7
100
AcDbText
 10
1.322248713159453
 20
5.603741816712734
 30
0.0
 40
0.25
  1
"INTRA FRAME CAVITY"
 41
0.8
  7
ADESK1
100
AcDbText
  0
TEXT
  5
3C4
330
1F
100
AcDbEntity
  8
DIM
 62
     7
100
AcDbText
 10
1.322248713159453
 20
5.911727775869522
 30
0.0
 40
0.25
  1
FOR DETAILS OF
 41
0.8
  7
ADESK1
100
AcDbText
  0
TEXT
  5
3C5
330
1F
100
AcDbEntity
  8
DIM
 62
     7
100
AcDbText
 10
0.8872229248506329
 20
6.253139902498027
 30
0.0
 40
0.25
  1
 * SEE 300-3003-12
 41
0.8
  7
ADESK1
100
AcDbText
  0
MTEXT
  5
3C6
330
1F
100
AcDbEntity
  8
DIM
100
AcDbMText
 10
1.25925380683499
 20
4.207778834574732
 30
0.0
 40
0.625
 41
3.875
 71
     1
 72
     5
  1
{\Fisocp.shx;SOLERA}
 73
     1
 44
1.0
  0
LINE
  5
3C7
330
1F
100
AcDbEntity
  8
0
 62
     7
100
AcDbLine
 10
0.9367158268251571
 20
1.893194161959755
 30
0.0
 11
7.659432547428117
 21
1.893194161959755
 31
0.0
  0
TEXT
  5
3C8
330
1F
100
AcDbEntity
  8
4
  6
Continuous
 62
     7
370
    30
100
AcDbText
 10
1.193192420069451
 20
2.908662171503316
 30
-2.3346
 40
0.25
  1
ADVANCED GLAZINGS Ltd.
 41
0.8
  7
style1
 11
1.193192420069451
 21
3.033662171503316
 31
-2.3346
100
AcDbText
 73
     2
  0
LINE
  5
3C9
330
1F
100
AcDbEntity
  8
0
 62
     7
100
AcDbLine
 10
0.9007251991767972
 20
2.758082245531895
 30
0.0
 11
7.592064406297865
 21
2.758082245531895
 31
0.0
  0
TEXT
  5
3CA
330
1F
100
AcDbEntity
  8
DIM
 62
     7
100
AcDbText
 10
12.75343408830888
 20
1.085000075307902
 30
0.0
 40
0.13
  1
Sheet
 41
0.8
100
AcDbText
  0
LINE
  5
3CB
330
1F
100
AcDbEntity
  8
0
 62
     7
100
AcDbLine
 10
12.64783408830888
 20
0.9000000753079042
 30
0.0
 11
12.64783408830888
 21
1.400000075307904
 31
0.0
  0
LINE
  5
3CC
330
1F
100
AcDbEntity
  8
0
 62
     7
100
AcDbLine
 10
9.647834088308883
 20
0.9000000753079042
 30
0.0
 11
9.647834088308883
 21
1.400000075307904
 31
0.0
  0
TEXT
  5
3CD
330
1F
100
AcDbEntity
  8
DIM
 62
     7
100
AcDbText
 10
7.752434088308888
 20
1.085000075307902
 30
0.0
 40
0.13
  1
Scale
 41
0.8
100
AcDbText
  0
LWPOLYLINE
  5
3CE
330
1F
100
AcDbEntity
  8
0
 62
     7
100
AcDbPolyline
 90
        2
 70
     0
 43
0.05
 10
7.647834088308883
 20
0.9000000753079042
 10
7.647834088308883
 20
4.387420646249694
  0
TEXT
  5
3CF
330
1F
100
AcDbEntity
  8
DIM
 62
     7
100
AcDbText
 10
7.018823728969358
 20
6.063380132005647
 30
0.0
 40
0.375
  1
SILL SECTION
 41
0.8
100
AcDbText
  0
TEXT
  5
3D0
330
1F
100
AcDbEntity
  8
DIM
 62
     7
100
AcDbText
 10
8.966125391284592
 20
1.931800075307904
 30
0.0
 40
0.13
  1
DATE:
 41
0.8
100
AcDbText
  0
TEXT
  5
3D1
330
1F
100
AcDbEntity
  8
DIM
 62
     7
100
AcDbText
 10
8.963285217058576
 20
1.538985476853667
 30
0.0
 40
0.1875
  1
07/15/04
 41
0.8
100
AcDbText
  0
TEXT
  5
3D2
330
1F
100
AcDbEntity
  8
DIM
 62
     7
100
AcDbText
 10
7.891032468637192
 20
1.538985476853667
 30
0.0
 40
0.1875
  1
JWS
 41
0.8
100
AcDbText
  0
TEXT
  5
3D3
330
1F
100
AcDbEntity
  8
DIM
 62
     7
100
AcDbText
 10
7.823634088308885
 20
1.931800075307904
 30
0.0
 40
0.13
  1
DRWN.
 41
0.8
100
AcDbText
  0
LINE
  5
3D4
330
1F
100
AcDbEntity
  8
0
 62
     7
100
AcDbLine
 10
8.828325391284593
 20
1.400000075307904
 30
0.0
 11
8.828325391284593
 21
2.160000075307905
 31
0.0
  0
TEXT
  5
3D5
330
1F
100
AcDbEntity
  8
DIM
 62
     7
100
AcDbText
 10
7.823634088308885
 20
3.156870365885112
 30
0.0
 40
0.13
  1
TITLE:
 41
0.8
100
AcDbText
  0
LINE
  5
3D6
330
1F
100
AcDbEntity
  8
0
 62
     7
100
AcDbLine
 10
8.828325391284593
 20
4.440906866022412
 30
0.0
 11
8.828325391284593
 21
5.485224281486608
 31
0.0
  0
LINE
  5
3D7
330
1F
100
AcDbEntity
  8
0
 62
     7
100
AcDbLine
 10
7.647834088308883
 20
4.387420646249694
 30
0.0
 11
7.647834088308883
 21
5.519977479131789
 31
0.0
  0
TEXT
  5
3D8
330
1F
100
AcDbEntity
  8
DIM
 62
     7
100
AcDbText
 10
7.823634088308885
 20
4.158012887349691
 30
0.0
 40
0.13
  1
PROJECT:
 41
0.8
100
AcDbText
  0
TEXT
  5
3D9
330
1F
100
AcDbEntity
  8
DIM
 62
     7
100
AcDbText
 10
7.815926810167383
 20
4.615101759692798
 30
0.0
 40
0.13
  1
ISSUE
 41
0.8
100
AcDbText
  0
TEXT
  5
3DA
330
1F
100
AcDbEntity
  8
DIM
 62
     7
100
AcDbText
 10
9.58168929472886
 20
4.615101759692798
 30
0.0
 40
0.13
  1
DATE:
 41
0.8
100
AcDbText
  0
TEXT
  5
3DB
330
1F
100
AcDbEntity
  8
DIM
 62
     7
100
AcDbText
 10
11.31544821702852
 20
1.931800075307904
 30
0.0
 40
0.13
  1
DWG NO.
 41
0.8
100
AcDbText
  0
LINE
  5
3DC
330
1F
100
AcDbEntity
  8
0
 62
     7
100
AcDbLine
 10
11.17344821702852
 20
1.400000075307904
 30
0.0
 11
11.17344821702852
 21
2.160000075307905
 31
0.0
  0
LINE
  5
3DD
330
1F
100
AcDbEntity
  8
0
 62
     7
100
AcDbLine
 10
11.17344821702852
 20
4.440906866022412
 30
0.0
 11
11.17344821702852
 21
5.467847682664014
 31
0.0
  0
TEXT
  5
3DE
330
1F
100
AcDbEntity
  8
DIM
 62
     7
100
AcDbText
 10
2.582795144774763
 20
18.97615313256094
 30
0.0
 40
0.25
  1
EXTERIOR
 41
0.8
  7
ADESK1
100
AcDbText
  0
TEXT
  5
3DF
330
1F
100
AcDbEntity
  8
DIM
 62
     7
100
AcDbText
 10
6.929413406032608
 20
19.44553916536451
 30
0.0
 40
0.375
  1
HEAD SECTION
 41
0.8
100
AcDbText
  0
TEXT
  5
3E0
330
1F
100
AcDbEntity
  8
DIM
 62
     7
100
AcDbText
 10
14.79883408830888
 20
1.931800075307904
 30
0.0
 40
0.13
  1
REV
  7
ADESK1
100
AcDbText
  0
TEXT
  5
3E1
330
1F
100
AcDbEntity
  8
0
 62
     7
100
AcDbText
 10
14.88639173993481
 20
1.548518499682302
 30
0.0
 40
0.25
  1
02
 41
0.8
100
AcDbText
  0
LINE
  5
3E2
330
1F
100
AcDbEntity
  8
0
 62
     7
100
AcDbLine
 10
14.63783408830888
 20
1.400000075307904
 30
0.0
 11
14.63783408830888
 21
2.160000075307905
 31
0.0
  0
TEXT
  5
3E3
330
1F
100
AcDbEntity
  8
DIM
100
AcDbText
 10
1.170169013624033
 20
4.58995062621538
 30
7.003999999999999
 40
0.187
  1
DIMENSIONS IN INCHES  
 41
0.8
  7
ADESK1
 11
1.170169013624033
 21
4.776950626215381
 31
7.003999999999999
100
AcDbText
 73
     3
  0
TEXT
  5
3E4
330
1F
100
AcDbEntity
  8
DIM
100
AcDbText
 10
1.212606289676301
 20
1.575053934132469
 30
7.003999999999999
 40
0.195
  1
DRAWINGS CONFORM TO
  7
style1
 11
1.212606289676301
 21
1.770053934132469
 31
7.003999999999999
100
AcDbText
 73
     3
  0
TEXT
  5
3E5
330
1F
100
AcDbEntity
  8
DIM
100
AcDbText
 10
1.212606289676301
 20
1.267433863362384
 30
7.003999999999999
 40
0.195
  1
CSI UNIFORM DRAWING SYSTEM 2000
  7
style1
 11
1.212606289676301
 21
1.462433863362385
 31
7.003999999999999
100
AcDbText
 73
     3
  0
TEXT
  5
3E6
330
1F
100
AcDbEntity
  8
DIM
100
AcDbText
 10
1.186359096996625
 20
2.13017717340314
 30
11.67329999999999
 40
0.195
  1
ADVANCED GLAZINGS LTD.
  7
style1
 11
1.186359096996625
 21
2.32517717340314
 31
11.67329999999999
100
AcDbText
 73
     3
  0
TEXT
  5
3E7
330
1F
100
AcDbEntity
  8
DIM
100
AcDbText
 10
1.186359096996625
 20
2.431390535881064
 30
11.67329999999999
 40
0.195
  1
SOLERA IS A REGISTERED TRADEMARK
  7
style1
 11
1.186359096996625
 21
2.626390535881064
 31
11.67329999999999
100
AcDbText
 73
     3
  0
TEXT
  5
3E8
330
1F
100
AcDbEntity
  8
5
  6
Continuous
 62
     7
100
AcDbText
 10
8.699872358847137
 20
3.704961846217099
 30
9.338599999999999
 40
0.3125
  1
SOLERA-T TGU 
 41
0.8
 11
8.699872358847137
 21
3.861211846217099
 31
9.338599999999999
100
AcDbText
 73
     2
  0
MTEXT
  5
78E
330
1F
100
AcDbEntity
  8
0
 62
     7
100
AcDbMText
 10
7.199462526664984
 20
12.75298361904117
 30
0.0
 40
0.3321723713558932
 41
0.0
 71
     5
 72
     1
  1
\A1;2{\H0.7x;\S1/2;}"
 73
     1
 44
1.0
  0
LINE
  5
78F
330
1F
100
AcDbEntity
  8
0
 62
     7
100
AcDbLine
 10
7.010986488135863
 20
17.09371242473499
 30
0.0
 11
7.955911693721454
 21
17.09371242473499
 31
0.0
  0
LINE
  5
790
330
1F
100
AcDbEntity
  8
0
 62
     7
100
AcDbLine
 10
7.010987160784914
 20
17.2551481971736
 30
0.0
 11
7.955912441109287
 21
17.2551481971736
 31
0.0
  0
LINE
  5
791
330
1F
100
AcDbEntity
  8
0
 62
     7
100
AcDbLine
 10
7.010987160784914
 20
16.15947792948525
 30
0.0
 11
7.955912441109287
 21
16.15947792948525
 31
0.0
  0
LINE
  5
792
330
1F
100
AcDbEntity
  8
0
 62
     7
100
AcDbLine
 10
7.010986488135863
 20
16.32091370192387
 30
0.0
 11
7.955911693721454
 21
16.32091370192387
 31
0.0
  0
LINE
  5
793
330
1F
100
AcDbEntity
  8
0
 62
     7
100
AcDbLine
 10
6.168163728470148
 20
14.98499400924733
 30
0.0
 11
8.041117643892114
 21
14.98499400924733
 31
0.0
  0
LINE
  5
794
330
1F
100
AcDbEntity
  8
0
 62
     7
100
AcDbLine
 10
6.168163728470148
 20
15.17184096808831
 30
0.0
 11
8.041117643892114
 21
15.17184096808831
 31
0.0
  0
LINE
  5
795
330
1F
100
AcDbEntity
  8
0
 62
     7
100
AcDbLine
 10
6.168163728470148
 20
15.35868792692929
 30
0.0
 11
7.564293954193097
 21
15.35868792692929
 31
0.0
  0
LINE
  5
796
330
1F
100
AcDbEntity
  8
0
 62
     7
100
AcDbLine
 10
6.168163728470148
 20
14.40327499947599
 30
0.0
 11
8.041117643892114
 21
14.40327499947599
 31
0.0
  0
LINE
  5
797
330
1F
100
AcDbEntity
  8
0
 62
     7
100
AcDbLine
 10
6.168163728470148
 20
14.59012195831697
 30
0.0
 11
8.041117643892114
 21
14.59012195831697
 31
0.0
  0
LINE
  5
798
330
1F
100
AcDbEntity
  8
0
 62
     7
100
AcDbLine
 10
6.168163728470148
 20
14.79814705040635
 30
0.0
 11
8.041117643892114
 21
14.79814705040635
 31
0.0
  0
LINE
  5
799
330
1F
100
AcDbEntity
  8
0
 62
     7
100
AcDbLine
 10
6.907828584168576
 20
15.53377821636278
 30
0.0
 11
7.958999914338154
 21
15.2903320954339
 31
0.0
  0
LINE
  5
79A
330
1F
100
AcDbEntity
  8
0
 62
     7
100
AcDbLine
 10
6.777378237771166
 20
15.54089186803822
 30
0.0
 11
7.981499816695759
 21
15.2620232201497
 31
0.0
  0
LINE
  5
79B
330
1F
100
AcDbEntity
  8
0
 62
     7
100
AcDbLine
 10
7.796856896795766
 20
15.56339191424653
 30
0.0
 11
6.911212988732344
 21
15.56339191424653
 31
0.0
  0
LINE
  5
79C
330
1F
100
AcDbEntity
  8
0
 62
     7
100
AcDbLine
 10
7.806170099826111
 20
15.58589208960547
 30
0.0
 11
6.837378533194179
 21
15.58589208960547
 31
0.0
  0
LINE
  5
79E
330
1F
100
AcDbEntity
  8
0
 62
     7
100
AcDbLine
 10
6.168163728470148
 20
14.02958108179404
 30
0.0
 11
8.041117643892114
 21
14.02958108179404
 31
0.0
  0
LINE
  5
79F
330
1F
100
AcDbEntity
  8
0
 62
     7
100
AcDbLine
 10
6.168163728470148
 20
14.21642804063501
 30
0.0
 11
8.041117643892114
 21
14.21642804063501
 31
0.0
  0
LINE
  5
7A1
330
1F
100
AcDbEntity
  8
0
 62
     7
100
AcDbLine
 10
6.17405983896894
 20
10.68078617687658
 30
0.0
 11
8.047013754390906
 21
10.68078617687658
 31
0.0
  0
LINE
  5
7A2
330
1F
100
AcDbEntity
  8
0
 62
     7
100
AcDbLine
 10
6.17405983896894
 20
11.4493521454889
 30
0.0
 11
8.047013754390906
 21
11.4493521454889
 31
0.0
  0
LINE
  5
7A4
330
1F
100
AcDbEntity
  8
0
 62
     7
100
AcDbLine
 10
6.17405983896894
 20
10.88881126896596
 30
0.0
 11
8.047013754390906
 21
10.88881126896596
 31
0.0
  0
LINE
  5
7A5
330
1F
100
AcDbEntity
  8
0
 62
     7
100
AcDbLine
 10
6.17405983896894
 20
11.07565822780694
 30
0.0
 11
8.047013754390906
 21
11.07565822780694
 31
0.0
  0
LINE
  5
7A6
330
1F
100
AcDbEntity
  8
0
 62
     7
100
AcDbLine
 10
6.17405983896894
 20
11.26250518664792
 30
0.0
 11
8.047013754390906
 21
11.26250518664792
 31
0.0
  0
LINE
  5
7A7
330
1F
100
AcDbEntity
  8
DIM
 62
     7
100
AcDbLine
 10
6.185438077343683
 20
12.42090326160932
 30
0.0
 11
8.769235883559073
 21
12.42090326160932
 31
0.0
  0
LINE
  5
7A8
330
1F
100
AcDbEntity
  8
0
 62
     7
100
AcDbLine
 10
7.218132677786581
 20
13.85083077150754
 30
0.0
 11
9.361659094628734
 21
13.85083077150754
 31
0.0
  0
LWPOLYLINE
  5
7AA
330
1F
100
AcDbEntity
  8
0
 62
     7
100
AcDbPolyline
 90
       88
 70
     1
 43
0.0
 10
6.915551563834064
 20
17.18564127796232
 10
6.926762381364518
 20
17.17443046043186
 10
6.915551563834064
 20
17.16321964290141
 10
6.915551563834064
 20
16.90387606403013
 42
-0.4142135623730857
 10
6.908077685480421
 20
16.8964021856765
 10
6.866223966700029
 20
16.8964021856765
 42
-0.4142135623730951
 10
6.858750088346397
 20
16.90387606403013
 10
6.858750088346397
 20
16.93377157744468
 42
0.4142135623730951
 10
6.851276209992754
 20
16.94124545579833
 10
5.981316769629152
 20
16.94124545579832
 10
5.981316769629174
 20
16.91134994238377
 10
5.97010595209872
 20
16.90013912485332
 10
5.981316769629174
 20
16.88892830736743
 10
5.981316769629174
 20
16.83436899538571
 10
5.970105952098784
 20
16.82315817781076
 10
5.981316769629174
 20
16.81194736028039
 10
5.981316769629174
 20
16.78205184686581
 10
6.30269353883564
 20
16.78205184686581
 10
6.465707927900936
 20
16.73837227296111
 42
-0.7673269879789282
 10
6.465707927900936
 20
16.67625385369773
 10
6.302693538835619
 20
16.63257427979304
 10
5.981316769629174
 20
16.63257427979304
 10
5.981316769629174
 20
16.60267876637847
 10
5.970105952098784
 20
16.59146794884808
 10
5.981316769629174
 20
16.58025713127314
 10
5.981316769629174
 20
16.52569781929142
 10
5.97010595209872
 20
16.51448700180552
 10
5.981316769629174
 20
16.50327618427508
 10
5.981316769629152
 20
16.47338067086051
 10
6.851276209992754
 20
16.47338067086052
 42
0.4142135623730951
 10
6.858750088346397
 20
16.48085454921416
 10
6.858750088346397
 20
16.51075006262871
 42
-0.4142135623730951
 10
6.866223966700029
 20
16.51822394098234
 10
6.908077685480431
 20
16.51822394098234
 42
-0.4142135623730951
 10
6.915551563834064
 20
16.51075006262871
 10
6.915551563834064
 20
16.25140648375743
 10
6.926762381364518
 20
16.24019566622696
 10
6.915551563834064
 20
16.22898484869651
 10
6.915551563834064
 20
15.96590433064841
 42
0.6693764950686992
 10
6.934715827557276
 20
15.9580033735317
 42
-0.1997729274168816
 10
6.982436504713891
 20
15.97786253601422
 10
6.99029034737045
 20
15.97786253601422
 42
-0.4142135623730744
 10
7.027659739138638
 20
15.94049314424604
 10
7.027659739138648
 20
15.87472301473401
 42
-0.4142135623730951
 10
6.99029034737045
 20
15.83735362296582
 10
6.982436504713891
 20
15.83735362296582
 42
-0.1997729274168747
 10
6.934715827557287
 20
15.85721278544834
 42
0.6693764950687187
 10
6.915551563834053
 20
15.84931182833163
 10
6.915551563834053
 20
15.7880260258318
 42
0.4142135623730951
 10
6.93049932054134
 20
15.77307826912451
 10
13.05836974082094
 20
15.77307826912451
 42
0.6681786379193447
 10
13.06362801327753
 20
15.78577286180386
 10
13.02348709497339
 20
15.82591378010798
 10
12.8483162009528
 20
15.88967077144129
 10
12.8483162009528
 20
15.85902787019137
 42
-0.4142135623731471
 10
12.8258945658919
 20
15.83660623513045
 10
12.75414533369696
 20
15.83660623513045
 10
12.70108079738613
 20
15.88967077144129
 10
12.30347046897252
 20
15.88967077144129
 42
-0.4142135623731039
 10
12.28104883391162
 20
15.91209240650221
 10
12.28104883391162
 20
16.22898484869651
 10
12.26983801638116
 20
16.24019566622696
 10
12.28104883391162
 20
16.25140648375742
 10
12.28104883391162
 20
17.16321964290141
 10
12.26983801638116
 20
17.17443046043186
 10
12.28104883391162
 20
17.18564127796232
 10
12.28104883391162
 20
17.50253372015662
 42
-0.4142135623730951
 10
12.30347046897252
 20
17.52495535521755
 10
12.70108079738613
 20
17.52495535521755
 10
12.75414533369696
 20
17.57801989152837
 10
12.8258945658919
 20
17.57801989152837
 42
-0.4142135623731297
 10
12.8483162009528
 20
17.55559825646745
 10
12.8483162009528
 20
17.52495535521753
 10
13.02348709497339
 20
17.58871234655083
 10
13.06362801327753
 20
17.62885326485496
 42
0.6681786379193217
 10
13.05836974082094
 20
17.6415478575343
 10
6.93049932054134
 20
17.6415478575343
 42
0.4142135623730951
 10
6.915551563834053
 20
17.62660010082703
 10
6.915551563834053
 20
17.56531429832718
 42
0.6693764950687414
 10
6.934715827557287
 20
17.55741334121048
 42
-0.1997729274168794
 10
6.982436504713891
 20
17.57727250369301
 10
6.99029034737045
 20
17.57727250369301
 42
-0.4142135623730847
 10
7.027659739138648
 20
17.53990311192481
 10
7.027659739138638
 20
17.47413298241279
 42
-0.4142135623730847
 10
6.99029034737045
 20
17.4367635906446
 10
6.982436504713898
 20
17.4367635906446
 42
-0.1997729274168768
 10
6.934715827557276
 20
17.45662275312711
 42
0.6693764950687373
 10
6.915551563834064
 20
17.44872179601041
  0
LINE
  5
7AB
330
1F
100
AcDbEntity
  8
0
 62
     7
100
AcDbLine
 10
12.88045387787346
 20
17.82839481637529
 30
0.0
 11
7.158452610327341
 21
17.82839481637529
 31
0.0
  0
LWPOLYLINE
  5
7AC
330
1F
100
AcDbEntity
  8
0
 62
     7
100
AcDbPolyline
 90
       32
 70
     1
 43
0.0
 10
7.129304484748143
 20
16.85155891555465
 10
7.043354883681288
 20
16.85155891555465
 10
7.043354883681288
 20
16.82689511698765
 42
-0.4142135623730956
 10
6.99851161355945
 20
16.78205184686581
 10
6.713756848285793
 20
16.78205184686581
 42
1.0
 10
6.713756848285793
 20
16.63257427979304
 10
6.99851161355945
 20
16.63257427979304
 42
-0.4142135623730965
 10
7.043354883681288
 20
16.5877310096712
 10
7.043354883681288
 20
16.56306721110418
 10
7.129304484748132
 20
16.56306721110418
 42
-0.414213562373108
 10
7.144252241455419
 20
16.54811945439689
 10
7.144252241455408
 20
16.48832842756778
 42
-0.4142135623730951
 10
7.129304484748132
 20
16.47338067086051
 10
7.043354883681288
 20
16.47338067086051
 10
7.043354883681288
 20
16.0757703424469
 10
7.129304484748132
 20
16.0757703424469
 42
-0.4142135623730821
 10
7.144252241455408
 20
16.06082258573963
 10
7.144252241455419
 20
15.90461852814858
 42
0.4142135623730756
 10
7.159199998162687
 20
15.88967077144129
 10
12.14203469653392
 20
15.88967077144129
 42
0.4142135623731038
 10
12.16445633159485
 20
15.91209240650221
 10
12.16445633159485
 20
17.50253372015662
 42
0.4142135623731038
 10
12.14203469653394
 20
17.52495535521755
 10
7.159199998162687
 20
17.52495535521755
 42
0.4142135623730887
 10
7.144252241455419
 20
17.51000759851026
 10
7.144252241455408
 20
17.35380354091919
 42
-0.4142135623730951
 10
7.129304484748132
 20
17.33885578421191
 10
7.043354883681288
 20
17.33885578421191
 10
7.043354883681288
 20
16.94124545579832
 10
7.129304484748132
 20
16.94124545579832
 42
-0.4142135623730951
 10
7.144252241455408
 20
16.92629769909103
 10
7.144252241455419
 20
16.86650667226194
 42
-0.4142135623731015
  0
LINE
  5
7AD
330
1F
100
AcDbEntity
  8
0
 62
     7
100
AcDbLine
 10
12.10018097775351
 20
17.34664028306034
 30
0.0
 11
7.149483956302958
 21
17.34664028306034
 31
0.0
  0
LINE
  5
7AE
330
1F
100
AcDbEntity
  8
0
 62
     7
100
AcDbLine
 10
12.10018097775351
 20
17.01001996670971
 30
0.0
 11
7.149483956302958
 21
17.01001996670971
 31
0.0
  0
LINE
  5
7AF
330
1F
100
AcDbEntity
  8
0
 62
     7
100
AcDbLine
 10
12.10018097775351
 20
16.06798584359852
 30
0.0
 11
7.149483956302958
 21
16.06798584359852
 31
0.0
  0
LINE
  5
7B0
330
1F
100
AcDbEntity
  8
0
 62
     7
100
AcDbLine
 10
12.10018097775351
 20
16.40460615994915
 30
0.0
 11
7.149483956302958
 21
16.40460615994915
 31
0.0
  0
LWPOLYLINE
  5
7B1
330
1F
100
AcDbEntity
  8
0
 62
     7
100
AcDbPolyline
 90
        4
 70
     1
 43
0.0
 10
7.149483956302958
 20
17.51374453768709
 10
7.149483956302958
 20
15.90088158897176
 10
12.10018097775352
 20
15.90088158897176
 10
12.10018097775352
 20
17.51374453768709
  0
LINE
  5
7B2
330
1F
100
AcDbEntity
  8
0
 62
     7
100
AcDbLine
 10
5.047081975424283
 20
18.01524177521627
 30
0.0
 11
13.26834816442733
 21
18.01524177521627
 31
0.0
  0
LINE
  5
7B3
330
1F
100
AcDbEntity
  8
0
 62
     7
100
AcDbLine
 10
6.17405983896894
 20
10.12024530035365
 30
0.0
 11
7.570190064691882
 21
10.12024530035365
 31
0.0
  0
LINE
  5
7B4
330
1F
100
AcDbEntity
  8
0
 62
     7
100
AcDbLine
 10
6.17405983896894
 20
10.30709225919463
 30
0.0
 11
8.047013754390906
 21
10.30709225919463
 31
0.0
  0
LINE
  5
7B5
330
1F
100
AcDbEntity
  8
0
 62
     7
100
AcDbLine
 10
6.17405983896894
 20
10.49393921803561
 30
0.0
 11
8.047013754390906
 21
10.49393921803561
 31
0.0
  0
LINE
  5
7B6
330
1F
100
AcDbEntity
  8
0
 62
     7
100
AcDbLine
 10
7.016882598634655
 20
9.158019525359074
 30
0.0
 11
7.961807804220235
 21
9.158019525359074
 31
0.0
  0
LINE
  5
7B7
330
1F
100
AcDbEntity
  8
0
 62
     7
100
AcDbLine
 10
7.016883271283706
 20
9.319455297797684
 30
0.0
 11
7.961808551608068
 21
9.319455297797684
 31
0.0
  0
LINE
  5
7B8
330
1F
100
AcDbEntity
  8
0
 62
     7
100
AcDbLine
 10
6.783274348269948
 20
9.938041359244722
 30
0.0
 11
7.98739592719454
 21
10.21691000713324
 31
0.0
  0
LINE
  5
7B9
330
1F
100
AcDbEntity
  8
0
 62
     7
100
AcDbLine
 10
6.913724694667365
 20
9.94515501092016
 30
0.0
 11
7.964896024836935
 21
10.18860113184904
 31
0.0
  0
LINE
  5
7BA
330
1F
100
AcDbEntity
  8
0
 62
     7
100
AcDbLine
 10
7.812066210324903
 20
9.893041137677466
 30
0.0
 11
6.843274643692961
 21
9.893041137677466
 31
0.0
  0
LINE
  5
7BB
330
1F
100
AcDbEntity
  8
0
 62
     7
100
AcDbLine
 10
7.802753007294555
 20
9.91554131303641
 30
0.0
 11
6.917109099231126
 21
9.91554131303641
 31
0.0
  0
LINE
  5
7BC
330
1F
100
AcDbEntity
  8
0
 62
     7
100
AcDbLine
 10
7.016882598634655
 20
8.385220802547955
 30
0.0
 11
7.961807804220235
 21
8.385220802547955
 31
0.0
  0
LINE
  5
7BD
330
1F
100
AcDbEntity
  8
0
 62
     7
100
AcDbLine
 10
7.016883271283706
 20
8.223785030109343
 30
0.0
 11
7.961808551608068
 21
8.223785030109343
 31
0.0
  0
LINE
  5
7BE
330
1F
100
AcDbEntity
  8
0
 62
     7
100
AcDbLine
 10
6.921447674332853
 20
7.463691452066667
 30
0.0
 11
9.910999015788512
 21
7.837385369748627
 31
0.0
  0
LWPOLYLINE
  5
7BF
330
1F
100
AcDbEntity
  8
0
 62
     7
100
AcDbPolyline
 90
        4
 70
     1
 43
0.0
 10
6.921447674332849
 20
7.463691452066667
 10
9.910999015788512
 20
7.463691452066667
 10
9.910999015788512
 20
7.837385369748627
 10
6.921447674332849
 20
7.837385369748627
  0
LINE
  5
7C0
330
1F
100
AcDbEntity
  8
0
 62
     7
100
AcDbLine
 10
9.910999015788512
 20
7.463691452066667
 30
0.0
 11
6.936395431040153
 21
7.837385369748623
 31
0.0
  0
LINE
  5
7C1
330
1F
100
AcDbEntity
  8
0
 62
     7
100
AcDbLine
 10
6.936395431040121
 20
9.705854958158417
 30
0.0
 11
13.06426585131972
 21
9.705854958158417
 31
0.0
  0
LINE
  5
7C2
330
1F
100
AcDbEntity
  8
0
 62
     7
100
AcDbLine
 10
12.88634998837224
 20
9.892701916999381
 30
0.0
 11
7.164348720826133
 21
9.892701916999381
 31
0.0
  0
LINE
  5
7C3
330
1F
100
AcDbEntity
  8
0
 62
     7
100
AcDbLine
 10
7.165096108661476
 20
9.589262455841652
 30
0.0
 11
12.14793080703271
 21
9.589262455841652
 31
0.0
  0
LINE
  5
7C4
330
1F
100
AcDbEntity
  8
0
 62
     7
100
AcDbLine
 10
13.06426585131972
 20
7.837385369748634
 30
0.0
 11
6.936395431040121
 21
7.837385369748634
 31
0.0
  0
LINE
  5
7C5
330
1F
100
AcDbEntity
  8
0
 62
     7
100
AcDbLine
 10
12.88634998837224
 20
7.650538410907651
 30
0.0
 11
7.164348720826133
 21
7.650538410907651
 31
0.0
  0
LINE
  5
7C6
330
1F
100
AcDbEntity
  8
0
 62
     7
100
AcDbLine
 10
12.14793080703271
 20
7.953977872065401
 30
0.0
 11
7.165096108661476
 21
7.953977872065401
 31
0.0
  0
LINE
  5
7C7
330
1F
100
AcDbEntity
  8
0
 62
     7
100
AcDbLine
 10
7.15538006680175
 20
9.578051638311182
 30
0.0
 11
12.1060770882523
 21
9.578051638311182
 31
0.0
  0
LINE
  5
7C8
330
1F
100
AcDbEntity
  8
0
 62
     7
100
AcDbLine
 10
12.1060770882523
 20
8.468913260573229
 30
0.0
 11
7.15538006680175
 21
8.468913260573229
 31
0.0
  0
LINE
  5
7C9
330
1F
100
AcDbEntity
  8
0
 62
     7
100
AcDbLine
 10
12.1060770882523
 20
9.410947383684414
 30
0.0
 11
7.15538006680175
 21
9.410947383684414
 31
0.0
  0
LINE
  5
7CA
330
1F
100
AcDbEntity
  8
0
 62
     7
100
AcDbLine
 10
12.1060770882523
 20
9.074327067333792
 30
0.0
 11
7.15538006680175
 21
9.074327067333792
 31
0.0
  0
LINE
  5
7CB
330
1F
100
AcDbEntity
  8
0
 62
     7
100
AcDbLine
 10
12.1060770882523
 20
7.965188689595844
 30
0.0
 11
7.15538006680175
 21
7.965188689595844
 31
0.0
  0
LINE
  5
7CC
330
1F
100
AcDbEntity
  8
0
 62
     7
100
AcDbLine
 10
12.1060770882523
 20
8.132292944222607
 30
0.0
 11
7.15538006680175
 21
8.132292944222607
 31
0.0
  0
LINE
  5
7CD
330
1F
100
AcDbEntity
  8
0
 62
     7
100
AcDbLine
 10
5.052978085923076
 20
7.463691452066667
 30
0.0
 11
13.27424427492611
 21
7.463691452066667
 31
0.0
  0
3DFACE
  5
7CF
330
1F
100
AcDbEntity
  8
0
 62
     7
100
AcDbFace
 10
5.987212880127962
 20
11.20063062888623
 30
0.0
 11
6.17405983896894
 21
9.332161040476449
 31
0.0
 12
5.987212880127962
 22
9.332161040476449
 32
0.0
 13
5.987212880127962
 23
9.332161040476449
 33
0.0
 70
     1
  0
LINE
  5
7D2
330
1F
100
AcDbEntity
  8
0
 62
     7
100
AcDbLine
 10
6.267483318389427
 20
9.005552556422415
 30
0.0
 11
5.987212880127962
 21
9.005552556422415
 31
0.0
  0
LINE
  5
7D3
330
1F
100
AcDbEntity
  8
0
 62
     7
100
AcDbLine
 10
6.308589649334415
 20
8.846358947489903
 30
0.0
 11
5.987212880127962
 21
8.846358947489905
 31
0.0
  0
LINE
  5
7D4
330
1F
100
AcDbEntity
  8
0
 62
     7
100
AcDbLine
 10
5.940501140417723
 20
9.332161040476449
 30
0.0
 11
6.874735934622602
 21
9.332161040476449
 31
0.0
  0
LINE
  5
7D5
330
1F
100
AcDbEntity
  8
0
 62
     7
100
AcDbLine
 10
5.987212880127934
 20
9.005552556422431
 30
0.0
 11
6.857172320491542
 21
9.00555255642242
 31
0.0
  0
LINE
  5
7D6
330
1F
100
AcDbEntity
  8
0
 62
     7
100
AcDbLine
 10
5.987212880127962
 20
8.696881380417121
 30
0.0
 11
6.308589649334422
 21
8.696881380417115
 31
0.0
  0
LINE
  5
7D7
330
1F
100
AcDbEntity
  8
0
 62
     7
100
AcDbLine
 10
6.857172320491542
 20
8.537687771484606
 30
0.0
 11
5.987212880127934
 21
8.537687771484616
 31
0.0
  0
CIRCLE
  5
7D8
330
1F
100
AcDbEntity
  8
0
 62
     7
100
AcDbCircle
 10
6.113521424305289
 20
7.650538410907895
 30
0.0
 40
0.1868469588412267
  0
LINE
  5
7D9
330
1F
100
AcDbEntity
  8
0
 62
     7
100
AcDbLine
 10
6.615018661833587
 20
7.91212415328502
 30
0.0
 11
5.845209191408809
 21
7.912124153285004
 31
0.0
  0
LINE
  5
7DA
330
1F
100
AcDbEntity
  8
0
 62
     7
100
AcDbLine
 10
5.646404027202006
 20
7.837385369748613
 30
0.0
 11
6.734600715491819
 21
7.837385369748634
 31
0.0
  0
LINE
  5
7DB
330
1F
100
AcDbEntity
  8
0
 62
     7
100
AcDbLine
 10
5.706942441866505
 20
8.677912677155585
 30
0.0
 11
6.203955352383513
 21
8.677912677155585
 31
0.0
  0
LINE
  5
7DC
330
1F
100
AcDbEntity
  8
0
 62
     7
100
AcDbLine
 10
5.706942441866505
 20
8.86533512462979
 30
0.0
 11
6.203955352383513
 21
8.86533512462979
 31
0.0
  0
LINE
  5
7DD
330
1F
100
AcDbEntity
  8
0
 62
     7
100
AcDbLine
 10
5.284668314885884
 20
9.668485566390211
 30
0.0
 11
5.284668314885884
 21
7.87475476151682
 31
0.0
  0
LINE
  5
7DE
330
1F
100
AcDbEntity
  8
0
 62
     7
100
AcDbLine
 10
5.239825044764049
 20
7.837385369748623
 30
0.0
 11
5.239825044764049
 21
9.705854958158406
 31
0.0
  0
LINE
  5
7DF
330
1F
100
AcDbEntity
  8
0
 62
     7
100
AcDbLine
 10
5.800365921286971
 20
8.625879536057542
 30
0.0
 11
5.800365921286971
 21
8.917360791849471
 31
0.0
  0
LINE
  5
7E0
330
1F
100
AcDbEntity
  8
0
 62
     7
100
AcDbLine
 10
5.706942441866505
 20
8.584773205112536
 30
0.0
 11
5.706942441866505
 21
8.958467122794489
 31
0.0
  0
LINE
  5
7E1
330
1F
100
AcDbEntity
  8
0
 62
     7
100
AcDbLine
 10
5.677046928451954
 20
8.584773205112536
 30
0.0
 11
5.677046928451954
 21
8.958467122794489
 31
0.0
  0
ARC
  5
7E2
330
1F
100
AcDbEntity
  8
0
 62
     7
100
AcDbCircle
 10
5.66975616011798
 20
8.771620163953516
 30
0.0
 40
0.123206249380081
100
AcDbArc
 50
142.0123
 51
217.9876999999997
  0
LINE
  5
7E3
330
1F
100
AcDbEntity
  8
0
 62
     7
100
AcDbLine
 10
5.546549275458239
 20
8.657882683167834
 30
0.0
 11
5.546549275458239
 21
8.885368855556727
 31
0.0
  0
LINE
  5
7E4
330
1F
100
AcDbEntity
  8
0
 62
     7
100
AcDbLine
 10
5.569718298354516
 20
8.632165067752964
 30
0.0
 11
5.569718298354516
 21
8.911082734032417
 31
0.0
  0
LINE
  5
7E5
330
1F
100
AcDbEntity
  8
0
 62
     7
100
AcDbLine
 10
5.706942441866484
 20
8.760409346423042
 30
0.0
 11
5.706942441866484
 21
8.547403813344331
 31
0.0
  0
LINE
  5
7E6
330
1F
100
AcDbEntity
  8
0
 62
     7
100
AcDbLine
 10
5.523216074479915
 20
7.98686293682142
 30
0.0
 11
5.444609311653749
 21
8.032246572499223
 31
0.0
  0
LINE
  5
7E7
330
1F
100
AcDbEntity
  8
0
 62
     7
100
AcDbLine
 10
5.414713798239194
 20
7.980466024346853
 30
0.0
 11
5.551208583055924
 21
7.901660723589927
 31
0.0
  0
LWPOLYLINE
  5
7E8
330
1F
100
AcDbEntity
  8
0
 62
     7
100
AcDbPolyline
 90
        4
 70
     1
 43
0.0
 10
5.517853319519428
 20
7.837385369748623
 10
5.284668314885887
 20
7.874754761516815
 10
5.284668314885887
 20
7.837385369748623
 10
5.517853319519428
 20
7.874754761516815
  0
LINE
  5
7E9
330
1F
100
AcDbEntity
  8
0
 62
     7
100
AcDbLine
 10
5.57166524366562
 20
7.837385369748623
 30
0.0
 11
5.239825044764049
 21
7.837385369748623
 31
0.0
  0
LINE
  5
7EA
330
1F
100
AcDbEntity
  8
0
 62
     7
100
AcDbLine
 10
5.284668314885884
 20
7.87475476151682
 30
0.0
 11
5.556717486958341
 21
7.874754761516815
 31
0.0
  0
ARC
  5
7EB
330
1F
100
AcDbEntity
  8
0
 62
     7
100
AcDbCircle
 10
5.429661554946477
 20
8.006356298423042
 30
0.0
 40
0.0298955134145562
100
AcDbArc
 50
60.00000000000137
 51
240.0000000000019
  0
ARC
  5
7EC
330
1F
100
AcDbEntity
  8
0
 62
     7
100
AcDbCircle
 10
5.845209191408809
 20
7.956967423406833
 30
0.0
 40
0.0448432701218351
100
AcDbArc
 50
180.0
 51
270.0
  0
ARC
  5
7ED
330
1F
100
AcDbEntity
  8
0
 62
     7
100
AcDbCircle
 10
5.586613000372892
 20
7.889702518224106
 30
0.0
 40
0.0373693917681968
100
AcDbArc
 50
359.9999999999979
 51
161.3370751150581
  0
ARC
  5
7EE
330
1F
100
AcDbEntity
  8
0
 62
     7
100
AcDbCircle
 10
5.586613000372903
 20
7.897176396577755
 30
0.0
 40
0.0298955134145566
100
AcDbArc
 50
0.0
 51
180.0
  0
ARC
  5
7EF
330
1F
100
AcDbEntity
  8
0
 62
     7
100
AcDbCircle
 10
5.506268808071617
 20
7.65053841090739
 30
0.0
 40
0.2335586985512228
100
AcDbArc
 50
306.8698976457422
 51
53.13010235425762
  0
ARC
  5
7F0
330
1F
100
AcDbEntity
  8
0
 62
     7
100
AcDbCircle
 10
5.646404027202006
 20
7.859807004809525
 30
0.0
 40
0.0224216350609169
100
AcDbArc
 50
179.9999999999965
 51
270.0
  0
LINE
  5
7F1
330
1F
100
AcDbEntity
  8
0
 62
     7
100
AcDbLine
 10
5.623982392141094
 20
7.889702518224105
 30
0.0
 11
5.623982392141094
 21
7.859807004809532
 31
0.0
  0
ARC
  5
7F2
330
1F
100
AcDbEntity
  8
0
 62
     7
100
AcDbCircle
 10
5.57166524366562
 20
7.882228639870458
 30
0.0
 40
0.0448432701218352
100
AcDbArc
 50
270.0
 51
0.0
  0
LINE
  5
7F3
330
1F
100
AcDbEntity
  8
0
 62
     7
100
AcDbLine
 10
5.616508513787454
 20
7.897176396577755
 30
0.0
 11
5.616508513787454
 21
7.882228639870458
 31
0.0
  0
LINE
  5
7F4
330
1F
100
AcDbEntity
  8
0
 62
     7
100
AcDbLine
 10
5.556717486958341
 20
7.874754761516815
 30
0.0
 11
5.556717486958341
 21
7.897176396577755
 31
0.0
  0
LINE
  5
7F5
330
1F
100
AcDbEntity
  8
0
 62
     7
100
AcDbLine
 10
5.800365921286971
 20
8.672217581850109
 30
0.0
 11
5.706942441866484
 21
8.672217581850109
 31
0.0
  0
LINE
  5
7F6
330
1F
100
AcDbEntity
  8
0
 62
     7
100
AcDbLine
 10
5.725627137750581
 20
8.528719117460228
 30
0.0
 11
5.725627137750581
 21
7.98686293682142
 31
0.0
  0
LINE
  5
7F7
330
1F
100
AcDbEntity
  8
0
 62
     7
100
AcDbLine
 10
5.725627137750581
 20
7.98686293682142
 30
0.0
 11
5.523216074479915
 21
7.98686293682142
 31
0.0
  0
LINE
  5
7F8
330
1F
100
AcDbEntity
  8
0
 62
     7
100
AcDbLine
 10
5.572651795608326
 20
8.695793931116668
 30
0.0
 11
5.677046928451954
 21
8.695793931116668
 31
0.0
  0
LINE
  5
7F9
330
1F
100
AcDbEntity
  8
0
 62
     7
100
AcDbLine
 10
5.572651795608326
 20
8.61996769827982
 30
0.0
 11
5.677046928451954
 21
8.61996769827982
 31
0.0
  0
LINE
  5
7FA
330
1F
100
AcDbEntity
  8
0
 62
     7
100
AcDbLine
 10
5.555738408894033
 20
8.632165067752964
 30
0.0
 11
5.569718298354516
 21
8.632165067752964
 31
0.0
  0
ARC
  5
7FB
330
1F
100
AcDbEntity
  8
0
 62
     7
100
AcDbCircle
 10
5.587139908796856
 20
8.657882683167834
 30
0.0
 40
0.0405925765469861
100
AcDbArc
 50
110.9106999999999
 51
249.0893000000001
  0
LINE
  5
7FC
330
1F
100
AcDbEntity
  8
0
 62
     7
100
AcDbLine
 10
5.706942441866484
 20
8.547403813344331
 30
0.0
 11
5.725627137750581
 21
8.528719117460228
 31
0.0
  0
LINE
  5
7FD
330
1F
100
AcDbEntity
  8
0
 62
     7
100
AcDbLine
 10
5.677046928451954
 20
8.584773205112536
 30
0.0
 11
5.706942441866505
 21
8.584773205112536
 31
0.0
  0
LINE
  5
7FE
330
1F
100
AcDbEntity
  8
0
 62
     7
100
AcDbLine
 10
5.800365921286971
 20
7.956967423406833
 30
0.0
 11
5.800365921286971
 21
8.603457900996627
 31
0.0
  0
LINE
  5
7FF
330
1F
100
AcDbEntity
  8
0
 62
     7
100
AcDbLine
 10
5.800365921286982
 20
8.537687771484606
 30
0.0
 11
5.987212880127962
 21
8.537687771484606
 31
0.0
  0
LINE
  5
800
330
1F
100
AcDbEntity
  8
0
 62
     7
100
AcDbLine
 10
5.800365921286982
 20
8.537687771484606
 30
0.0
 11
5.800365921286982
 21
8.584399511194853
 31
0.0
  0
LINE
  5
801
330
1F
100
AcDbEntity
  8
0
 62
     7
100
AcDbLine
 10
5.811576738817429
 20
8.614668718527083
 30
0.0
 11
5.800365921286971
 21
8.625879536057542
 31
0.0
  0
LINE
  5
802
330
1F
100
AcDbEntity
  8
0
 62
     7
100
AcDbLine
 10
5.800365921286971
 20
8.603457900996627
 30
0.0
 11
5.811576738817429
 21
8.614668718527083
 31
0.0
  0
LINE
  5
803
330
1F
100
AcDbEntity
  8
0
 62
     7
100
AcDbLine
 10
5.987212880127962
 20
8.537687771484606
 30
0.0
 11
5.987212880127962
 21
8.584399511194853
 31
0.0
  0
LINE
  5
804
330
1F
100
AcDbEntity
  8
0
 62
     7
100
AcDbLine
 10
5.987212880127934
 20
8.537687771484616
 30
0.0
 11
5.987212880127962
 21
8.567583284899162
 31
0.0
  0
LINE
  5
805
330
1F
100
AcDbEntity
  8
0
 62
     7
100
AcDbLine
 10
5.987212880127962
 20
8.666985867002559
 30
0.0
 11
5.987212880127962
 21
8.696881380417121
 31
0.0
  0
LINE
  5
806
330
1F
100
AcDbEntity
  8
0
 62
     7
100
AcDbLine
 10
5.976002062597572
 20
8.655775049472172
 30
0.0
 11
5.987212880127962
 21
8.666985867002559
 31
0.0
  0
LINE
  5
807
330
1F
100
AcDbEntity
  8
0
 62
     7
100
AcDbLine
 10
5.987212880127962
 20
8.644564231897232
 30
0.0
 11
5.976002062597572
 21
8.655775049472172
 31
0.0
  0
LINE
  5
808
330
1F
100
AcDbEntity
  8
0
 62
     7
100
AcDbLine
 10
5.987212880127962
 20
8.590004919915509
 30
0.0
 11
5.987212880127962
 21
8.644564231897232
 31
0.0
  0
LINE
  5
809
330
1F
100
AcDbEntity
  8
0
 62
     7
100
AcDbLine
 10
5.976002062597508
 20
8.578794102429617
 30
0.0
 11
5.987212880127962
 21
8.590004919915509
 31
0.0
  0
LINE
  5
80A
330
1F
100
AcDbEntity
  8
0
 62
     7
100
AcDbLine
 10
5.987212880127962
 20
8.567583284899162
 30
0.0
 11
5.976002062597508
 21
8.578794102429617
 31
0.0
  0
LINE
  5
80B
330
1F
100
AcDbEntity
  8
0
 62
     7
100
AcDbLine
 10
5.239825044764049
 20
9.705854958158406
 30
0.0
 11
5.57166524366562
 21
9.705854958158406
 31
0.0
  0
LINE
  5
80C
330
1F
100
AcDbEntity
  8
0
 62
     7
100
AcDbLine
 10
5.551208583055945
 20
9.641579604317085
 30
0.0
 11
5.414713798239194
 21
9.56277430356015
 31
0.0
  0
LINE
  5
80D
330
1F
100
AcDbEntity
  8
0
 62
     7
100
AcDbLine
 10
5.444609311653749
 20
9.510993755407787
 30
0.0
 11
5.523216074479915
 21
9.556377391085595
 31
0.0
  0
LINE
  5
80E
330
1F
100
AcDbEntity
  8
0
 62
     7
100
AcDbLine
 10
5.556717486958341
 20
9.668485566390211
 30
0.0
 11
5.284668314885884
 21
9.668485566390211
 31
0.0
  0
ARC
  5
80F
330
1F
100
AcDbEntity
  8
0
 62
     7
100
AcDbCircle
 10
5.429661554946477
 20
9.536884029483967
 30
0.0
 40
0.0298955134145563
100
AcDbArc
 50
119.9999999999981
 51
299.9999999999993
  0
LINE
  5
810
330
1F
100
AcDbEntity
  8
0
 62
     7
100
AcDbLine
 10
5.688257745982387
 20
9.538440083036881
 30
0.0
 11
5.688257745982387
 21
9.604210212548903
 31
0.0
  0
LINE
  5
811
330
1F
100
AcDbEntity
  8
0
 62
     7
100
AcDbLine
 10
5.623982392141094
 20
9.5563773910856
 30
0.0
 11
5.623982392141094
 21
9.471175177854142
 31
0.0
  0
LWPOLYLINE
  5
812
330
1F
100
AcDbEntity
  8
0
 62
     7
100
AcDbPolyline
 90
        4
 70
     1
 43
0.0
 10
5.800365921286982
 20
9.005552556422419
 10
5.722637586409135
 20
9.005552556422419
 10
5.800365921286982
 20
9.238737561055961
 10
5.725627137750592
 20
9.238737561055961
  0
LINE
  5
813
330
1F
100
AcDbEntity
  8
0
 62
     7
100
AcDbLine
 10
5.800365921286971
 20
8.871022746056906
 30
0.0
 11
5.706942441866484
 21
8.871022746056906
 31
0.0
  0
ARC
  5
814
330
1F
100
AcDbEntity
  8
0
 62
     7
100
AcDbCircle
 10
5.733480980407147
 20
9.568335596451444
 30
0.0
 40
0.0672649051827547
100
AcDbArc
 50
270.0
 51
315.1896880937408
  0
LINE
  5
815
330
1F
100
AcDbEntity
  8
0
 62
     7
100
AcDbLine
 10
5.725627137750581
 20
9.426331907732294
 30
0.0
 11
5.725627137750581
 21
9.014521210446776
 31
0.0
  0
LINE
  5
816
330
1F
100
AcDbEntity
  8
0
 62
     7
100
AcDbLine
 10
5.572651795608326
 20
8.847453870668717
 30
0.0
 11
5.677046928451954
 21
8.847453870668712
 31
0.0
  0
LINE
  5
817
330
1F
100
AcDbEntity
  8
0
 62
     7
100
AcDbLine
 10
5.572651795608326
 20
8.923280103505565
 30
0.0
 11
5.677046928451954
 21
8.923280103505559
 31
0.0
  0
LINE
  5
818
330
1F
100
AcDbEntity
  8
0
 62
     7
100
AcDbLine
 10
5.555738408894033
 20
8.911082734032417
 30
0.0
 11
5.569718298354516
 21
8.911082734032417
 31
0.0
  0
ARC
  5
819
330
1F
100
AcDbEntity
  8
0
 62
     7
100
AcDbCircle
 10
5.587139908796856
 20
8.885368855556727
 30
0.0
 40
0.0405925765469861
100
AcDbArc
 50
110.9106999999999
 51
249.0893000000001
  0
LINE
  5
81A
330
1F
100
AcDbEntity
  8
0
 62
     7
100
AcDbLine
 10
5.725627137750581
 20
9.014521210446776
 30
0.0
 11
5.706942441866484
 21
8.995836514562682
 31
0.0
  0
LINE
  5
81B
330
1F
100
AcDbEntity
  8
0
 62
     7
100
AcDbLine
 10
5.718153259396938
 20
8.771620163953505
 30
0.0
 11
5.706942441866484
 21
8.760409346423042
 31
0.0
  0
LINE
  5
81C
330
1F
100
AcDbEntity
  8
0
 62
     7
100
AcDbLine
 10
5.706942441866484
 20
8.782830981483961
 30
0.0
 11
5.718153259396938
 21
8.771620163953505
 31
0.0
  0
LINE
  5
81D
330
1F
100
AcDbEntity
  8
0
 62
     7
100
AcDbLine
 10
5.677046928451954
 20
8.958467122794489
 30
0.0
 11
5.706942441866505
 21
8.958467122794489
 31
0.0
  0
LINE
  5
81E
330
1F
100
AcDbEntity
  8
0
 62
     7
100
AcDbLine
 10
5.706942441866484
 20
8.995836514562682
 30
0.0
 11
5.706942441866484
 21
8.782830981483961
 31
0.0
  0
ARC
  5
81F
330
1F
100
AcDbEntity
  8
0
 62
     7
100
AcDbCircle
 10
5.668825662262925
 20
9.471175177854142
 30
0.0
 40
0.0448432701218338
100
AcDbArc
 50
179.9999999999981
 51
270.0
  0
LINE
  5
820
330
1F
100
AcDbEntity
  8
0
 62
     7
100
AcDbLine
 10
5.668825662262914
 20
9.426331907732304
 30
0.0
 11
5.725627137750581
 21
9.426331907732294
 31
0.0
  0
LINE
  5
821
330
1F
100
AcDbEntity
  8
0
 62
     7
100
AcDbLine
 10
5.733480980407136
 20
9.501070691268688
 30
0.0
 11
5.725627137750581
 21
9.501070691268688
 31
0.0
  0
ARC
  5
822
330
1F
100
AcDbEntity
  8
0
 62
     7
100
AcDbCircle
 10
5.725627137750581
 20
9.538440083036885
 30
0.0
 40
0.0373693917681949
100
AcDbArc
 50
180.000000000002
 51
270.0
  0
LINE
  5
823
330
1F
100
AcDbEntity
  8
0
 62
     7
100
AcDbLine
 10
5.987212880127962
 20
9.005552556422415
 30
0.0
 11
5.987212880127962
 21
9.238737561055961
 31
0.0
  0
LINE
  5
824
330
1F
100
AcDbEntity
  8
0
 62
     7
100
AcDbLine
 10
5.800365921286971
 20
8.939782426910381
 30
0.0
 11
5.800365921286971
 21
9.513028896634502
 31
0.0
  0
LINE
  5
825
330
1F
100
AcDbEntity
  8
0
 62
     7
100
AcDbLine
 10
5.987212880127962
 20
9.005552556422415
 30
0.0
 11
5.800365921286982
 21
9.005552556422415
 31
0.0
  0
LINE
  5
826
330
1F
100
AcDbEntity
  8
0
 62
     7
100
AcDbLine
 10
5.811576738817429
 20
8.928571609379932
 30
0.0
 11
5.800365921286971
 21
8.939782426910381
 31
0.0
  0
LINE
  5
827
330
1F
100
AcDbEntity
  8
0
 62
     7
100
AcDbLine
 10
5.800365921286971
 20
8.917360791849471
 30
0.0
 11
5.811576738817429
 21
8.928571609379932
 31
0.0
  0
LINE
  5
828
330
1F
100
AcDbEntity
  8
0
 62
     7
100
AcDbLine
 10
5.800365921286982
 20
8.958840816712172
 30
0.0
 11
5.800365921286982
 21
9.005552556422415
 31
0.0
  0
LINE
  5
829
330
1F
100
AcDbEntity
  8
0
 62
     7
100
AcDbLine
 10
5.976002062597508
 20
8.964446225477409
 30
0.0
 11
5.987212880127962
 21
8.975657043007863
 31
0.0
  0
LINE
  5
82A
330
1F
100
AcDbEntity
  8
0
 62
     7
100
AcDbLine
 10
5.987212880127962
 20
8.953235407991517
 30
0.0
 11
5.976002062597508
 21
8.964446225477409
 31
0.0
  0
LINE
  5
82B
330
1F
100
AcDbEntity
  8
0
 62
     7
100
AcDbLine
 10
5.987212880127962
 20
8.898676096009797
 30
0.0
 11
5.987212880127962
 21
8.953235407991517
 31
0.0
  0
LINE
  5
82C
330
1F
100
AcDbEntity
  8
0
 62
     7
100
AcDbLine
 10
5.976002062597572
 20
8.887465278434858
 30
0.0
 11
5.987212880127962
 21
8.898676096009797
 31
0.0
  0
LINE
  5
82D
330
1F
100
AcDbEntity
  8
0
 62
     7
100
AcDbLine
 10
5.987212880127962
 20
8.876254460904467
 30
0.0
 11
5.976002062597572
 21
8.887465278434858
 31
0.0
  0
LINE
  5
82E
330
1F
100
AcDbEntity
  8
0
 62
     7
100
AcDbLine
 10
5.987212880127962
 20
8.846358947489905
 30
0.0
 11
5.987212880127962
 21
8.876254460904467
 31
0.0
  0
LINE
  5
82F
330
1F
100
AcDbEntity
  8
0
 62
     7
100
AcDbLine
 10
5.987212880127962
 20
8.958840816712172
 30
0.0
 11
5.987212880127962
 21
9.005552556422415
 31
0.0
  0
LINE
  5
830
330
1F
100
AcDbEntity
  8
0
 62
     7
100
AcDbLine
 10
5.987212880127962
 20
8.975657043007863
 30
0.0
 11
5.987212880127934
 21
9.005552556422431
 31
0.0
  0
ARC
  5
831
330
1F
100
AcDbEntity
  8
0
 62
     7
100
AcDbCircle
 10
5.940501140417723
 20
9.285449300766202
 30
0.0
 40
0.0467117397102452
100
AcDbArc
 50
90.0
 51
270.0
  0
LINE
  5
832
330
1F
100
AcDbEntity
  8
0
 62
     7
100
AcDbLine
 10
5.800549089585068
 20
9.347397007916011
 30
0.0
 11
5.987396048426042
 21
9.347397007916011
 31
0.0
  0
ARC
  5
833
330
1F
100
AcDbEntity
  8
0
 62
     7
100
AcDbCircle
 10
5.789155103756513
 20
9.513028896634507
 30
0.0
 40
0.0112108175304577
100
AcDbArc
 50
359.999999999993
 51
135.1896880937465
  0
LINE
  5
834
330
1F
100
AcDbEntity
  8
0
 62
     7
100
AcDbLine
 10
5.987212880127962
 20
9.238737561055961
 30
0.0
 11
5.940501140417723
 21
9.238737561055961
 31
0.0
  0
LINE
  5
835
330
1F
100
AcDbEntity
  8
0
 62
     7
100
AcDbLine
 10
5.785418164579695
 20
9.705854958158395
 30
0.0
 11
5.646404027202006
 21
9.705854958158395
 31
0.0
  0
ARC
  5
836
330
1F
100
AcDbEntity
  8
0
 62
     7
100
AcDbCircle
 10
5.733480980407136
 20
9.574314699134349
 30
0.0
 40
0.067264905182748
100
AcDbArc
 50
44.81031190624885
 51
90.0
  0
LINE
  5
837
330
1F
100
AcDbEntity
  8
0
 62
     7
100
AcDbLine
 10
5.987396048426042
 20
9.808188090663996
 30
0.0
 11
5.583806617329543
 21
9.750986439012516
 31
0.0
  0
ARC
  5
838
330
1F
100
AcDbEntity
  8
0
 62
     7
100
AcDbCircle
 10
5.646404027202006
 20
9.683433323097482
 30
0.0
 40
0.0224216350609174
100
AcDbArc
 50
90.0
 51
180.000000000002
  0
LINE
  5
839
330
1F
100
AcDbEntity
  8
0
 62
     7
100
AcDbLine
 10
5.583806617329532
 20
9.706143168890678
 30
0.0
 11
5.670227713777183
 21
9.706143168890678
 31
0.0
  0
ARC
  5
83A
330
1F
100
AcDbEntity
  8
0
 62
     7
100
AcDbCircle
 10
5.586613000372903
 20
9.653537809682903
 30
0.0
 40
0.0373693917681859
100
AcDbArc
 50
198.6629248849453
 51
0.0000000000040711
  0
LINE
  5
83B
330
1F
100
AcDbEntity
  8
0
 62
     7
100
AcDbLine
 10
5.583806617329543
 20
9.750986439012516
 30
0.0
 11
5.583806617329532
 21
9.706143168890678
 31
0.0
  0
LINE
  5
83C
330
1F
100
AcDbEntity
  8
0
 62
     7
100
AcDbLine
 10
5.523216074479915
 20
9.556377391085595
 30
0.0
 11
5.623982392141094
 21
9.5563773910856
 31
0.0
  0
LINE
  5
83D
330
1F
100
AcDbEntity
  8
0
 62
     7
100
AcDbLine
 10
5.556717486958341
 20
9.646063931329273
 30
0.0
 11
5.556717486958341
 21
9.668485566390211
 31
0.0
  0
ARC
  5
83E
330
1F
100
AcDbEntity
  8
0
 62
     7
100
AcDbCircle
 10
5.586613000372903
 20
9.646063931329273
 30
0.0
 40
0.0298955134145566
100
AcDbArc
 50
180.0
 51
0.0
  0
LINE
  5
83F
330
1F
100
AcDbEntity
  8
0
 62
     7
100
AcDbLine
 10
5.616508513787454
 20
9.661011688036568
 30
0.0
 11
5.616508513787454
 21
9.646063931329273
 31
0.0
  0
LINE
  5
840
330
1F
100
AcDbEntity
  8
0
 62
     7
100
AcDbLine
 10
5.623982392141087
 20
9.683433323097476
 30
0.0
 11
5.623982392141087
 21
9.653537809682903
 31
0.0
  0
ARC
  5
841
330
1F
100
AcDbEntity
  8
0
 62
     7
100
AcDbCircle
 10
5.57166524366562
 20
9.661011688036568
 30
0.0
 40
0.0448432701218352
100
AcDbArc
 50
0.0
 51
90.0
  0
ARC
  5
842
330
1F
100
AcDbEntity
  8
0
 62
     7
100
AcDbCircle
 10
5.725627137750581
 20
9.604210212548903
 30
0.0
 40
0.0373693917681962
100
AcDbArc
 50
90.0
 51
179.9999999999979
  0
LINE
  5
843
330
1F
100
AcDbEntity
  8
0
 62
     7
100
AcDbLine
 10
5.725627137750581
 20
9.641579604317101
 30
0.0
 11
5.733480980407136
 21
9.641579604317101
 31
0.0
  0
ARC
  5
844
330
1F
100
AcDbEntity
  8
0
 62
     7
100
AcDbCircle
 10
5.785418164579695
 20
9.690907201451119
 30
0.0
 40
0.0149477567072779
100
AcDbArc
 50
0.0
 51
90.0
  0
ARC
  5
845
330
1F
100
AcDbEntity
  8
0
 62
     7
100
AcDbCircle
 10
5.789155103756513
 20
9.629621398951277
 30
0.0
 40
0.0112108175304632
100
AcDbArc
 50
224.8103119062636
 51
0.0000000000069209
  0
LINE
  5
846
330
1F
100
AcDbEntity
  8
0
 62
     7
100
AcDbLine
 10
5.800365921286971
 20
9.629621398951282
 30
0.0
 11
5.800365921286971
 21
9.690907201451119
 31
0.0
  0
LINE
  5
847
330
1F
100
AcDbEntity
  8
0
 62
     7
100
AcDbLine
 10
6.308589649334422
 20
8.696881380417115
 30
0.0
 11
6.471604038399718
 21
8.740560954321825
 31
0.0
  0
LINE
  5
848
330
1F
100
AcDbEntity
  8
0
 62
     7
100
AcDbLine
 10
6.454330277230422
 20
8.771620163953516
 30
0.0
 11
6.203955352383513
 21
8.677912677155585
 31
0.0
  0
LINE
  5
849
330
1F
100
AcDbEntity
  8
0
 62
     7
100
AcDbLine
 10
7.15538006680175
 20
7.965188689595844
 30
0.0
 11
7.15538006680175
 21
9.578051638311182
 31
0.0
  0
ARC
  5
84A
330
1F
100
AcDbEntity
  8
0
 62
     7
100
AcDbCircle
 10
6.719652958784585
 20
8.771620163953516
 30
0.0
 40
0.074738783536391
100
AcDbArc
 50
90.0
 51
270.0
  0
ARC
  5
84B
330
1F
100
AcDbEntity
  8
0
 62
     7
100
AcDbCircle
 10
6.682283567016337
 20
8.113918868833277
 30
0.0
 40
0.0224216350609172
100
AcDbArc
 50
90.0
 51
180.0000000000007
  0
ARC
  5
84C
330
1F
100
AcDbEntity
  8
0
 62
     7
100
AcDbCircle
 10
6.615018661833587
 20
7.956967423406855
 30
0.0
 40
0.0448432701218349
100
AcDbArc
 50
270.0
 51
0.0000000000004071
  0
LINE
  5
84D
330
1F
100
AcDbEntity
  8
0
 62
     7
100
AcDbLine
 10
6.659861931955425
 20
8.113918868833277
 30
0.0
 11
6.659861931955425
 21
7.956967423406855
 31
0.0
  0
LINE
  5
84E
330
1F
100
AcDbEntity
  8
0
 62
     7
100
AcDbLine
 10
6.734600715491819
 20
7.837385369748634
 30
0.0
 11
6.734600715491819
 21
8.113918868833277
 31
0.0
  0
ARC
  5
84F
330
1F
100
AcDbEntity
  8
0
 62
     7
100
AcDbCircle
 10
6.932658491863307
 20
7.913618928955754
 30
0.0
 40
0.0112108175304649
100
AcDbArc
 50
44.81031190625491
 51
180.0000000000067
  0
ARC
  5
850
330
1F
100
AcDbEntity
  8
0
 62
     7
100
AcDbCircle
 10
6.98833261521268
 20
7.968925628772677
 30
0.0
 40
0.0672649051827468
100
AcDbArc
 50
224.8103119062448
 51
270.0
  0
ARC
  5
851
330
1F
100
AcDbEntity
  8
0
 62
     7
100
AcDbCircle
 10
6.996186457869235
 20
7.939030115358129
 30
0.0
 40
0.0373693917681962
100
AcDbArc
 50
270.0
 51
359.9999999999979
  0
LINE
  5
852
330
1F
100
AcDbEntity
  8
0
 62
     7
100
AcDbLine
 10
6.921624583998287
 20
7.83709168576123
 30
0.0
 11
6.734777625157306
 21
7.83709168576123
 31
0.0
  0
ARC
  5
853
330
1F
100
AcDbEntity
  8
0
 62
     7
100
AcDbCircle
 10
6.936395431040121
 20
7.852333126455906
 30
0.0
 40
0.0149477567072779
100
AcDbArc
 50
180.0
 51
270.0
  0
LINE
  5
854
330
1F
100
AcDbEntity
  8
0
 62
     7
100
AcDbLine
 10
6.921447674332835
 20
7.852333126455906
 30
0.0
 11
6.921447674332835
 21
7.913618928955754
 31
0.0
  0
LINE
  5
855
330
1F
100
AcDbEntity
  8
0
 62
     7
100
AcDbLine
 10
7.164348720826133
 20
7.837385369748623
 30
0.0
 11
7.164348720826133
 21
7.463691452066667
 31
0.0
  0
LINE
  5
856
330
1F
100
AcDbEntity
  8
0
 62
     7
100
AcDbLine
 10
6.98833261521268
 20
7.901660723589927
 30
0.0
 11
6.996186457869235
 21
7.901660723589927
 31
0.0
  0
ARC
  5
857
330
1F
100
AcDbEntity
  8
0
 62
     7
100
AcDbCircle
 10
6.988332615212669
 20
7.974904731455591
 30
0.0
 40
0.0672649051827548
100
AcDbArc
 50
90.0
 51
135.1896880937424
  0
LINE
  5
858
330
1F
100
AcDbEntity
  8
0
 62
     7
100
AcDbLine
 10
6.921448931766544
 20
8.140825428816651
 30
0.0
 11
7.016883570238839
 21
8.223785553280828
 31
0.0
  0
LINE
  5
859
330
1F
100
AcDbEntity
  8
0
 62
     7
100
AcDbLine
 10
6.921449055614687
 20
8.468180104885506
 30
0.0
 11
7.016882972328566
 21
8.385220354115247
 31
0.0
  0
LINE
  5
85A
330
1F
100
AcDbEntity
  8
0
 62
     7
100
AcDbLine
 10
7.004407724058243
 20
8.696881380417115
 30
0.0
 11
6.719652958784585
 21
8.696881380417121
 31
0.0
  0
LINE
  5
85B
330
1F
100
AcDbEntity
  8
0
 62
     7
100
AcDbLine
 10
6.921447674332846
 20
8.315713584381535
 30
0.0
 11
6.921447674332846
 21
8.575057163252795
 31
0.0
  0
LINE
  5
85C
330
1F
100
AcDbEntity
  8
0
 62
     7
100
AcDbLine
 10
6.921447674332846
 20
8.140824232996113
 30
0.0
 11
6.921447674332846
 21
8.468181300706048
 31
0.0
  0
LINE
  5
85D
330
1F
100
AcDbEntity
  8
0
 62
     7
100
AcDbLine
 10
6.734777625157295
 20
8.106151306492225
 30
0.0
 11
6.921624583998287
 21
8.106151306492225
 31
0.0
  0
LINE
  5
85E
330
1F
100
AcDbEntity
  8
0
 62
     7
100
AcDbLine
 10
6.7121790804309
 20
8.136340503894199
 30
0.0
 11
6.682283567016337
 21
8.136340503894192
 31
0.0
  0
ARC
  5
85F
330
1F
100
AcDbEntity
  8
0
 62
     7
100
AcDbCircle
 10
6.7121790804309
 20
8.113918868833277
 30
0.0
 40
0.0224216350609174
100
AcDbArc
 50
359.9999999999996
 51
90.0
  0
LINE
  5
860
330
1F
100
AcDbEntity
  8
0
 62
     7
100
AcDbLine
 10
6.921447674332835
 20
8.030211431272524
 30
0.0
 11
6.921447674332846
 21
8.293291949320622
 31
0.0
  0
LINE
  5
861
330
1F
100
AcDbEntity
  8
0
 62
     7
100
AcDbLine
 10
6.932658491863307
 20
8.304502766851081
 30
0.0
 11
6.921447674332846
 21
8.315713584381535
 31
0.0
  0
LINE
  5
862
330
1F
100
AcDbEntity
  8
0
 62
     7
100
AcDbLine
 10
6.921447674332846
 20
8.293291949320622
 30
0.0
 11
6.932658491863307
 21
8.304502766851081
 31
0.0
  0
ARC
  5
863
330
1F
100
AcDbEntity
  8
0
 62
     7
100
AcDbCircle
 10
6.9326584918633
 20
8.030211431272524
 30
0.0
 40
0.0112108175304586
100
AcDbArc
 50
180.0
 51
315.1896880937511
  0
ARC
  5
864
330
1F
100
AcDbEntity
  8
0
 62
     7
100
AcDbCircle
 10
6.857172320491542
 20
8.545161649838243
 30
0.0
 40
0.007473878353639
100
AcDbArc
 50
270.0
 51
0.0
  0
LINE
  5
865
330
1F
100
AcDbEntity
  8
0
 62
     7
100
AcDbLine
 10
6.91397379597921
 20
8.582531041606433
 30
0.0
 11
6.872120077198822
 21
8.582531041606433
 31
0.0
  0
LINE
  5
866
330
1F
100
AcDbEntity
  8
0
 62
     7
100
AcDbLine
 10
6.864646198845179
 20
8.575057163252795
 30
0.0
 11
6.864646198845179
 21
8.545161649838243
 31
0.0
  0
ARC
  5
867
330
1F
100
AcDbEntity
  8
0
 62
     7
100
AcDbCircle
 10
6.872120077198822
 20
8.575057163252795
 30
0.0
 40
0.007473878353639
100
AcDbArc
 50
90.0
 51
180.0
  0
ARC
  5
868
330
1F
100
AcDbEntity
  8
0
 62
     7
100
AcDbCircle
 10
6.91397379597921
 20
8.575057163252795
 30
0.0
 40
0.0074738783536389
100
AcDbArc
 50
359.9999999999996
 51
90.0
  0
LINE
  5
869
330
1F
100
AcDbEntity
  8
0
 62
     7
100
AcDbLine
 10
7.049250994180081
 20
8.140077443071017
 30
0.0
 11
7.049250994180081
 21
8.537687771484616
 31
0.0
  0
LINE
  5
86A
330
1F
100
AcDbEntity
  8
0
 62
     7
100
AcDbLine
 10
7.016882598634655
 20
8.385220802547955
 30
0.0
 11
7.016882598634655
 21
8.223785030109343
 31
0.0
  0
LINE
  5
86B
330
1F
100
AcDbEntity
  8
0
 62
     7
100
AcDbLine
 10
7.135200595246914
 20
8.140077443071017
 30
0.0
 11
7.049250994180081
 21
8.140077443071017
 31
0.0
  0
LINE
  5
86C
330
1F
100
AcDbEntity
  8
0
 62
     7
100
AcDbLine
 10
7.03355584963743
 20
7.939030115358121
 30
0.0
 11
7.03355584963743
 21
8.004800244870153
 31
0.0
  0
LINE
  5
86D
330
1F
100
AcDbEntity
  8
0
 62
     7
100
AcDbLine
 10
6.996186457869235
 20
8.042169636638345
 30
0.0
 11
6.98833261521268
 21
8.042169636638345
 31
0.0
  0
ARC
  5
86E
330
1F
100
AcDbEntity
  8
0
 62
     7
100
AcDbCircle
 10
6.996186457869235
 20
8.004800244870153
 30
0.0
 40
0.0373693917681962
100
AcDbArc
 50
0.0000000000020356
 51
90.0
  0
LINE
  5
86F
330
1F
100
AcDbEntity
  8
0
 62
     7
100
AcDbLine
 10
7.1501483519542
 20
7.968925628772682
 30
0.0
 11
7.150148351954193
 21
8.125129686363745
 31
0.0
  0
ARC
  5
870
330
1F
100
AcDbEntity
  8
0
 62
     7
100
AcDbCircle
 10
7.165096108661476
 20
7.968925628772682
 30
0.0
 40
0.0149477567072783
100
AcDbArc
 50
180.0000000000012
 51
270.0
  0
ARC
  5
871
330
1F
100
AcDbEntity
  8
0
 62
     7
100
AcDbCircle
 10
7.135200595246924
 20
8.125129686363745
 30
0.0
 40
0.0149477567072783
100
AcDbArc
 50
0.0000000000012213
 51
90.0
  0
LINE
  5
872
330
1F
100
AcDbEntity
  8
0
 62
     7
100
AcDbLine
 10
7.049250994180081
 20
8.537687771484616
 30
0.0
 11
7.135200595246924
 21
8.537687771484616
 31
0.0
  0
LINE
  5
873
330
1F
100
AcDbEntity
  8
0
 62
     7
100
AcDbLine
 10
7.135200595246924
 20
8.627374311728292
 30
0.0
 11
7.049250994180081
 21
8.627374311728292
 31
0.0
  0
LINE
  5
874
330
1F
100
AcDbEntity
  8
0
 62
     7
100
AcDbLine
 10
7.049250994180081
 20
8.627374311728292
 30
0.0
 11
7.049250994180081
 21
8.652038110295283
 31
0.0
  0
ARC
  5
875
330
1F
100
AcDbEntity
  8
0
 62
     7
100
AcDbCircle
 10
7.004407724058243
 20
8.652038110295283
 30
0.0
 40
0.0448432701218343
100
AcDbArc
 50
0.0000000000006107
 51
90.0
  0
ARC
  5
876
330
1F
100
AcDbEntity
  8
0
 62
     7
100
AcDbCircle
 10
7.135200595246924
 20
8.552635528191892
 30
0.0
 40
0.0149477567072779
100
AcDbArc
 50
270.0
 51
0.0
  0
ARC
  5
877
330
1F
100
AcDbEntity
  8
0
 62
     7
100
AcDbCircle
 10
7.135200595246924
 20
8.612426555021011
 30
0.0
 40
0.0149477567072778
100
AcDbArc
 50
359.9999999999992
 51
90.0
  0
LINE
  5
878
330
1F
100
AcDbEntity
  8
0
 62
     7
100
AcDbLine
 10
7.150148351954193
 20
8.552635528191892
 30
0.0
 11
7.1501483519542
 21
8.612426555021011
 31
0.0
  0
LINE
  5
879
330
1F
100
AcDbEntity
  8
0
 62
     7
100
AcDbLine
 10
6.17405983896894
 20
9.933398341512676
 30
0.0
 11
6.781312455202119
 21
9.933398341512676
 31
0.0
  0
LINE
  5
87A
330
1F
100
AcDbEntity
  8
0
 62
     7
100
AcDbLine
 10
6.232387276246313
 20
9.810458226789588
 30
0.0
 11
6.783274348269948
 21
9.938041359244722
 31
0.0
  0
LINE
  5
87B
330
1F
100
AcDbEntity
  8
0
 62
     7
100
AcDbLine
 10
6.25488791480754
 20
9.792572000648311
 30
0.0
 11
6.694619018308344
 21
9.894411877576562
 31
0.0
  0
LINE
  5
87C
330
1F
100
AcDbEntity
  8
0
 62
     7
100
AcDbLine
 10
6.828024194912366
 20
9.005552556422415
 30
0.0
 11
6.547753756650898
 21
9.005552556422415
 31
0.0
  0
LINE
  5
87D
330
1F
100
AcDbEntity
  8
0
 62
     7
100
AcDbLine
 10
6.698898932831333
 20
9.353038478870328
 30
0.0
 11
6.423805107303884
 21
9.353038478870328
 31
0.0
  0
LINE
  5
87E
330
1F
100
AcDbEntity
  8
0
 62
     7
100
AcDbLine
 10
6.721399043614962
 20
9.330538368086696
 30
0.0
 11
6.414485735943159
 21
9.330538368086696
 31
0.0
  0
LINE
  5
87F
330
1F
100
AcDbEntity
  8
0
 62
     7
100
AcDbLine
 10
6.220771578679183
 20
9.524252525275672
 30
0.0
 11
6.220771578679183
 21
9.795844937863245
 31
0.0
  0
LINE
  5
880
330
1F
100
AcDbEntity
  8
0
 62
     7
100
AcDbLine
 10
6.243271689462812
 20
9.533571896711396
 30
0.0
 11
6.243271689462812
 21
9.77795815656923
 31
0.0
  0
LWPOLYLINE
  5
881
330
1F
100
AcDbEntity
  8
0
 62
     7
100
AcDbPolyline
 90
        4
 70
     1
 43
0.0
 10
6.220771578679183
 20
9.800658862910808
 10
6.220771578679183
 20
9.520388424649341
 10
6.17405983896894
 20
9.520388424649341
 10
6.17405983896894
 20
9.800658862910808
  0
ARC
  5
882
330
1F
100
AcDbEntity
  8
0
 62
     7
100
AcDbCircle
 10
6.302757034667262
 20
8.595937684597201
 30
0.0
 40
0.7473878353639128
100
AcDbArc
 50
82.27343300000027
 51
99.91552700000022
  0
LINE
  5
883
330
1F
100
AcDbEntity
  8
0
 62
     7
100
AcDbLine
 10
6.403879082019258
 20
9.334931788018549
 30
0.0
 11
6.225164998611031
 21
9.513645871351773
 31
0.0
  0
LINE
  5
884
330
1F
100
AcDbEntity
  8
0
 62
     7
100
AcDbLine
 10
6.413197723026375
 20
9.357432201278673
 30
0.0
 11
6.247665411946151
 21
9.522964512358893
 31
0.0
  0
LINE
  5
885
330
1F
100
AcDbEntity
  8
0
 62
     7
100
AcDbLine
 10
6.547753756650898
 20
9.098976035842902
 30
0.0
 11
6.267483318389427
 21
9.098976035842902
 31
0.0
  0
LINE
  5
886
330
1F
100
AcDbEntity
  8
0
 62
     7
100
AcDbLine
 10
6.471604038399718
 20
8.802679373585203
 30
0.0
 11
6.308589649334415
 21
8.846358947489903
 31
0.0
  0
LINE
  5
887
330
1F
100
AcDbEntity
  8
0
 62
     7
100
AcDbLine
 10
6.203955352383513
 20
8.86533512462979
 30
0.0
 11
6.454330277230422
 21
8.771620163953516
 31
0.0
  0
LINE
  5
888
330
1F
100
AcDbEntity
  8
0
 62
     7
100
AcDbLine
 10
6.267483318389427
 20
9.098976035842902
 30
0.0
 11
6.267483318389427
 21
9.005552556422415
 31
0.0
  0
LINE
  5
889
330
1F
100
AcDbEntity
  8
0
 62
     7
100
AcDbLine
 10
6.282763662683443
 20
9.457016662701015
 30
0.0
 11
6.17405983896894
 21
9.348312838986505
 31
0.0
  0
LINE
  5
88A
330
1F
100
AcDbEntity
  8
0
 62
     7
100
AcDbLine
 10
6.256339765764149
 20
9.483439812232457
 30
0.0
 11
6.17405983896894
 21
9.401162127600757
 31
0.0
  0
LINE
  5
88B
330
1F
100
AcDbEntity
  8
0
 62
     7
100
AcDbLine
 10
6.229913626681355
 20
9.509865951315266
 30
0.0
 11
6.17405983896894
 21
9.454009174051513
 31
0.0
  0
LINE
  5
88C
330
1F
100
AcDbEntity
  8
0
 62
     7
100
AcDbLine
 10
6.309186812214903
 20
9.430592765781716
 30
0.0
 11
6.216905341406846
 21
9.338311294973667
 31
0.0
  0
ARC
  5
88D
330
1F
100
AcDbEntity
  8
0
 62
     7
100
AcDbCircle
 10
6.235771652534936
 20
9.524252525275672
 30
0.0
 40
0.0150000738557537
100
AcDbArc
 50
179.9999999999
 51
225.0
  0
ARC
  5
88E
330
1F
100
AcDbEntity
  8
0
 62
     7
100
AcDbCircle
 10
6.258272796298648
 20
9.533571896711396
 30
0.0
 40
0.0150011068358398
100
AcDbArc
 50
180.0
 51
225.0
  0
LINE
  5
88F
330
1F
100
AcDbEntity
  8
0
 62
     7
100
AcDbLine
 10
6.335612951297694
 20
9.404166626698916
 30
0.0
 11
6.273927296305934
 21
9.342483213870663
 31
0.0
  0
LINE
  5
890
330
1F
100
AcDbEntity
  8
0
 62
     7
100
AcDbLine
 10
6.362036848216995
 20
9.377743477167465
 30
0.0
 11
6.326876734890134
 21
9.342583363840601
 31
0.0
  0
ARC
  5
891
330
1F
100
AcDbEntity
  8
0
 62
     7
100
AcDbCircle
 10
6.463281748261355
 20
8.771620163953516
 30
0.0
 40
0.0321548599140526
100
AcDbArc
 50
285.000000000002
 51
74.99999999999753
  0
LINE
  5
892
330
1F
100
AcDbEntity
  8
0
 62
     7
100
AcDbLine
 10
6.547753756650898
 20
9.005552556422415
 30
0.0
 11
6.547753756650898
 21
9.098976035842902
 31
0.0
  0
ARC
  5
893
330
1F
100
AcDbEntity
  8
0
 62
     7
100
AcDbCircle
 10
6.423805107303884
 20
9.368039585556168
 30
0.0
 40
0.0150011066858391
100
AcDbArc
 50
225.0
 51
270.0
  0
ARC
  5
894
330
1F
100
AcDbEntity
  8
0
 62
     7
100
AcDbCircle
 10
6.414485735943159
 20
9.345538441942451
 30
0.0
 40
0.0150000738557537
100
AcDbArc
 50
225.0
 51
270.0
  0
ARC
  5
895
330
1F
100
AcDbEntity
  8
0
 62
     7
100
AcDbCircle
 10
6.235771652534936
 20
9.795844937863245
 30
0.0
 40
0.0150000738557537
100
AcDbArc
 50
103.0395730453999
 51
180.0
  0
ARC
  5
896
330
1F
100
AcDbEntity
  8
0
 62
     7
100
AcDbCircle
 10
6.258271763318568
 20
9.777958589471364
 30
0.0
 40
0.0150000738557537
100
AcDbArc
 50
103.0375036321999
 51
180.0016536357
  0
LINE
  5
897
330
1F
100
AcDbEntity
  8
0
 62
     7
100
AcDbLine
 10
7.03355584963743
 20
9.538440083036903
 30
0.0
 11
7.03355584963743
 21
9.604210212548924
 31
0.0
  0
LINE
  5
898
330
1F
100
AcDbEntity
  8
0
 62
     7
100
AcDbLine
 10
7.150148351954189
 20
9.418110641543311
 30
0.0
 11
7.1501483519542
 21
9.574314699134371
 31
0.0
  0
LINE
  5
899
330
1F
100
AcDbEntity
  8
0
 62
     7
100
AcDbLine
 10
6.713899006687089
 20
9.879086750170348
 30
0.0
 11
6.713899006687089
 21
9.36803855272608
 31
0.0
  0
LINE
  5
89A
330
1F
100
AcDbEntity
  8
0
 62
     7
100
AcDbLine
 10
6.736399117470718
 20
9.799290676078999
 30
0.0
 11
6.736399117470718
 21
9.345538441942451
 31
0.0
  0
LINE
  5
89B
330
1F
100
AcDbEntity
  8
0
 62
     7
100
AcDbLine
 10
6.921449055614687
 20
9.07506022302152
 30
0.0
 11
7.016882972328566
 21
9.15801997379178
 31
0.0
  0
LINE
  5
89C
330
1F
100
AcDbEntity
  8
0
 62
     7
100
AcDbLine
 10
6.719652958784585
 20
8.846358947489903
 30
0.0
 11
7.004407724058243
 21
8.846358947489903
 31
0.0
  0
LINE
  5
89D
330
1F
100
AcDbEntity
  8
0
 62
     7
100
AcDbLine
 10
6.921448931766544
 20
9.402414899090377
 30
0.0
 11
7.016883570238839
 21
9.319454774626198
 31
0.0
  0
ARC
  5
89E
330
1F
100
AcDbEntity
  8
0
 62
     7
100
AcDbCircle
 10
6.988332615212669
 20
9.568335596451456
 30
0.0
 40
0.0672649051827508
100
AcDbArc
 50
224.8103119062545
 51
270.0
  0
LINE
  5
89F
330
1F
100
AcDbEntity
  8
0
 62
     7
100
AcDbLine
 10
6.921447674332846
 20
9.402416094910917
 30
0.0
 11
6.921447674332846
 21
9.075059027200982
 31
0.0
  0
LINE
  5
8A0
330
1F
100
AcDbEntity
  8
0
 62
     7
100
AcDbLine
 10
6.828024194912366
 20
9.238737561055961
 30
0.0
 11
6.828024194912366
 21
9.005552556422415
 31
0.0
  0
LINE
  5
8A1
330
1F
100
AcDbEntity
  8
0
 62
     7
100
AcDbLine
 10
6.921447674332853
 20
8.968183164654226
 30
0.0
 11
6.921447674332846
 21
9.227526743525512
 31
0.0
  0
LINE
  5
8A2
330
1F
100
AcDbEntity
  8
0
 62
     7
100
AcDbLine
 10
6.872120077198822
 20
8.960709286300591
 30
0.0
 11
6.913973795979213
 21
8.960709286300595
 31
0.0
  0
ARC
  5
8A3
330
1F
100
AcDbEntity
  8
0
 62
     7
100
AcDbCircle
 10
6.857172320491542
 20
8.998078678068777
 30
0.0
 40
0.007473878353639
100
AcDbArc
 50
0.0
 51
90.0
  0
ARC
  5
8A4
330
1F
100
AcDbEntity
  8
0
 62
     7
100
AcDbCircle
 10
6.872120077198822
 20
8.968183164654226
 30
0.0
 40
0.007473878353639
100
AcDbArc
 50
180.0
 51
270.0
  0
LINE
  5
8A5
330
1F
100
AcDbEntity
  8
0
 62
     7
100
AcDbLine
 10
6.864646198845179
 20
8.998078678068777
 30
0.0
 11
6.864646198845179
 21
8.968183164654226
 31
0.0
  0
ARC
  5
8A6
330
1F
100
AcDbEntity
  8
0
 62
     7
100
AcDbCircle
 10
6.913973795979213
 20
8.968183164654226
 30
0.0
 40
0.007473878353639
100
AcDbArc
 50
270.0
 51
0.0
  0
LINE
  5
8A7
330
1F
100
AcDbEntity
  8
0
 62
     7
100
AcDbLine
 10
6.921264506034766
 20
9.347397007916011
 30
0.0
 11
6.734417547193785
 21
9.347397007916011
 31
0.0
  0
LINE
  5
8A8
330
1F
100
AcDbEntity
  8
0
 62
     7
100
AcDbLine
 10
6.874735934622602
 20
9.238737561055961
 30
0.0
 11
6.828024194912366
 21
9.238737561055961
 31
0.0
  0
ARC
  5
8A9
330
1F
100
AcDbEntity
  8
0
 62
     7
100
AcDbCircle
 10
6.721399043614962
 20
9.345538441942451
 30
0.0
 40
0.0150000738557537
100
AcDbArc
 50
270.0
 51
0.0
  0
ARC
  5
8AA
330
1F
100
AcDbEntity
  8
0
 62
     7
100
AcDbCircle
 10
6.698898932831333
 20
9.36803855272608
 30
0.0
 40
0.0150000738557537
100
AcDbArc
 50
270.0
 51
0.0
  0
ARC
  5
8AB
330
1F
100
AcDbEntity
  8
0
 62
     7
100
AcDbCircle
 10
6.874735934622602
 20
9.285449300766202
 30
0.0
 40
0.0467117397102446
100
AcDbArc
 50
270.0
 51
90.0
  0
LINE
  5
8AC
330
1F
100
AcDbEntity
  8
0
 62
     7
100
AcDbLine
 10
6.921447674332853
 20
9.249948378586436
 30
0.0
 11
6.921447674332846
 21
9.513028896634528
 31
0.0
  0
LINE
  5
8AD
330
1F
100
AcDbEntity
  8
0
 62
     7
100
AcDbLine
 10
6.932658491863307
 20
9.238737561055971
 30
0.0
 11
6.921447674332853
 21
9.249948378586436
 31
0.0
  0
LINE
  5
8AE
330
1F
100
AcDbEntity
  8
0
 62
     7
100
AcDbLine
 10
6.921447674332846
 20
9.227526743525512
 30
0.0
 11
6.932658491863307
 21
9.238737561055971
 31
0.0
  0
ARC
  5
8AF
330
1F
100
AcDbEntity
  8
0
 62
     7
100
AcDbCircle
 10
6.932658491863307
 20
9.513028896634528
 30
0.0
 40
0.0112108175304594
100
AcDbArc
 50
44.81031190625461
 51
180.0
  0
LINE
  5
8B0
330
1F
100
AcDbEntity
  8
0
 62
     7
100
AcDbLine
 10
7.049250994180081
 20
9.005552556422431
 30
0.0
 11
7.049250994180081
 21
9.403162884836028
 31
0.0
  0
LINE
  5
8B1
330
1F
100
AcDbEntity
  8
0
 62
     7
100
AcDbLine
 10
7.135200595246924
 20
9.005552556422431
 30
0.0
 11
7.049250994180081
 21
9.005552556422431
 31
0.0
  0
LINE
  5
8B2
330
1F
100
AcDbEntity
  8
0
 62
     7
100
AcDbLine
 10
7.049250994180081
 20
8.915866016178766
 30
0.0
 11
7.135200595246924
 21
8.915866016178766
 31
0.0
  0
LINE
  5
8B3
330
1F
100
AcDbEntity
  8
0
 62
     7
100
AcDbLine
 10
7.049250994180081
 20
8.891202217611738
 30
0.0
 11
7.049250994180081
 21
8.915866016178766
 31
0.0
  0
ARC
  5
8B4
330
1F
100
AcDbEntity
  8
0
 62
     7
100
AcDbCircle
 10
7.004407724058243
 20
8.891202217611738
 30
0.0
 40
0.0448432701218342
100
AcDbArc
 50
270.0
 51
359.9999999999993
  0
ARC
  5
8B5
330
1F
100
AcDbEntity
  8
0
 62
     7
100
AcDbCircle
 10
7.135200595246924
 20
8.990604799715155
 30
0.0
 40
0.0149477567072779
100
AcDbArc
 50
0.0
 51
90.0
  0
ARC
  5
8B6
330
1F
100
AcDbEntity
  8
0
 62
     7
100
AcDbCircle
 10
7.135200595246924
 20
8.930813772886043
 30
0.0
 40
0.0149477567072785
100
AcDbArc
 50
270.0
 51
0.0000000000032569
  0
LINE
  5
8B7
330
1F
100
AcDbEntity
  8
0
 62
     7
100
AcDbLine
 10
7.1501483519542
 20
8.930813772886043
 30
0.0
 11
7.150148351954193
 21
8.990604799715155
 31
0.0
  0
LINE
  5
8B8
330
1F
100
AcDbEntity
  8
0
 62
     7
100
AcDbLine
 10
7.049250994180081
 20
9.403162884836028
 30
0.0
 11
7.135200595246914
 21
9.403162884836028
 31
0.0
  0
LINE
  5
8B9
330
1F
100
AcDbEntity
  8
0
 62
     7
100
AcDbLine
 10
6.98833261521268
 20
9.50107069126871
 30
0.0
 11
6.996186457869235
 21
9.50107069126871
 31
0.0
  0
LINE
  5
8BA
330
1F
100
AcDbEntity
  8
0
 62
     7
100
AcDbLine
 10
7.016882598634655
 20
9.158019525359074
 30
0.0
 11
7.016882598634655
 21
9.319455297797684
 31
0.0
  0
ARC
  5
8BB
330
1F
100
AcDbEntity
  8
0
 62
     7
100
AcDbCircle
 10
6.996186457869235
 20
9.538440083036906
 30
0.0
 40
0.0373693917681962
100
AcDbArc
 50
270.0
 51
359.9999999999959
  0
ARC
  5
8BC
330
1F
100
AcDbEntity
  8
0
 62
     7
100
AcDbCircle
 10
7.135200595246914
 20
9.418110641543318
 30
0.0
 40
0.0149477567072783
100
AcDbArc
 50
270.0
 51
359.9999999999985
  0
ARC
  5
8BD
330
1F
100
AcDbEntity
  8
0
 62
     7
100
AcDbCircle
 10
6.98833261521268
 20
9.574314699134365
 30
0.0
 40
0.0672649051827508
100
AcDbArc
 50
90.0
 51
135.1896880937516
  0
LINE
  5
8BE
330
1F
100
AcDbEntity
  8
0
 62
     7
100
AcDbLine
 10
6.734417547193785
 20
9.808188090663996
 30
0.0
 11
7.138006978290295
 21
9.750986439012516
 31
0.0
  0
ARC
  5
8BF
330
1F
100
AcDbEntity
  8
0
 62
     7
100
AcDbCircle
 10
6.830145026096758
 20
9.800214621003222
 30
0.0
 40
0.0937504615984608
100
AcDbArc
 50
81.94934348029986
 51
180.5646799282999
  0
ARC
  5
8C0
330
1F
100
AcDbEntity
  8
0
 62
     7
100
AcDbCircle
 10
6.698168253433696
 20
9.879086750170348
 30
0.0
 40
0.0157307532533945
100
AcDbArc
 50
0.0
 51
103.0395730453999
  0
ARC
  5
8C1
330
1F
100
AcDbEntity
  8
0
 62
     7
100
AcDbCircle
 10
6.917109099231126
 20
9.930541555493
 30
0.0
 40
0.0150002424565839
100
AcDbArc
 50
103.0395345179999
 51
270.0
  0
ARC
  5
8C2
330
1F
100
AcDbEntity
  8
0
 62
     7
100
AcDbCircle
 10
6.936395431040121
 20
9.690907201451141
 30
0.0
 40
0.0149477567072779
100
AcDbArc
 50
90.0
 51
180.0
  0
ARC
  5
8C3
330
1F
100
AcDbEntity
  8
0
 62
     7
100
AcDbCircle
 10
6.932658491863307
 20
9.629621398951298
 30
0.0
 40
0.0112108175304642
100
AcDbArc
 50
179.999999999993
 51
315.1896880937413
  0
LINE
  5
8C4
330
1F
100
AcDbEntity
  8
0
 62
     7
100
AcDbLine
 10
6.921447674332835
 20
9.629621398951298
 30
0.0
 11
6.921447674332835
 21
9.690907201451141
 31
0.0
  0
LINE
  5
8C5
330
1F
100
AcDbEntity
  8
0
 62
     7
100
AcDbLine
 10
7.138006978290306
 20
9.706143168890678
 30
0.0
 11
7.051585881842655
 21
9.706143168890678
 31
0.0
  0
LINE
  5
8C6
330
1F
100
AcDbEntity
  8
0
 62
     7
100
AcDbLine
 10
6.996186457869235
 20
9.641579604317122
 30
0.0
 11
6.98833261521268
 21
9.641579604317122
 31
0.0
  0
ARC
  5
8C7
330
1F
100
AcDbEntity
  8
0
 62
     7
100
AcDbCircle
 10
6.996186457869235
 20
9.604210212548924
 30
0.0
 40
0.0373693917681962
100
AcDbArc
 50
0.0
 51
90.0
  0
LINE
  5
8C8
330
1F
100
AcDbEntity
  8
0
 62
     7
100
AcDbLine
 10
7.138006978290295
 20
9.750986439012516
 30
0.0
 11
7.138006978290306
 21
9.706143168890678
 31
0.0
  0
ARC
  5
8C9
330
1F
100
AcDbEntity
  8
0
 62
     7
100
AcDbCircle
 10
7.165096108661476
 20
9.574314699134371
 30
0.0
 40
0.0149477567072786
100
AcDbArc
 50
90.0
 51
179.9999999999973
  0
LINE
  5
8CA
330
1F
100
AcDbEntity
  8
0
 62
     7
100
AcDbLine
 10
5.981316769629174
 20
16.94124545579832
 30
0.0
 11
5.981316769629174
 21
16.89453371608807
 31
0.0
  0
LINE
  5
8CB
330
1F
100
AcDbEntity
  8
0
 62
     7
100
AcDbLine
 10
5.7944698107882
 20
16.94124545579833
 30
0.0
 11
5.7944698107882
 21
16.89453371608809
 31
0.0
  0
LWPOLYLINE
  5
8CC
330
1F
100
AcDbEntity
  8
0
 62
     7
100
AcDbPolyline
 90
       14
 70
     1
 43
0.0
 10
5.278772204387099
 20
17.60417846576611
 10
5.550821376459563
 20
17.60417846576612
 10
5.550821376459563
 20
17.58175683070518
 42
1.0
 10
5.610612403288673
 20
17.58175683070518
 10
5.610612403288673
 20
17.59670458741248
 42
0.4142135623730908
 10
5.565769133166835
 20
17.64154785753432
 10
5.233928934265261
 20
17.64154785753432
 10
5.233928934265261
 20
15.77307826912454
 10
5.565769133166835
 20
15.77307826912454
 42
0.4142135623730907
 10
5.610612403288673
 20
15.81792153924637
 10
5.610612403288673
 20
15.83286929595367
 42
1.0
 10
5.550821376459555
 20
15.83286929595367
 10
5.550821376459555
 20
15.81044766089273
 10
5.278772204387099
 20
15.81044766089275
  0
LWPOLYLINE
  5
8CD
330
1F
100
AcDbEntity
  8
0
 62
     7
100
AcDbPolyline
 90
       53
 70
     1
 43
0.0
 10
5.719731027251793
 20
16.05260131955064
 10
5.719731027251793
 20
16.46441201683616
 10
5.701046331367702
 20
16.48309671272026
 10
5.701046331367692
 20
16.69610224579898
 10
5.712257148898149
 20
16.70731306332943
 10
5.701046331367692
 20
16.7185238808599
 10
5.701046331367692
 20
16.93152941393861
 10
5.719731027251793
 20
16.95021410982271
 10
5.7197310272518
 20
17.49207029046152
 10
5.517319963981133
 20
17.49207029046152
 10
5.438713201154964
 20
17.44668665478371
 42
-1.000000000000005
 10
5.408817687740405
 20
17.49846720293609
 10
5.545312472557142
 20
17.57727250369301
 42
0.8490904586570023
 10
5.618086281642305
 20
17.58923070905884
 10
5.618086281642305
 20
17.61912622247341
 42
-0.4142135623731124
 10
5.640507916703214
 20
17.64154785753432
 10
6.728704604993026
 20
17.6415478575343
 10
6.728704604993026
 20
17.36501435844967
 42
-0.4142135623730994
 10
6.706282969932114
 20
17.34259272338874
 10
6.676387456517556
 20
17.34259272338874
 42
-0.4142135623730871
 10
6.653965821456637
 20
17.36501435844967
 10
6.653965821456637
 20
17.52196580387607
 42
0.4142135623730894
 10
6.609122551334799
 20
17.56680907399792
 10
5.839313080910017
 20
17.56680907399793
 42
0.4142135623731006
 10
5.794469810788189
 20
17.5219658038761
 10
5.794469810788189
 20
16.87547532628631
 10
5.805680628318643
 20
16.86426450875585
 10
5.794469810788189
 20
16.8530536912254
 10
5.794469810788189
 20
16.56157243543346
 10
5.805680628318643
 20
16.55036161790302
 10
5.794469810788189
 20
16.53915080037255
 10
5.794469810788189
 20
15.96590433064843
 42
-0.66937649506875
 10
5.775305547064967
 20
15.95800337353173
 42
0.1997729274168698
 10
5.727584869908351
 20
15.97786253601425
 10
5.719731027251793
 20
15.97786253601425
 42
0.4142135623730951
 10
5.682361635483605
 20
15.94049314424606
 10
5.682361635483605
 20
15.87472301473403
 42
0.4142135623731054
 10
5.719731027251793
 20
15.83735362296584
 10
5.727584869908351
 20
15.83735362296584
 42
0.1997729274168814
 10
5.775305547064956
 20
15.85721278544836
 42
-0.6693764950686888
 10
5.794469810788189
 20
15.84931182833166
 10
5.794469810788189
 20
15.78802602583182
 42
-0.4142135623730951
 10
5.77952205408091
 20
15.77307826912454
 10
5.640507916703214
 20
15.77307826912454
 42
-0.4142135623731082
 10
5.618086281642305
 20
15.79549990418545
 10
5.618086281642305
 20
15.82539541760003
 42
0.8490904586569916
 10
5.54531247255716
 20
15.83735362296586
 10
5.408817687740405
 20
15.91615892372279
 42
-1.000000000000009
 10
5.438713201154964
 20
15.96793947187515
 10
5.517319963981133
 20
15.92255583619735
 10
5.618086281642305
 20
15.92255583619735
 10
5.618086281642305
 20
16.0077580494288
 42
-0.4142135623730517
 10
5.662929551764133
 20
16.05260131955064
  0
LINE
  5
8CF
330
1F
100
AcDbEntity
  8
0
 62
     7
100
AcDbLine
 10
5.143360942445404
 20
13.83463728353439
 30
0.0
 11
6.974935502270035
 21
13.83463728353439
 31
0.0
  0
INSERT
  5
8D0
330
1F
100
AcDbEntity
  8
0
 62
     7
100
AcDbBlockReference
  2
_ARCHTICK
 10
5.998591118502702
 20
12.43179973690595
 30
0.0
 41
0.18684695888769
 42
0.18684695888769
 43
0.18684695888769
  0
INSERT
  5
8D1
330
1F
100
AcDbEntity
  8
0
 62
     7
100
AcDbBlockReference
  2
_ARCHTICK
 10
6.185438077343683
 20
12.42090326160932
 30
0.0
 41
0.18684695888769
 42
0.18684695888769
 43
0.18684695888769
 50
180.0
  0
MTEXT
  5
8D3
330
1F
100
AcDbEntity
  8
0
 62
     7
100
AcDbMText
 10
5.366260691760221
 20
12.41051844396608
 30
0.0
 40
0.3321723713558932
 41
0.0
 71
     5
 72
     1
  1
\A1;{\H0.98x;\S1/4;}"
 73
     1
 44
1.0
  0
LINE
  5
8D4
330
1F
100
AcDbEntity
  8
0
 62
     7
100
AcDbLine
 10
5.998591118502702
 20
12.95628959555227
 30
0.0
 11
5.998591118502702
 21
12.18267045838903
 31
0.0
  0
LINE
  5
8D5
330
1F
100
AcDbEntity
  8
DIM
 62
     7
100
AcDbLine
 10
5.998591118502702
 20
12.42090326160932
 30
0.0
 11
5.54718560288645
 21
12.42090326160932
 31
0.0
  0
LINE
  5
8DA
330
1F
100
AcDbEntity
  8
0
 62
     7
100
AcDbLine
 10
6.185438077343683
 20
12.95628959555227
 30
0.0
 11
6.185438077343683
 21
12.18267045838903
 31
0.0
  0
3DFACE
  5
8DE
330
1F
100
AcDbEntity
  8
0
 62
     7
100
AcDbFace
 10
5.981316769629174
 20
14.27830259839671
 30
0.0
 11
6.168163728470148
 21
16.14677218680649
 31
0.0
 12
5.981316769629174
 22
16.14677218680649
 32
0.0
 13
5.981316769629174
 23
16.14677218680649
 33
0.0
 70
     1
  0
LINE
  5
8DF
330
1F
100
AcDbEntity
  8
0
 62
     7
100
AcDbLine
 10
5.701046331367724
 20
16.80102055012736
 30
0.0
 11
6.198059241884728
 21
16.80102055012736
 31
0.0
  0
LINE
  5
8E0
330
1F
100
AcDbEntity
  8
0
 62
     7
100
AcDbLine
 10
5.701046331367724
 20
16.61359810265315
 30
0.0
 11
6.198059241884728
 21
16.61359810265315
 31
0.0
  0
LWPOLYLINE
  5
8E2
330
1F
100
AcDbEntity
  8
0
 62
     7
100
AcDbPolyline
 90
        4
 70
     1
 43
0.0
 10
5.511957209020639
 20
15.77307826912454
 10
5.278772204387099
 20
15.81044766089273
 10
5.278772204387099
 20
15.77307826912454
 10
5.511957209020639
 20
15.81044766089273
  0
LINE
  5
8E3
330
1F
100
AcDbEntity
  8
0
 62
     7
100
AcDbLine
 10
5.98149993792726
 20
15.67074513661894
 30
0.0
 11
5.577910506830754
 21
15.72794678827042
 31
0.0
  0
LINE
  5
8E4
330
1F
100
AcDbEntity
  8
0
 62
     7
100
AcDbLine
 10
5.577910506830747
 20
15.77279005839226
 30
0.0
 11
5.664331603278398
 21
15.77279005839226
 31
0.0
  0
LINE
  5
8E5
330
1F
100
AcDbEntity
  8
0
 62
     7
100
AcDbLine
 10
5.577910506830754
 20
15.72794678827042
 30
0.0
 11
5.577910506830747
 21
15.77279005839226
 31
0.0
  0
LINE
  5
8E6
330
1F
100
AcDbEntity
  8
0
 62
     7
100
AcDbLine
 10
5.794469810788189
 20
16.80671564543283
 30
0.0
 11
5.701046331367699
 21
16.80671564543283
 31
0.0
  0
LINE
  5
8E7
330
1F
100
AcDbEntity
  8
0
 62
     7
100
AcDbLine
 10
5.794469810788189
 20
16.60791048122604
 30
0.0
 11
5.701046331367699
 21
16.60791048122604
 31
0.0
  0
LINE
  5
8E8
330
1F
100
AcDbEntity
  8
0
 62
     7
100
AcDbLine
 10
5.566755685109541
 20
16.55565312377738
 30
0.0
 11
5.671150817953172
 21
16.55565312377738
 31
0.0
  0
LINE
  5
8E9
330
1F
100
AcDbEntity
  8
0
 62
     7
100
AcDbLine
 10
5.566755685109541
 20
16.63147935661423
 30
0.0
 11
5.671150817953172
 21
16.63147935661423
 31
0.0
  0
LINE
  5
8EA
330
1F
100
AcDbEntity
  8
0
 62
     7
100
AcDbLine
 10
5.566755685109541
 20
16.78313929616628
 30
0.0
 11
5.671150817953172
 21
16.78313929616628
 31
0.0
  0
LINE
  5
8EB
330
1F
100
AcDbEntity
  8
0
 62
     7
100
AcDbLine
 10
5.566755685109541
 20
16.85896552900312
 30
0.0
 11
5.671150817953172
 21
16.85896552900312
 31
0.0
  0
LINE
  5
8EC
330
1F
100
AcDbEntity
  8
0
 62
     7
100
AcDbLine
 10
5.540653164959447
 20
16.8210505441151
 30
0.0
 11
5.540653164959447
 21
16.59356437172621
 31
0.0
  0
LINE
  5
8ED
330
1F
100
AcDbEntity
  8
0
 62
     7
100
AcDbLine
 10
5.563822187855731
 20
16.84676815952998
 30
0.0
 11
5.563822187855731
 21
16.56785049325052
 31
0.0
  0
ARC
  5
8EE
330
1F
100
AcDbEntity
  8
0
 62
     7
100
AcDbCircle
 10
5.581243798298064
 20
16.59356437172621
 30
0.0
 40
0.0405925765469861
100
AcDbArc
 50
110.9106999999999
 51
249.0893000000001
  0
LINE
  5
8EF
330
1F
100
AcDbEntity
  8
0
 62
     7
100
AcDbLine
 10
5.549842298395248
 20
16.56785049325052
 30
0.0
 11
5.563822187855731
 21
16.56785049325052
 31
0.0
  0
LINE
  5
8F0
330
1F
100
AcDbEntity
  8
0
 62
     7
100
AcDbLine
 10
5.549842298395248
 20
16.84676815952998
 30
0.0
 11
5.563822187855731
 21
16.84676815952998
 31
0.0
  0
ARC
  5
8F1
330
1F
100
AcDbEntity
  8
0
 62
     7
100
AcDbCircle
 10
5.581243798298064
 20
16.8210505441151
 30
0.0
 40
0.0405925765469861
100
AcDbArc
 50
110.9106999999999
 51
249.0893000000001
  0
ARC
  5
8F2
330
1F
100
AcDbEntity
  8
0
 62
     7
100
AcDbCircle
 10
5.663860049619195
 20
16.70731306332942
 30
0.0
 40
0.123206249380081
100
AcDbArc
 50
142.0123000000002
 51
217.9876999999997
  0
LINE
  5
8F3
330
1F
100
AcDbEntity
  8
0
 62
     7
100
AcDbLine
 10
5.701046331367724
 20
16.89416002217041
 30
0.0
 11
5.701046331367724
 21
16.52046610448844
 31
0.0
  0
LINE
  5
8F4
330
1F
100
AcDbEntity
  8
0
 62
     7
100
AcDbLine
 10
5.671150817953172
 20
16.89416002217041
 30
0.0
 11
5.671150817953172
 21
16.52046610448844
 31
0.0
  0
LINE
  5
8F5
330
1F
100
AcDbEntity
  8
0
 62
     7
100
AcDbLine
 10
5.671150817953172
 20
16.52046610448844
 30
0.0
 11
5.701046331367724
 21
16.52046610448844
 31
0.0
  0
LINE
  5
8F6
330
1F
100
AcDbEntity
  8
0
 62
     7
100
AcDbLine
 10
5.671150817953172
 20
16.89416002217041
 30
0.0
 11
5.701046331367724
 21
16.89416002217041
 31
0.0
  0
LINE
  5
8F7
330
1F
100
AcDbEntity
  8
0
 62
     7
100
AcDbLine
 10
5.981316769629174
 20
16.52009241057077
 30
0.0
 11
5.981316769629174
 21
16.47338067086053
 31
0.0
  0
LINE
  5
8F8
330
1F
100
AcDbEntity
  8
0
 62
     7
100
AcDbLine
 10
5.7944698107882
 20
16.52009241057077
 30
0.0
 11
5.7944698107882
 21
16.47338067086053
 31
0.0
  0
LINE
  5
8F9
330
1F
100
AcDbEntity
  8
0
 62
     7
100
AcDbLine
 10
5.794652979086286
 20
16.13153621936693
 30
0.0
 11
5.98149993792726
 21
16.13153621936693
 31
0.0
  0
LINE
  5
8FA
330
1F
100
AcDbEntity
  8
0
 62
     7
100
AcDbLine
 10
5.981316769629174
 20
16.47338067086053
 30
0.0
 11
5.7944698107882
 21
16.47338067086053
 31
0.0
  0
LINE
  5
8FB
330
1F
100
AcDbEntity
  8
0
 62
     7
100
AcDbLine
 10
7.218132677786581
 20
13.85083077150754
 30
0.0
 11
7.315411477086367
 21
13.93179802050913
 31
0.0
  0
LINE
  5
8FC
330
1F
100
AcDbEntity
  8
0
 62
     7
100
AcDbLine
 10
7.315411477086367
 20
13.93179802050913
 30
0.0
 11
6.893869895275898
 21
13.75367022539699
 31
0.0
  0
LINE
  5
8FD
330
1F
100
AcDbEntity
  8
0
 62
     7
100
AcDbLine
 10
6.893869895275898
 20
13.75367022539699
 30
0.0
 11
6.974935502270035
 21
13.83463728353439
 31
0.0
  0
LINE
  5
8FE
330
1F
100
AcDbEntity
  8
0
 62
     7
100
AcDbLine
 10
6.71550293311618
 20
16.14839485919625
 30
0.0
 11
6.408589625444374
 21
16.14839485919625
 31
0.0
  0
LINE
  5
8FF
330
1F
100
AcDbEntity
  8
0
 62
     7
100
AcDbLine
 10
6.693002822332545
 20
16.12589474841261
 30
0.0
 11
6.417908996805092
 21
16.12589474841261
 31
0.0
  0
LINE
  5
900
330
1F
100
AcDbEntity
  8
0
 62
     7
100
AcDbLine
 10
6.226491165747521
 20
15.66847500049336
 30
0.0
 11
6.777378237771166
 21
15.54089186803822
 31
0.0
  0
LINE
  5
901
330
1F
100
AcDbEntity
  8
0
 62
     7
100
AcDbLine
 10
6.248991804308758
 20
15.68636122663463
 30
0.0
 11
6.688722907809562
 21
15.58452134970638
 31
0.0
  0
LINE
  5
902
330
1F
100
AcDbEntity
  8
0
 62
     7
100
AcDbLine
 10
6.168163728470148
 20
15.54553488577027
 30
0.0
 11
6.775416344703334
 21
15.54553488577027
 31
0.0
  0
LINE
  5
903
330
1F
100
AcDbEntity
  8
0
 62
     7
100
AcDbLine
 10
6.276867552184661
 20
16.02191656458193
 30
0.0
 11
6.168163728470148
 21
16.13062038829643
 31
0.0
  0
LINE
  5
904
330
1F
100
AcDbEntity
  8
0
 62
     7
100
AcDbLine
 10
6.303290701716118
 20
16.04834046150122
 30
0.0
 11
6.211009230908064
 21
16.14062193230927
 31
0.0
  0
LINE
  5
905
330
1F
100
AcDbEntity
  8
0
 62
     7
100
AcDbLine
 10
6.407301612527593
 20
16.12150102600427
 30
0.0
 11
6.241769301447366
 21
15.95596871492405
 31
0.0
  0
LINE
  5
906
330
1F
100
AcDbEntity
  8
0
 62
     7
100
AcDbLine
 10
6.329716840798916
 20
16.07476660058402
 30
0.0
 11
6.268031185807153
 21
16.13645001341228
 31
0.0
  0
LINE
  5
907
330
1F
100
AcDbEntity
  8
0
 62
     7
100
AcDbLine
 10
6.39798297152047
 20
16.1440014392644
 30
0.0
 11
6.219268888112249
 21
15.96528735593117
 31
0.0
  0
ARC
  5
908
330
1F
100
AcDbEntity
  8
0
 62
     7
100
AcDbCircle
 10
6.229875542036154
 20
15.6830882894197
 30
0.0
 40
0.0150000738557537
100
AcDbArc
 50
180.0
 51
256.9604269546
  0
LINE
  5
909
330
1F
100
AcDbEntity
  8
0
 62
     7
100
AcDbLine
 10
6.250443655265367
 20
15.99549341505048
 30
0.0
 11
6.168163728470148
 21
16.07777109968218
 31
0.0
  0
LINE
  5
90A
330
1F
100
AcDbEntity
  8
0
 62
     7
100
AcDbLine
 10
6.22401751618257
 20
15.96906727596767
 30
0.0
 11
6.168163728470148
 21
16.02492405323143
 31
0.0
  0
LWPOLYLINE
  5
90B
330
1F
100
AcDbEntity
  8
0
 62
     7
100
AcDbPolyline
 90
        4
 70
     1
 43
0.0
 10
6.214875468180398
 20
15.67827436437213
 10
6.214875468180398
 20
15.95854480263359
 10
6.168163728470148
 20
15.95854480263359
 10
6.168163728470148
 20
15.67827436437213
  0
LINE
  5
90C
330
1F
100
AcDbEntity
  8
0
 62
     7
100
AcDbLine
 10
6.214875468180395
 20
15.95468070200726
 30
0.0
 11
6.214875468180395
 21
15.6830882894197
 31
0.0
  0
ARC
  5
90D
330
1F
100
AcDbEntity
  8
0
 62
     7
100
AcDbCircle
 10
6.229875542036154
 20
15.95468070200726
 30
0.0
 40
0.0150000738557537
100
AcDbArc
 50
134.9999999999998
 51
180.0000000000999
  0
LINE
  5
90E
330
1F
100
AcDbEntity
  8
0
 62
     7
100
AcDbLine
 10
6.23737557896403
 20
15.94536133057155
 30
0.0
 11
6.23737557896403
 21
15.70097507071371
 31
0.0
  0
ARC
  5
90F
330
1F
100
AcDbEntity
  8
0
 62
     7
100
AcDbCircle
 10
6.252375652819786
 20
15.70097463781158
 30
0.0
 40
0.0150000738557537
100
AcDbArc
 50
179.9983463642999
 51
256.9624963678
  0
ARC
  5
910
330
1F
100
AcDbEntity
  8
0
 62
     7
100
AcDbCircle
 10
6.252376685799866
 20
15.94536133057155
 30
0.0
 40
0.0150011068358398
100
AcDbArc
 50
134.9999999999998
 51
180.0
  0
LINE
  5
911
330
1F
100
AcDbEntity
  8
0
 62
     7
100
AcDbLine
 10
6.198059241884728
 20
16.61359810265315
 30
0.0
 11
6.44843416673164
 21
16.70731306332942
 31
0.0
  0
LINE
  5
912
330
1F
100
AcDbEntity
  8
0
 62
     7
100
AcDbLine
 10
6.44843416673164
 20
16.70731306332942
 30
0.0
 11
6.198059241884728
 21
16.80102055012736
 31
0.0
  0
ARC
  5
913
330
1F
100
AcDbEntity
  8
0
 62
     7
100
AcDbCircle
 10
6.29686092416848
 20
16.88299554268574
 30
0.0
 40
0.7473878353639128
100
AcDbArc
 50
260.0844729999997
 51
277.7265670000001
  0
LINE
  5
914
330
1F
100
AcDbEntity
  8
0
 62
     7
100
AcDbLine
 10
6.356140737718206
 20
16.10118975011548
 30
0.0
 11
6.320980624391342
 21
16.13634986344233
 31
0.0
  0
ARC
  5
915
330
1F
100
AcDbEntity
  8
0
 62
     7
100
AcDbCircle
 10
6.408589625444374
 20
16.13339478534049
 30
0.0
 40
0.0150000738557537
100
AcDbArc
 50
90.0
 51
134.9999999999998
  0
ARC
  5
916
330
1F
100
AcDbEntity
  8
0
 62
     7
100
AcDbCircle
 10
6.417908996805092
 20
16.11089364172678
 30
0.0
 40
0.0150011066858391
100
AcDbArc
 50
90.0
 51
134.9999999999998
  0
LINE
  5
917
330
1F
100
AcDbEntity
  8
0
 62
     7
100
AcDbLine
 10
6.730503006971936
 20
15.67964255120394
 30
0.0
 11
6.730503006971936
 21
16.13339478534049
 31
0.0
  0
LINE
  5
918
330
1F
100
AcDbEntity
  8
0
 62
     7
100
AcDbLine
 10
6.708002896188304
 20
15.59984647711259
 30
0.0
 11
6.708002896188304
 21
16.11089467455686
 31
0.0
  0
LINE
  5
919
330
1F
100
AcDbEntity
  8
0
 62
     7
100
AcDbLine
 10
6.915551563834064
 20
16.07651713237204
 30
0.0
 11
6.915551563834064
 21
16.40387420008195
 31
0.0
  0
LINE
  5
91A
330
1F
100
AcDbEntity
  8
0
 62
     7
100
AcDbLine
 10
6.915552821267752
 20
16.07651832819256
 30
0.0
 11
7.010987459740047
 21
16.15947845265674
 31
0.0
  0
LINE
  5
91B
330
1F
100
AcDbEntity
  8
0
 62
     7
100
AcDbLine
 10
6.728521436695004
 20
15.67074513661894
 30
0.0
 11
7.13211086779151
 21
15.72794678827042
 31
0.0
  0
ARC
  5
91C
330
1F
100
AcDbEntity
  8
0
 62
     7
100
AcDbCircle
 10
6.824248915597976
 20
15.67871860627972
 30
0.0
 40
0.0937504615984608
100
AcDbArc
 50
179.4353200717
 51
278.0506565197001
  0
ARC
  5
91D
330
1F
100
AcDbEntity
  8
0
 62
     7
100
AcDbCircle
 10
6.692272142934903
 20
15.59984647711259
 30
0.0
 40
0.0157307532533945
100
AcDbArc
 50
256.9604269546
 51
0.0
  0
ARC
  5
91E
330
1F
100
AcDbEntity
  8
0
 62
     7
100
AcDbCircle
 10
6.911212988732344
 20
15.54839167178994
 30
0.0
 40
0.0150002424565839
100
AcDbArc
 50
90.0
 51
256.960465482
  0
LINE
  5
91F
330
1F
100
AcDbEntity
  8
0
 62
     7
100
AcDbLine
 10
7.132110867791517
 20
15.77279005839226
 30
0.0
 11
7.045689771343862
 21
15.77279005839226
 31
0.0
  0
LINE
  5
920
330
1F
100
AcDbEntity
  8
0
 62
     7
100
AcDbLine
 10
7.13211086779151
 20
15.72794678827042
 30
0.0
 11
7.132110867791517
 21
15.77279005839226
 31
0.0
  0
LINE
  5
921
330
1F
100
AcDbEntity
  8
0
 62
     7
100
AcDbLine
 10
6.915552945115898
 20
16.40387300426142
 30
0.0
 11
7.010986861829781
 21
16.32091325349116
 31
0.0
  0
LINE
  5
922
330
1F
100
AcDbEntity
  8
0
 62
     7
100
AcDbLine
 10
6.915368395535978
 20
16.13153621936693
 30
0.0
 11
6.728521436695004
 21
16.13153621936693
 31
0.0
  0
ARC
  5
923
330
1F
100
AcDbEntity
  8
0
 62
     7
100
AcDbCircle
 10
6.693002822332545
 20
16.11089467455686
 30
0.0
 40
0.0150000738557537
100
AcDbArc
 50
0.0
 51
90.0
  0
ARC
  5
924
330
1F
100
AcDbEntity
  8
0
 62
     7
100
AcDbCircle
 10
6.71550293311618
 20
16.13339478534049
 30
0.0
 40
0.0150000738557537
100
AcDbArc
 50
0.0
 51
90.0
  0
LINE
  5
925
330
1F
100
AcDbEntity
  8
0
 62
     7
100
AcDbLine
 10
7.010986488135863
 20
16.32091370192387
 30
0.0
 11
7.010986488135863
 21
16.15947792948525
 31
0.0
  0
CIRCLE
  5
926
330
1F
100
AcDbEntity
  8
0
 62
     7
100
AcDbCircle
 10
6.107625313806501
 20
17.82839481637504
 30
0.0
 40
0.1868469588412267
  0
ARC
  5
927
330
1F
100
AcDbEntity
  8
0
 62
     7
100
AcDbCircle
 10
5.500372697572828
 20
17.82839481637555
 30
0.0
 40
0.2335586985512228
100
AcDbArc
 50
306.8698976457422
 51
53.13010235425762
  0
LINE
  5
928
330
1F
100
AcDbEntity
  8
0
 62
     7
100
AcDbLine
 10
5.7944698107882
 20
16.94124545579833
 30
0.0
 11
5.981316769629174
 21
16.94124545579832
 31
0.0
  0
LINE
  5
929
330
1F
100
AcDbEntity
  8
0
 62
     7
100
AcDbLine
 10
7.158452610327341
 20
17.64154785753432
 30
0.0
 11
7.158452610327341
 21
18.01524177521627
 31
0.0
  0
LINE
  5
92A
330
1F
100
AcDbEntity
  8
0
 62
     7
100
AcDbLine
 10
6.915552821267752
 20
17.33810779846629
 30
0.0
 11
7.010987459740047
 21
17.25514767400211
 31
0.0
  0
LINE
  5
92B
330
1F
100
AcDbEntity
  8
0
 62
     7
100
AcDbLine
 10
6.915552945115898
 20
17.01075312239743
 30
0.0
 11
7.010986861829781
 21
17.09371287316769
 31
0.0
  0
LINE
  5
92C
330
1F
100
AcDbEntity
  8
0
 62
     7
100
AcDbLine
 10
6.915551563834064
 20
17.33810899428682
 30
0.0
 11
6.915551563834064
 21
17.01075192657689
 31
0.0
  0
LINE
  5
92D
330
1F
100
AcDbEntity
  8
0
 62
     7
100
AcDbLine
 10
6.915728473499491
 20
17.6418415415217
 30
0.0
 11
6.728881514658514
 21
17.6418415415217
 31
0.0
  0
LINE
  5
92E
330
1F
100
AcDbEntity
  8
0
 62
     7
100
AcDbLine
 10
6.728881514658514
 20
17.3727819207907
 30
0.0
 11
6.915728473499491
 21
17.3727819207907
 31
0.0
  0
LINE
  5
92F
330
1F
100
AcDbEntity
  8
0
 62
     7
100
AcDbLine
 10
7.010986488135863
 20
17.09371242473499
 30
0.0
 11
7.010986488135863
 21
17.2551481971736
 31
0.0
  0
LINE
  5
932
330
1F
100
AcDbEntity
  8
0
 62
     7
100
AcDbLine
 10
10.79252623751984
 20
10.08410300551186
 30
0.0
 11
10.79252623751984
 21
11.07444860136276
 31
0.0
  0
LINE
  5
933
330
1F
100
AcDbEntity
  8
0
 62
     7
100
AcDbLine
 10
12.28694494441041
 20
9.31945544727527
 30
0.0
 11
11.63298058846698
 21
9.31945544727527
 31
0.0
  0
LINE
  5
934
330
1F
100
AcDbEntity
  8
0
 62
     7
100
AcDbLine
 10
12.28694494441041
 20
9.158019674836666
 30
0.0
 11
11.63298058846698
 21
9.158019674836666
 31
0.0
  0
LINE
  5
935
330
1F
100
AcDbEntity
  8
0
 62
     7
100
AcDbLine
 10
12.28694494441041
 20
8.223784880631777
 30
0.0
 11
11.63298058846698
 21
8.223784880631777
 31
0.0
  0
LINE
  5
936
330
1F
100
AcDbEntity
  8
0
 62
     7
100
AcDbLine
 10
12.28694494441041
 20
8.385220653070385
 30
0.0
 11
11.63298058846698
 21
8.385220653070385
 31
0.0
  0
POLYLINE
  5
937
330
1F
100
AcDbEntity
  8
0
 62
     7
100
AcDbPolyFaceMesh
 66
     1
 10
0.0
 20
0.0
 30
0.0
 70
    64
  0
VERTEX
  5
938
330
937
100
AcDbEntity
  8
0
 62
     7
100
AcDbVertex
100
AcDbPolyFaceMeshVertex
 10
8.273669379978038
 20
9.968530298600562
 30
0.0
 70
   192
  0
VERTEX
  5
939
330
937
100
AcDbEntity
  8
0
 62
     7
100
AcDbVertex
100
AcDbPolyFaceMeshVertex
 10
8.324467836372051
 20
10.00594976535372
 30
0.0
 70
   192
  0
VERTEX
  5
93A
330
937
100
AcDbEntity
  8
0
 62
     7
100
AcDbVertex
100
AcDbPolyFaceMeshVertex
 10
8.755643352471842
 20
9.706194178836486
 30
0.0
 70
   192
  0
VERTEX
  5
93B
330
937
100
AcDbEntity
  8
0
 62
     7
100
AcDbVertex
100
AcDbPolyFaceMeshVertex
 10
7.699958035020316
 20
9.799617658256977
 30
0.0
 70
   192
  0
VERTEX
  5
93C
330
937
100
AcDbEntity
  8
0
 62
     7
100
AcDbVertex
100
AcDbPolyFaceMeshVertex
 10
7.849435602093098
 20
9.799617658256977
 30
0.0
 70
   192
  0
VERTEX
  5
93D
330
937
100
AcDbEntity
  8
0
 62
     7
100
AcDbVertex
100
AcDbPolyFaceMeshVertex
 10
7.998913169165877
 20
9.846329397967217
 30
0.0
 70
   192
  0
VERTEX
  5
93E
330
937
100
AcDbEntity
  8
0
 62
     7
100
AcDbVertex
100
AcDbPolyFaceMeshVertex
 10
8.601830188566111
 20
9.810880045548085
 30
0.0
 70
   192
  0
VERTEX
  5
93F
330
937
100
AcDbEntity
  8
0
 62
     7
100
AcDbVertex
100
AcDbPolyFaceMeshVertex
 10
8.325895347137592
 20
9.846329397967217
 30
0.0
 70
   192
  0
VERTEX
  5
940
330
937
100
AcDbEntity
  8
0
 62
     7
100
AcDbVertex
100
AcDbPolyFaceMeshVertex
 10
7.924174385629498
 20
9.799617658256977
 30
0.0
 70
   192
  0
VERTEX
  5
941
330
937
100
AcDbEntity
  8
0
 62
     7
100
AcDbVertex
100
AcDbPolyFaceMeshVertex
 10
7.774696818556709
 20
9.799617658256977
 30
0.0
 70
   192
  0
VERTEX
  5
942
330
937
100
AcDbEntity
  8
0
 62
     7
100
AcDbVertex
100
AcDbPolyFaceMeshVertex
 10
7.625219251483919
 20
9.799617658256977
 30
0.0
 70
   192
  0
VERTEX
  5
943
330
937
100
AcDbEntity
  8
0
 62
     7
100
AcDbVertex
100
AcDbPolyFaceMeshVertex
 10
8.325201023838538
 20
10.00451403332199
 30
0.0
 70
   192
  0
VERTEX
  5
944
330
937
100
AcDbEntity
  8
0
 62
     7
100
AcDbVertex
100
AcDbPolyFaceMeshVertex
 10
8.337156987040856
 20
10.07555324707333
 30
0.0
 70
   192
  0
VERTEX
  5
945
330
937
100
AcDbEntity
  8
0
 62
     7
100
AcDbVertex
100
AcDbPolyFaceMeshVertex
 10
7.625219251483919
 20
9.706194178836486
 30
0.0
 70
   192
  0
VERTEX
  5
946
330
937
100
AcDbEntity
  8
0
 62
     7
100
AcDbVertex
100
AcDbPolyFaceMeshVertex
 10
7.737327426788514
 20
9.893041137677466
 30
0.0
 70
   192
  0
VERTEX
  5
947
330
937
100
AcDbEntity
  8
0
 62
     7
100
AcDbVertex
100
AcDbPolyFaceMeshVertex
 10
7.812066210324903
 20
9.893041137677466
 30
0.0
 70
   192
  0
VERTEX
  5
948
330
937
100
AcDbEntity
  8
0
 62
     7
100
AcDbVertex
100
AcDbPolyFaceMeshVertex
 10
7.886804993861293
 20
9.893041137677466
 30
0.0
 70
   192
  0
VERTEX
  5
949
330
937
100
AcDbEntity
  8
0
 62
     7
100
AcDbVertex
100
AcDbPolyFaceMeshVertex
 10
7.961543777397686
 20
9.893041137677466
 30
0.0
 70
   192
  0
VERTEX
  5
94A
330
937
100
AcDbEntity
  8
0
 62
     7
100
AcDbVertex
100
AcDbPolyFaceMeshVertex
 10
8.23250400539403
 20
10.09488592821069
 30
0.0
 70
   192
  0
VERTEX
  5
94B
330
937
100
AcDbEntity
  8
0
 62
     7
100
AcDbVertex
100
AcDbPolyFaceMeshVertex
 10
8.232471867717105
 20
10.22936566359122
 30
0.0
 70
   192
  0
VERTEX
  5
94C
330
937
100
AcDbEntity
  8
0
 62
     7
100
AcDbVertex
100
AcDbPolyFaceMeshVertex
 10
8.461176282277641
 20
9.934899340784863
 30
0.0
 70
   192
  0
VERTEX
  5
94D
330
937
100
AcDbEntity
  8
0
 62
     7
100
AcDbFaceRecord
 10
0.0
 20
0.0
 30
0.0
 70
   128
 71
    -1
 72
     2
 73
   -12
 74
     8
  0
VERTEX
  5
94E
330
937
100
AcDbEntity
  8
0
 62
     7
100
AcDbFaceRecord
 10
0.0
 20
0.0
 30
0.0
 70
   128
 71
    -2
 72
     1
 73
    19
  0
VERTEX
  5
94F
330
937
100
AcDbEntity
  8
0
 62
     7
100
AcDbFaceRecord
 10
0.0
 20
0.0
 30
0.0
 70
   128
 71
    -3
 72
    -4
 73
   -10
 74
    -5
  0
VERTEX
  5
950
330
937
100
AcDbEntity
  8
0
 62
     7
100
AcDbFaceRecord
 10
0.0
 20
0.0
 30
0.0
 70
   128
 71
    -4
 72
     3
 73
    14
 74
   -11
  0
VERTEX
  5
951
330
937
100
AcDbEntity
  8
0
 62
     7
100
AcDbFaceRecord
 10
0.0
 20
0.0
 30
0.0
 70
   128
 71
    -3
 72
    -5
 73
     9
 74
    -6
  0
VERTEX
  5
952
330
937
100
AcDbEntity
  8
0
 62
     7
100
AcDbFaceRecord
 10
0.0
 20
0.0
 30
0.0
 70
   128
 71
    -3
 72
     6
 73
    -8
 74
     7
  0
VERTEX
  5
953
330
937
100
AcDbEntity
  8
0
 62
     7
100
AcDbFaceRecord
 10
0.0
 20
0.0
 30
0.0
 70
   128
 71
    -7
 72
    -8
 73
    13
 74
    21
  0
VERTEX
  5
954
330
937
100
AcDbEntity
  8
0
 62
     7
100
AcDbFaceRecord
 10
0.0
 20
0.0
 30
0.0
 70
   128
 71
    -9
 72
     5
 73
    18
  0
VERTEX
  5
955
330
937
100
AcDbEntity
  8
0
 62
     7
100
AcDbFaceRecord
 10
0.0
 20
0.0
 30
0.0
 70
   128
 71
    -5
 72
    10
 73
    17
  0
VERTEX
  5
956
330
937
100
AcDbEntity
  8
0
 62
     7
100
AcDbFaceRecord
 10
0.0
 20
0.0
 30
0.0
 70
   128
 71
   -10
 72
     4
 73
    16
  0
VERTEX
  5
957
330
937
100
AcDbEntity
  8
0
 62
     7
100
AcDbFaceRecord
 10
0.0
 20
0.0
 30
0.0
 70
   128
 71
    -4
 72
    11
 73
    15
  0
VERTEX
  5
958
330
937
100
AcDbEntity
  8
0
 62
     7
100
AcDbFaceRecord
 10
0.0
 20
0.0
 30
0.0
 70
   128
 71
    -8
 72
    12
 73
    20
 74
   -13
  0
SEQEND
  5
959
330
937
100
AcDbEntity
  8
0
 62
     7
  0
CIRCLE
  5
95A
330
1F
100
AcDbEntity
  8
0
 62
     7
100
AcDbCircle
 10
7.949105947958223
 20
8.771620163953516
 30
0.0
 40
0.1588199150148315
  0
LINE
  5
95B
330
1F
100
AcDbEntity
  8
0
 62
     7
100
AcDbLine
 10
7.930047558156445
 20
8.752561774151731
 30
0.0
 11
7.930047558156445
 21
8.671778128276242
 31
0.0
  0
LINE
  5
95C
330
1F
100
AcDbEntity
  8
0
 62
     7
100
AcDbLine
 10
7.968164337760001
 20
8.752561774151731
 30
0.0
 11
7.968164337760001
 21
8.671778128276242
 31
0.0
  0
LINE
  5
95D
330
1F
100
AcDbEntity
  8
0
 62
     7
100
AcDbLine
 10
8.042526437827373
 20
8.304502955850885
 30
0.0
 11
7.961807804220235
 21
8.385220653070385
 31
0.0
  0
LINE
  5
95E
330
1F
100
AcDbEntity
  8
0
 62
     7
100
AcDbLine
 10
8.042526437827373
 20
8.30450257785127
 30
0.0
 11
7.961808551608068
 21
8.223785104848129
 31
0.0
  0
ARC
  5
95F
330
1F
100
AcDbEntity
  8
0
 62
     7
100
AcDbCircle
 10
7.949105947958223
 20
8.771620163953516
 30
0.0
 40
0.1016447456094922
100
AcDbArc
 50
259.1930771251396
 51
280.8069228748603
  0
ARC
  5
960
330
1F
100
AcDbEntity
  8
0
 62
     7
100
AcDbCircle
 10
-7.918556271271064
 20
9.165363040613911
 30
0.0
 40
0.7473878353639128
210
0.0
220
0.0
230
-1.0
100
AcDbArc
 50
83.43336211487102
 51
99.78876599999987
  0
LINE
  5
961
330
1F
100
AcDbEntity
  8
0
 62
     7
100
AcDbLine
 10
8.001386947657028
 20
10.07614864094253
 30
0.0
 11
7.822672864248808
 21
9.897434557609312
 31
0.0
  0
LINE
  5
962
330
1F
100
AcDbEntity
  8
0
 62
     7
100
AcDbLine
 10
7.978887332925836
 20
10.08546628466975
 30
0.0
 11
7.813353037710843
 21
9.919931989379751
 31
0.0
  0
LINE
  5
963
330
1F
100
AcDbEntity
  8
0
 62
     7
100
AcDbLine
 10
7.849263912280949
 20
8.752561774151731
 30
0.0
 11
7.930047558156445
 21
8.752561774151731
 31
0.0
  0
LINE
  5
964
330
1F
100
AcDbEntity
  8
0
 62
     7
100
AcDbLine
 10
7.849263912280949
 20
8.790678553755295
 30
0.0
 11
7.930047558156445
 21
8.790678553755295
 31
0.0
  0
ARC
  5
965
330
1F
100
AcDbEntity
  8
0
 62
     7
100
AcDbCircle
 10
7.949105947958223
 20
8.771620163953516
 30
0.0
 40
0.1016447456094922
100
AcDbArc
 50
169.1930771251396
 51
190.8069228748602
  0
ARC
  5
966
330
1F
100
AcDbEntity
  8
0
 62
     7
100
AcDbCircle
 10
7.802753007294555
 20
9.930532019871044
 30
0.0
 40
0.014990706759633
100
AcDbArc
 50
270.0
 51
314.9999999999998
  0
ARC
  5
967
330
1F
100
AcDbEntity
  8
0
 62
     7
100
AcDbCircle
 10
7.812066210324903
 20
9.90804121153322
 30
0.0
 40
0.0150000738557537
100
AcDbArc
 50
270.0
 51
314.9999999999998
  0
LINE
  5
968
330
1F
100
AcDbEntity
  8
0
 62
     7
100
AcDbLine
 10
7.968164337760001
 20
8.752561774151731
 30
0.0
 11
8.048947983635496
 21
8.752561774151731
 31
0.0
  0
LINE
  5
969
330
1F
100
AcDbEntity
  8
0
 62
     7
100
AcDbLine
 10
7.968164337760001
 20
8.790678553755295
 30
0.0
 11
8.048947983635496
 21
8.790678553755295
 31
0.0
  0
ARC
  5
96A
330
1F
100
AcDbEntity
  8
0
 62
     7
100
AcDbCircle
 10
7.949105947958223
 20
8.771620163953516
 30
0.0
 40
0.1016447456094922
100
AcDbArc
 50
79.19307712513968
 51
100.8069228748603
  0
LINE
  5
96B
330
1F
100
AcDbEntity
  8
0
 62
     7
100
AcDbLine
 10
7.930047558156445
 20
8.871462199630787
 30
0.0
 11
7.930047558156445
 21
8.790678553755295
 31
0.0
  0
LINE
  5
96C
330
1F
100
AcDbEntity
  8
0
 62
     7
100
AcDbLine
 10
7.968164337760001
 20
8.871462199630787
 30
0.0
 11
7.968164337760001
 21
8.790678553755295
 31
0.0
  0
ARC
  5
96D
330
1F
100
AcDbEntity
  8
0
 62
     7
100
AcDbCircle
 10
7.949105947958223
 20
8.771620163953516
 30
0.0
 40
0.1016447456094922
100
AcDbArc
 50
349.1930771251396
 51
10.80692287486034
  0
LINE
  5
96E
330
1F
100
AcDbEntity
  8
0
 62
     7
100
AcDbLine
 10
8.042526437827373
 20
9.238737750055758
 30
0.0
 11
7.961808551608068
 21
9.319455223058897
 31
0.0
  0
LINE
  5
96F
330
1F
100
AcDbEntity
  8
0
 62
     7
100
AcDbLine
 10
8.042526437827373
 20
9.238737372056142
 30
0.0
 11
7.961807804220235
 21
9.158019674836644
 31
0.0
  0
LINE
  5
970
330
1F
100
AcDbEntity
  8
0
 62
     7
100
AcDbLine
 10
8.045624908876128
 20
9.901869656482755
 30
0.0
 11
8.232471867717105
 21
9.901869656482755
 31
0.0
  0
LINE
  5
971
330
1F
100
AcDbEntity
  8
0
 62
     7
100
AcDbLine
 10
8.045624908876128
 20
10.06955882293986
 30
0.0
 11
7.887846105115954
 21
9.911780019179683
 31
0.0
  0
LINE
  5
972
330
1F
100
AcDbEntity
  8
0
 62
     7
100
AcDbLine
 10
8.045624908876128
 20
9.963861740487015
 30
0.0
 11
7.990800274213015
 21
9.909037853211742
 31
0.0
  0
LINE
  5
973
330
1F
100
AcDbEntity
  8
0
 62
     7
100
AcDbLine
 10
8.045624908876128
 20
10.01670878693776
 30
0.0
 11
7.941066845484385
 21
9.912150723546034
 31
0.0
  0
LWPOLYLINE
  5
974
330
1F
100
AcDbEntity
  8
0
100
AcDbPolyline
 90
        4
 70
     1
 43
0.0
 10
8.005780367513885
 20
10.20229671595689
 10
8.045224270204027
 20
10.20229671595689
 10
8.045224270204027
 20
10.08754087465313
 10
8.005780367513885
 20
10.08754087465313
  0
LINE
  5
975
330
1F
100
AcDbEntity
  8
0
 62
     7
100
AcDbLine
 10
8.005780367513885
 20
10.20229671595688
 30
0.0
 11
8.005780367513885
 21
10.08675529486643
 31
0.0
  0
LINE
  5
976
330
1F
100
AcDbEntity
  8
0
 62
     7
100
AcDbLine
 10
7.983280325055588
 20
10.17398795204823
 30
0.0
 11
7.983280325055588
 21
10.09607190583856
 31
0.0
  0
ARC
  5
977
330
1F
100
AcDbEntity
  8
0
 62
     7
100
AcDbCircle
 10
7.968281711757025
 20
10.09607190583856
 30
0.0
 40
0.0149986133735628
100
AcDbArc
 50
314.9999999999998
 51
0.0
  0
ARC
  5
978
330
1F
100
AcDbEntity
  8
0
 62
     7
100
AcDbCircle
 10
7.990780293658126
 20
10.08675529486643
 30
0.0
 40
0.0150000738557537
100
AcDbArc
 50
315.0000000001
 51
0.0
  0
ARC
  5
979
330
1F
100
AcDbEntity
  8
0
 62
     7
100
AcDbCircle
 10
7.990780293658126
 20
10.20229671595688
 30
0.0
 40
0.0150000738557537
100
AcDbArc
 50
0.0
 51
103.0395345177998
  0
ARC
  5
97A
330
1F
100
AcDbEntity
  8
0
 62
     7
100
AcDbCircle
 10
7.968280365575395
 20
10.17398795204823
 30
0.0
 40
0.0149999594801906
100
AcDbArc
 50
0.0
 51
103.0395345177998
  0
CIRCLE
  5
97B
330
1F
100
AcDbEntity
  8
0
 62
     7
100
AcDbCircle
 10
9.070187701004087
 20
8.771620163953516
 30
0.0
 40
0.1588199150148315
  0
LINE
  5
97C
330
1F
100
AcDbEntity
  8
0
 62
     7
100
AcDbLine
 10
9.051129311202313
 20
8.752561774151731
 30
0.0
 11
9.051129311202313
 21
8.671778128276242
 31
0.0
  0
LINE
  5
97D
330
1F
100
AcDbEntity
  8
0
 62
     7
100
AcDbLine
 10
9.089246090805872
 20
8.752561774151731
 30
0.0
 11
9.089246090805872
 21
8.671778128276242
 31
0.0
  0
ARC
  5
97E
330
1F
100
AcDbEntity
  8
0
 62
     7
100
AcDbCircle
 10
9.070187701004087
 20
8.771620163953516
 30
0.0
 40
0.1016447456094922
100
AcDbArc
 50
259.1930771251396
 51
280.8069228748603
  0
ARC
  5
97F
330
1F
100
AcDbEntity
  8
0
 62
     7
100
AcDbCircle
 10
9.070187701004087
 20
8.771620163953516
 30
0.0
 40
0.1016447456094922
100
AcDbArc
 50
79.19307712513968
 51
100.8069228748603
  0
LINE
  5
980
330
1F
100
AcDbEntity
  8
0
 62
     7
100
AcDbLine
 10
8.970345665326817
 20
8.752561774151731
 30
0.0
 11
9.051129311202313
 21
8.752561774151731
 31
0.0
  0
LINE
  5
981
330
1F
100
AcDbEntity
  8
0
 62
     7
100
AcDbLine
 10
8.970345665326817
 20
8.790678553755295
 30
0.0
 11
9.051129311202313
 21
8.790678553755295
 31
0.0
  0
ARC
  5
982
330
1F
100
AcDbEntity
  8
0
 62
     7
100
AcDbCircle
 10
9.070187701004087
 20
8.771620163953516
 30
0.0
 40
0.1016447456094922
100
AcDbArc
 50
169.1930771251396
 51
190.8069228748602
  0
LINE
  5
983
330
1F
100
AcDbEntity
  8
0
 62
     7
100
AcDbLine
 10
9.051129311202313
 20
8.871462199630787
 30
0.0
 11
9.051129311202313
 21
8.790678553755295
 31
0.0
  0
LINE
  5
984
330
1F
100
AcDbEntity
  8
0
 62
     7
100
AcDbLine
 10
9.089246090805872
 20
8.752561774151731
 30
0.0
 11
9.17002973668136
 21
8.752561774151731
 31
0.0
  0
LINE
  5
985
330
1F
100
AcDbEntity
  8
0
 62
     7
100
AcDbLine
 10
9.089246090805872
 20
8.790678553755295
 30
0.0
 11
9.17002973668136
 21
8.790678553755295
 31
0.0
  0
LINE
  5
986
330
1F
100
AcDbEntity
  8
0
 62
     7
100
AcDbLine
 10
9.089246090805872
 20
8.871462199630787
 30
0.0
 11
9.089246090805872
 21
8.790678553755295
 31
0.0
  0
ARC
  5
987
330
1F
100
AcDbEntity
  8
0
 62
     7
100
AcDbCircle
 10
9.070187701004087
 20
8.771620163953516
 30
0.0
 40
0.1016447456094922
100
AcDbArc
 50
349.1930771251396
 51
10.80692287486034
  0
INSERT
  5
989
330
1F
100
AcDbEntity
  8
0
 62
     7
100
AcDbBlockReference
  2
_ARCHTICK
 10
10.79252623751984
 20
9.897256046670888
 30
0.0
 41
-0.1868469588409778
 42
0.1868469588409778
 43
0.1868469588409782
 50
90.0
  0
INSERT
  5
98A
330
1F
100
AcDbEntity
  8
0
 62
     7
100
AcDbBlockReference
  2
_ARCHTICK
 10
10.79252623751984
 20
9.704948589792433
 30
0.0
 41
-0.1868469588409778
 42
0.1868469588409778
 43
0.1868469588409782
 50
270.0
  0
LINE
  5
98B
330
1F
100
AcDbEntity
  8
0
 62
     7
100
AcDbLine
 10
9.811661785394253
 20
9.704948589792433
 30
0.0
 11
10.97937319636083
 21
9.704948589792433
 31
0.0
  0
LINE
  5
98C
330
1F
100
AcDbEntity
  8
0
 62
     7
100
AcDbLine
 10
10.17221106424818
 20
8.752561774151731
 30
0.0
 11
10.17221106424818
 21
8.671778128276242
 31
0.0
  0
LINE
  5
98D
330
1F
100
AcDbEntity
  8
0
 62
     7
100
AcDbLine
 10
10.21032784385174
 20
8.752561774151731
 30
0.0
 11
10.21032784385174
 21
8.671778128276242
 31
0.0
  0
CIRCLE
  5
98E
330
1F
100
AcDbEntity
  8
0
 62
     7
100
AcDbCircle
 10
10.19126945404997
 20
8.771620163953516
 30
0.0
 40
0.1588199150148315
  0
LINE
  5
98F
330
1F
100
AcDbEntity
  8
0
 62
     7
100
AcDbLine
 10
10.02534935459919
 20
8.024232328589611
 30
0.0
 11
10.02534935459919
 21
7.276844493225683
 31
0.0
  0
ARC
  5
990
330
1F
100
AcDbEntity
  8
0
 62
     7
100
AcDbCircle
 10
10.19126945404997
 20
8.771620163953516
 30
0.0
 40
0.1016447456094922
100
AcDbArc
 50
259.1930771251396
 51
280.8069228748603
  0
LINE
  5
991
330
1F
100
AcDbEntity
  8
0
 62
     7
100
AcDbLine
 10
10.21032784385174
 20
8.752561774151731
 30
0.0
 11
10.29111148972723
 21
8.752561774151731
 31
0.0
  0
LINE
  5
992
330
1F
100
AcDbEntity
  8
0
 62
     7
100
AcDbLine
 10
10.21032784385174
 20
8.790678553755295
 30
0.0
 11
10.29111148972723
 21
8.790678553755295
 31
0.0
  0
LINE
  5
993
330
1F
100
AcDbEntity
  8
0
 62
     7
100
AcDbLine
 10
10.09142741837269
 20
8.752561774151731
 30
0.0
 11
10.17221106424818
 21
8.752561774151731
 31
0.0
  0
LINE
  5
994
330
1F
100
AcDbEntity
  8
0
 62
     7
100
AcDbLine
 10
10.09142741837269
 20
8.790678553755295
 30
0.0
 11
10.17221106424818
 21
8.790678553755295
 31
0.0
  0
ARC
  5
995
330
1F
100
AcDbEntity
  8
0
 62
     7
100
AcDbCircle
 10
10.19126945404997
 20
8.771620163953516
 30
0.0
 40
0.1016447456094922
100
AcDbArc
 50
169.1930771251396
 51
190.8069228748602
  0
LINE
  5
996
330
1F
100
AcDbEntity
  8
0
 62
     7
100
AcDbLine
 10
10.21032784385174
 20
8.871462199630787
 30
0.0
 11
10.21032784385174
 21
8.790678553755295
 31
0.0
  0
LINE
  5
997
330
1F
100
AcDbEntity
  8
0
 62
     7
100
AcDbLine
 10
10.17221106424818
 20
8.871462199630787
 30
0.0
 11
10.17221106424818
 21
8.790678553755295
 31
0.0
  0
ARC
  5
998
330
1F
100
AcDbEntity
  8
0
 62
     7
100
AcDbCircle
 10
10.19126945404997
 20
8.771620163953516
 30
0.0
 40
0.1016447456094922
100
AcDbArc
 50
79.19307712513968
 51
100.8069228748603
  0
LINE
  5
999
330
1F
100
AcDbEntity
  8
0
 62
     7
100
AcDbLine
 10
10.79252623751984
 20
9.704948589792433
 30
0.0
 11
10.79252623751984
 21
9.518101630951456
 31
0.0
  0
ARC
  5
99A
330
1F
100
AcDbEntity
  8
0
 62
     7
100
AcDbCircle
 10
10.19126945404997
 20
8.771620163953516
 30
0.0
 40
0.1016447456094922
100
AcDbArc
 50
349.1930771251396
 51
10.80692287486034
  0
LINE
  5
99B
330
1F
100
AcDbEntity
  8
0
 62
     7
100
AcDbLine
 10
10.79252623751984
 20
9.897256046670888
 30
0.0
 11
10.79252623751984
 21
10.08410300551186
 31
0.0
  0
CIRCLE
  5
99C
330
1F
100
AcDbEntity
  8
0
 62
     7
100
AcDbCircle
 10
11.31235120709583
 20
8.771620163953516
 30
0.0
 40
0.1588199150148315
  0
LINE
  5
99D
330
1F
100
AcDbEntity
  8
0
 62
     7
100
AcDbLine
 10
11.29329281729405
 20
8.752561774151731
 30
0.0
 11
11.29329281729405
 21
8.671778128276242
 31
0.0
  0
LINE
  5
99E
330
1F
100
AcDbEntity
  8
0
 62
     7
100
AcDbLine
 10
11.33140959689762
 20
8.752561774151731
 30
0.0
 11
11.33140959689762
 21
8.671778128276242
 31
0.0
  0
ARC
  5
99F
330
1F
100
AcDbEntity
  8
0
 62
     7
100
AcDbCircle
 10
11.31235120709583
 20
8.771620163953516
 30
0.0
 40
0.1016447456094922
100
AcDbArc
 50
259.1930771251396
 51
280.8069228748603
  0
LINE
  5
9A0
330
1F
100
AcDbEntity
  8
0
 62
     7
100
AcDbLine
 10
11.63298058846698
 20
8.385220653070385
 30
0.0
 11
11.53955710904649
 21
8.304502766851081
 31
0.0
  0
LINE
  5
9A1
330
1F
100
AcDbEntity
  8
0
 62
     7
100
AcDbLine
 10
11.53955710904649
 20
8.304502766851081
 30
0.0
 11
11.63298058846698
 21
8.223784880631777
 31
0.0
  0
LINE
  5
9A2
330
1F
100
AcDbEntity
  8
0
 62
     7
100
AcDbLine
 10
11.33140959689762
 20
8.752561774151731
 30
0.0
 11
11.4121932427731
 21
8.752561774151731
 31
0.0
  0
LINE
  5
9A3
330
1F
100
AcDbEntity
  8
0
 62
     7
100
AcDbLine
 10
11.33140959689762
 20
8.790678553755295
 30
0.0
 11
11.4121932427731
 21
8.790678553755295
 31
0.0
  0
LINE
  5
9A4
330
1F
100
AcDbEntity
  8
0
 62
     7
100
AcDbLine
 10
11.33140959689762
 20
8.871462199630787
 30
0.0
 11
11.33140959689762
 21
8.790678553755295
 31
0.0
  0
LINE
  5
9A5
330
1F
100
AcDbEntity
  8
0
 62
     7
100
AcDbLine
 10
11.29329281729405
 20
8.871462199630787
 30
0.0
 11
11.29329281729405
 21
8.790678553755295
 31
0.0
  0
LINE
  5
9A6
330
1F
100
AcDbEntity
  8
0
 62
     7
100
AcDbLine
 10
11.21250917141855
 20
8.752561774151731
 30
0.0
 11
11.29329281729405
 21
8.752561774151731
 31
0.0
  0
LINE
  5
9A7
330
1F
100
AcDbEntity
  8
0
 62
     7
100
AcDbLine
 10
11.21250917141855
 20
8.790678553755295
 30
0.0
 11
11.29329281729405
 21
8.790678553755295
 31
0.0
  0
ARC
  5
9A8
330
1F
100
AcDbEntity
  8
0
 62
     7
100
AcDbCircle
 10
11.31235120709583
 20
8.771620163953516
 30
0.0
 40
0.1016447456094922
100
AcDbArc
 50
169.1930771251396
 51
190.8069228748602
  0
ARC
  5
9A9
330
1F
100
AcDbEntity
  8
0
 62
     7
100
AcDbCircle
 10
11.31235120709583
 20
8.771620163953516
 30
0.0
 40
0.1016447456094922
100
AcDbArc
 50
79.19307712513968
 51
100.8069228748603
  0
ARC
  5
9AA
330
1F
100
AcDbEntity
  8
0
 62
     7
100
AcDbCircle
 10
11.31235120709583
 20
8.771620163953516
 30
0.0
 40
0.1016447456094922
100
AcDbArc
 50
349.1930771251396
 51
10.80692287486034
  0
LINE
  5
9AB
330
1F
100
AcDbEntity
  8
0
 62
     7
100
AcDbLine
 10
11.53955710904649
 20
9.238737561055971
 30
0.0
 11
11.63298058846698
 21
9.31945544727527
 31
0.0
  0
LINE
  5
9AC
330
1F
100
AcDbEntity
  8
0
 62
     7
100
AcDbLine
 10
11.63298058846698
 20
9.158019674836666
 30
0.0
 11
11.53955710904649
 21
9.238737561055971
 31
0.0
  0
LINE
  5
9AD
330
1F
100
AcDbEntity
  8
0
 62
     7
100
AcDbLine
 10
13.08739731608513
 20
9.682723493393044
 30
0.0
 11
13.08739731608513
 21
7.860516834514047
 31
0.0
  0
LINE
  5
9AE
330
1F
100
AcDbEntity
  8
0
 62
     7
100
AcDbLine
 10
13.04255404596329
 20
8.000315917857989
 30
0.0
 11
13.04255404596329
 21
9.542924410049101
 31
0.0
  0
LINE
  5
9AF
330
1F
100
AcDbEntity
  8
0
 62
     7
100
AcDbLine
 10
12.1060770882523
 20
9.578051638311182
 30
0.0
 11
12.1060770882523
 21
7.965188689595844
 31
0.0
  0
LINE
  5
9B0
330
1F
100
AcDbEntity
  8
0
 62
     7
100
AcDbLine
 10
12.28694494441041
 20
9.227526743525523
 30
0.0
 11
12.28694494441041
 21
8.315713584381535
 31
0.0
  0
LINE
  5
9B1
330
1F
100
AcDbEntity
  8
0
 62
     7
100
AcDbLine
 10
12.17035244209364
 20
9.566840820780733
 30
0.0
 11
12.17035244209364
 21
7.97639950712632
 31
0.0
  0
CIRCLE
  5
9B2
330
1F
100
AcDbEntity
  8
0
 62
     7
100
AcDbCircle
 10
12.69057193363776
 20
7.650538410907651
 30
0.0
 40
0.1868469588409842
  0
LINE
  5
9B3
330
1F
100
AcDbEntity
  8
0
 62
     7
100
AcDbLine
 10
12.30936657947133
 20
7.953977872065401
 30
0.0
 11
12.70697690788492
 21
7.953977872065401
 31
0.0
  0
ARC
  5
9B4
330
1F
100
AcDbEntity
  8
0
 62
     7
100
AcDbCircle
 10
12.27370327154051
 20
8.236603406652664
 30
0.0
 40
0.1162756077174699
100
AcDbArc
 50
314.9188334096753
 51
337.442548985433
  0
ARC
  5
9B5
330
1F
100
AcDbEntity
  8
0
 62
     7
100
AcDbCircle
 10
12.17526033252544
 20
8.27749550075932
 30
0.0
 40
0.2228738047113714
100
AcDbArc
 50
337.442548985433
 51
350.2372979526587
  0
ARC
  5
9B6
330
1F
100
AcDbEntity
  8
0
 62
     7
100
AcDbCircle
 10
12.17526033252545
 20
8.331510032942837
 30
0.0
 40
0.2228738047113705
100
AcDbArc
 50
9.762702047341127
 51
22.55745101456685
  0
ARC
  5
9B7
330
1F
100
AcDbEntity
  8
0
 62
     7
100
AcDbCircle
 10
12.27370327154051
 20
8.372402127049493
 30
0.0
 40
0.1162756077174701
100
AcDbArc
 50
22.55745101456685
 51
51.43854960384753
  0
LINE
  5
9B8
330
1F
100
AcDbEntity
  8
0
 62
     7
100
AcDbLine
 10
12.28694494441041
 20
8.145682851836248
 30
0.0
 11
12.28694494441041
 21
8.463322681865918
 31
0.0
  0
ARC
  5
9B9
330
1F
100
AcDbEntity
  8
0
 62
     7
100
AcDbCircle
 10
12.14793080703271
 20
7.97639950712632
 30
0.0
 40
0.0224216350609172
100
AcDbArc
 50
270.0
 51
359.9999999999989
  0
LINE
  5
9BA
330
1F
100
AcDbEntity
  8
0
 62
     7
100
AcDbLine
 10
12.28694494441041
 20
8.293291949320622
 30
0.0
 11
12.28694494441041
 21
7.97639950712632
 31
0.0
  0
ARC
  5
9BB
330
1F
100
AcDbEntity
  8
0
 62
     7
100
AcDbCircle
 10
12.30936657947133
 20
7.97639950712632
 30
0.0
 40
0.0224216350609176
100
AcDbArc
 50
180.0000000000016
 51
270.0
  0
LINE
  5
9BC
330
1F
100
AcDbEntity
  8
0
 62
     7
100
AcDbLine
 10
12.27573412687994
 20
8.304502766851081
 30
0.0
 11
12.28694494441041
 21
8.293291949320622
 31
0.0
  0
LINE
  5
9BD
330
1F
100
AcDbEntity
  8
0
 62
     7
100
AcDbLine
 10
12.28694494441041
 20
8.315713584381535
 30
0.0
 11
12.27573412687994
 21
8.304502766851081
 31
0.0
  0
ARC
  5
9BE
330
1F
100
AcDbEntity
  8
0
 62
     7
100
AcDbCircle
 10
12.33435043518321
 20
8.175784170648309
 30
0.0
 40
0.0303858066578602
100
AcDbArc
 50
262.1535442896996
 51
270.0
  0
ARC
  5
9BF
330
1F
100
AcDbEntity
  8
0
 62
     7
100
AcDbCircle
 10
12.33435043518321
 20
8.175784170648309
 30
0.0
 40
0.0303858066578601
100
AcDbArc
 50
270.0
 51
314.9188334096753
  0
LINE
  5
9C0
330
1F
100
AcDbEntity
  8
0
 62
     7
100
AcDbLine
 10
12.28694494441041
 20
8.145682851836248
 30
0.0
 11
12.33849866999136
 21
8.145682851836248
 31
0.0
  0
LINE
  5
9C1
330
1F
100
AcDbEntity
  8
0
 62
     7
100
AcDbLine
 10
12.34618409425894
 20
8.463322681865918
 30
0.0
 11
12.28694494441041
 21
8.463322681865918
 31
0.0
  0
ARC
  5
9C2
330
1F
100
AcDbEntity
  8
0
 62
     7
100
AcDbCircle
 10
12.01829580098513
 20
8.304502766851081
 30
0.0
 40
0.3821448208549965
100
AcDbArc
 50
0.0
 51
9.762702047341127
  0
ARC
  5
9C3
330
1F
100
AcDbEntity
  8
0
 62
     7
100
AcDbCircle
 10
12.01829580098513
 20
8.304502766851081
 30
0.0
 40
0.3821448208549972
100
AcDbArc
 50
350.2372979526587
 51
0.0
  0
ARC
  5
9C4
330
1F
100
AcDbEntity
  8
0
 62
     7
100
AcDbCircle
 10
12.83179067639068
 20
7.923334970815485
 30
0.0
 40
0.0224216350609156
100
AcDbArc
 50
270.0
 51
0.0000000000067173
  0
LINE
  5
9C5
330
1F
100
AcDbEntity
  8
0
 62
     7
100
AcDbLine
 10
12.70697690788492
 20
7.953977872065401
 30
0.0
 11
12.76004144419576
 21
7.900913335754571
 31
0.0
  0
LINE
  5
9C6
330
1F
100
AcDbEntity
  8
0
 62
     7
100
AcDbLine
 10
13.0747027234058
 20
7.855258562057461
 30
0.0
 11
13.01265853254874
 21
7.917302752914523
 31
0.0
  0
LINE
  5
9C7
330
1F
100
AcDbEntity
  8
0
 62
     7
100
AcDbLine
 10
12.85421231145159
 20
7.953977872065408
 30
0.0
 11
13.02938320547219
 21
7.890220880732105
 31
0.0
  0
ARC
  5
9C8
330
1F
100
AcDbEntity
  8
0
 62
     7
100
AcDbCircle
 10
13.20440107045047
 20
7.650538410907651
 30
0.0
 40
0.2335586985512347
100
AcDbArc
 50
126.8698976458454
 51
233.1301023541543
  0
LINE
  5
9C9
330
1F
100
AcDbEntity
  8
0
 62
     7
100
AcDbLine
 10
12.88634998837224
 20
7.837385369748623
 30
0.0
 11
12.88634998837224
 21
7.463691452066667
 31
0.0
  0
LINE
  5
9CA
330
1F
100
AcDbEntity
  8
0
 62
     7
100
AcDbLine
 10
12.76004144419576
 20
7.900913335754571
 30
0.0
 11
12.83179067639068
 21
7.900913335754571
 31
0.0
  0
ARC
  5
9CB
330
1F
100
AcDbEntity
  8
0
 62
     7
100
AcDbCircle
 10
13.06426585131972
 20
7.844821689971391
 30
0.0
 40
0.0074363202227572
100
AcDbArc
 50
270.0
 51
45.00000000000355
  0
LINE
  5
9CC
330
1F
100
AcDbEntity
  8
0
 62
     7
100
AcDbLine
 10
13.02938320547219
 20
7.890220880732105
 30
0.0
 11
13.06952412377631
 21
7.85007996242798
 31
0.0
  0
ARC
  5
9CD
330
1F
100
AcDbEntity
  8
0
 62
     7
100
AcDbCircle
 10
13.07996099586238
 20
7.860516834514047
 30
0.0
 40
0.0074363202227484
100
AcDbArc
 50
225.000000000007
 51
0.0
  0
LINE
  5
9CE
330
1F
100
AcDbEntity
  8
0
 62
     7
100
AcDbLine
 10
12.77419585826931
 20
8.000315917857989
 30
0.0
 11
13.04255404596329
 21
8.000315917857989
 31
0.0
  0
LINE
  5
9CF
330
1F
100
AcDbEntity
  8
0
 62
     7
100
AcDbLine
 10
13.01265853254874
 20
7.953977872065429
 30
0.0
 11
12.85421231145159
 21
7.953977872065422
 31
0.0
  0
LINE
  5
9D0
330
1F
100
AcDbEntity
  8
0
 62
     7
100
AcDbLine
 10
12.85421231145159
 20
7.930061461333785
 30
0.0
 11
12.76861342690325
 21
7.979482000370097
 31
0.0
  0
ARC
  5
9D1
330
1F
100
AcDbEntity
  8
0
 62
     7
100
AcDbCircle
 10
12.77419585826931
 20
7.989151055125875
 30
0.0
 40
0.0111648627321128
100
AcDbArc
 50
90.0
 51
239.9999999999964
  0
LINE
  5
9D2
330
1F
100
AcDbEntity
  8
0
 62
     7
100
AcDbLine
 10
12.85421231145159
 20
7.92333497081549
 30
0.0
 11
12.85421231145159
 21
7.953977872065408
 31
0.0
  0
LINE
  5
9D3
330
1F
100
AcDbEntity
  8
0
 62
     7
100
AcDbLine
 10
12.85421231145159
 20
7.953977872065422
 30
0.0
 11
12.85421231145159
 21
7.930061461333785
 31
0.0
  0
LINE
  5
9D4
330
1F
100
AcDbEntity
  8
0
 62
     7
100
AcDbLine
 10
13.01265853254874
 20
7.917302752914523
 30
0.0
 11
13.01265853254874
 21
7.953977872065429
 31
0.0
  0
LINE
  5
9D5
330
1F
100
AcDbEntity
  8
0
 62
     7
100
AcDbLine
 10
12.70697690788492
 20
9.589262455841646
 30
0.0
 11
12.30936657947132
 21
9.589262455841646
 31
0.0
  0
LINE
  5
9D6
330
1F
100
AcDbEntity
  8
0
 62
     7
100
AcDbLine
 10
12.2869449444104
 20
9.566840820780727
 30
0.0
 11
12.28694494441041
 21
9.249948378586431
 31
0.0
  0
LWPOLYLINE
  5
9D7
330
1F
100
AcDbEntity
  8
0
 62
     7
100
AcDbPolyline
 90
        9
 70
     0
 43
0.0
 10
12.34618409425895
 20
9.079917646041133
 42
0.1266889011641713
 10
12.38108325433819
 20
9.126233758876576
 42
0.0558856962682024
 10
12.39490658829857
 20
9.173938031849026
 42
0.0426236080121984
 10
12.40044062184012
 20
9.238737561055971
 42
0.0426236080121983
 10
12.39490658829857
 20
9.303537090262906
 42
0.0558856962682022
 10
12.38108325433819
 20
9.351241363235358
 42
0.0985958869438301
 10
12.35580598597109
 20
9.388972583231417
 42
0.1985442246528007
 10
12.33435043518321
 20
9.397841963916597
 42
0.0342500047400331
 10
12.33020220037505
 20
9.397557476070799
 42
0.0985958869438299
  0
LINE
  5
9D8
330
1F
100
AcDbEntity
  8
0
 62
     7
100
AcDbLine
 10
12.28694494441041
 20
9.397557476070799
 30
0.0
 11
12.28694494441041
 21
9.079917646041133
 31
0.0
  0
LINE
  5
9D9
330
1F
100
AcDbEntity
  8
0
 62
     7
100
AcDbLine
 10
12.34618409425894
 20
9.079917646041133
 30
0.0
 11
12.28694494441041
 21
9.079917646041133
 31
0.0
  0
LINE
  5
9DA
330
1F
100
AcDbEntity
  8
0
 62
     7
100
AcDbLine
 10
12.27573412687994
 20
9.238737561055971
 30
0.0
 11
12.28694494441041
 21
9.227526743525523
 31
0.0
  0
LINE
  5
9DB
330
1F
100
AcDbEntity
  8
0
 62
     7
100
AcDbLine
 10
12.28694494441041
 20
9.249948378586431
 30
0.0
 11
12.27573412687994
 21
9.238737561055971
 31
0.0
  0
LINE
  5
9DC
330
1F
100
AcDbEntity
  8
0
 62
     7
100
AcDbLine
 10
12.28694494441041
 20
9.397557476070799
 30
0.0
 11
12.33849866999136
 21
9.397557476070799
 31
0.0
  0
ARC
  5
9DD
330
1F
100
AcDbEntity
  8
0
 62
     7
100
AcDbCircle
 10
12.14793080703271
 20
9.566840820780733
 30
0.0
 40
0.0224216350609166
100
AcDbArc
 50
359.9999999999957
 51
90.0
  0
ARC
  5
9DE
330
1F
100
AcDbEntity
  8
0
 62
     7
100
AcDbCircle
 10
12.30936657947132
 20
9.566840820780727
 30
0.0
 40
0.0224216350609179
100
AcDbArc
 50
90.0
 51
180.0000000000007
  0
ARC
  5
9DF
330
1F
100
AcDbEntity
  8
0
 62
     7
100
AcDbCircle
 10
12.77419585826931
 20
9.554089272781219
 30
0.0
 40
0.0111648627321141
100
AcDbArc
 50
120.0
 51
270.0
  0
LINE
  5
9E0
330
1F
100
AcDbEntity
  8
0
 62
     7
100
AcDbLine
 10
13.04255404596329
 20
9.542924410049101
 30
0.0
 11
12.77419585826931
 21
9.542924410049101
 31
0.0
  0
LINE
  5
9E1
330
1F
100
AcDbEntity
  8
0
 62
     7
100
AcDbLine
 10
13.02938320547219
 20
9.653019447174941
 30
0.0
 11
12.85421231145159
 21
9.589262455841641
 31
0.0
  0
LINE
  5
9E2
330
1F
100
AcDbEntity
  8
0
 62
     7
100
AcDbLine
 10
12.85421231145159
 20
9.589262455841662
 30
0.0
 11
13.01265853254874
 21
9.589262455841662
 31
0.0
  0
LINE
  5
9E3
330
1F
100
AcDbEntity
  8
0
 62
     7
100
AcDbLine
 10
12.76861342690325
 20
9.563758327536994
 30
0.0
 11
12.85421231145159
 21
9.613178866573305
 31
0.0
  0
ARC
  5
9E4
330
1F
100
AcDbEntity
  8
0
 62
     7
100
AcDbCircle
 10
12.83179067639068
 20
9.619905357091562
 30
0.0
 40
0.0224216350609156
100
AcDbArc
 50
359.9999999999898
 51
90.0
  0
LINE
  5
9E5
330
1F
100
AcDbEntity
  8
0
 62
     7
100
AcDbLine
 10
12.76004144419576
 20
9.642326992152476
 30
0.0
 11
12.70697690788492
 21
9.589262455841646
 31
0.0
  0
LINE
  5
9E6
330
1F
100
AcDbEntity
  8
0
 62
     7
100
AcDbLine
 10
12.83179067639068
 20
9.642326992152476
 30
0.0
 11
12.76004144419576
 21
9.642326992152476
 31
0.0
  0
LINE
  5
9E7
330
1F
100
AcDbEntity
  8
0
 62
     7
100
AcDbLine
 10
12.85421231145159
 20
9.589262455841641
 30
0.0
 11
12.85421231145159
 21
9.619905357091557
 31
0.0
  0
LINE
  5
9E8
330
1F
100
AcDbEntity
  8
0
 62
     7
100
AcDbLine
 10
12.85421231145159
 20
9.613178866573305
 30
0.0
 11
12.85421231145159
 21
9.589262455841662
 31
0.0
  0
ARC
  5
9E9
330
1F
100
AcDbEntity
  8
0
 62
     7
100
AcDbCircle
 10
13.06426585131972
 20
9.698418637935656
 30
0.0
 40
0.0074363202227578
100
AcDbArc
 50
314.9999999999929
 51
90.0
  0
ARC
  5
9EA
330
1F
100
AcDbEntity
  8
0
 62
     7
100
AcDbCircle
 10
13.07996099586238
 20
9.682723493393044
 30
0.0
 40
0.0074363202227489
100
AcDbArc
 50
359.9999999999985
 51
135.0000000000008
  0
LINE
  5
9EB
330
1F
100
AcDbEntity
  8
0
 62
     7
100
AcDbLine
 10
13.01265853254874
 20
9.589262455841662
 30
0.0
 11
13.01265853254874
 21
9.625937574992567
 31
0.0
  0
LINE
  5
9EC
330
1F
100
AcDbEntity
  8
0
 62
     7
100
AcDbLine
 10
13.06952412377631
 20
9.693160365479071
 30
0.0
 11
13.02938320547219
 21
9.653019447174941
 31
0.0
  0
LINE
  5
9ED
330
1F
100
AcDbEntity
  8
0
 62
     7
100
AcDbLine
 10
13.01265853254874
 20
9.625937574992567
 30
0.0
 11
13.0747027234058
 21
9.687981765849624
 31
0.0
  0
LINE
  5
9EE
330
1F
100
AcDbEntity
  8
0
 62
     7
100
AcDbLine
 10
12.28104883391162
 20
17.25514834665116
 30
0.0
 11
11.62708447796819
 21
17.25514834665116
 31
0.0
  0
LINE
  5
9EF
330
1F
100
AcDbEntity
  8
0
 62
     7
100
AcDbLine
 10
12.28104883391162
 20
17.09371257421256
 30
0.0
 11
11.62708447796819
 21
17.09371257421256
 31
0.0
  0
LINE
  5
9F0
330
1F
100
AcDbEntity
  8
0
 62
     7
100
AcDbLine
 10
12.28104883391162
 20
16.15947778000767
 30
0.0
 11
11.62708447796819
 21
16.15947778000767
 31
0.0
  0
LINE
  5
9F1
330
1F
100
AcDbEntity
  8
0
 62
     7
100
AcDbLine
 10
12.28104883391162
 20
16.32091355244628
 30
0.0
 11
11.62708447796819
 21
16.32091355244628
 31
0.0
  0
TEXT
  5
9F4
330
1F
100
AcDbEntity
  8
DIM
 62
     7
100
AcDbText
 10
8.845946960054412
 20
14.2642311911597
 30
0.0
 40
0.2491292784546376
  1
SOLERA-T   TGU
 41
0.8
  7
ADESK1
100
AcDbText
  0
LINE
  5
9F8
330
1F
100
AcDbEntity
  8
0
 62
     7
100
AcDbLine
 10
8.245238951606626
 20
12.92919963228249
 30
0.0
 11
8.245238951606626
 21
12.1717739830924
 31
0.0
  0
LINE
  5
9FA
330
1F
100
AcDbEntity
  8
0
 62
     7
100
AcDbLine
 10
8.058391992765649
 20
12.92919963228249
 30
0.0
 11
8.058391992765649
 21
12.1717739830924
 31
0.0
  0
INSERT
  5
9FB
330
1F
100
AcDbEntity
  8
0
 62
     7
100
AcDbBlockReference
  2
_ARCHTICK
 10
8.245238951606626
 20
12.42090326160932
 30
0.0
 41
0.18684695888769
 42
0.18684695888769
 43
0.18684695888769
 50
180.0
  0
INSERT
  5
9FD
330
1F
100
AcDbEntity
  8
0
 62
     7
100
AcDbBlockReference
  2
_ARCHTICK
 10
8.058391992765649
 20
12.42090326160932
 30
0.0
 41
0.18684695888769
 42
0.18684695888769
 43
0.18684695888769
  0
MTEXT
  5
A00
330
1F
100
AcDbEntity
  8
0
 62
     7
100
AcDbMText
 10
9.112272819283106
 20
12.41683058290019
 30
0.0
 40
0.3321723713558932
 41
0.0
 71
     5
 72
     1
  1
\A1;{\H0.98x;\S1/4;}"
 73
     1
 44
1.0
  0
POLYLINE
  5
A01
330
1F
100
AcDbEntity
  8
0
 62
     7
100
AcDbPolyFaceMesh
 66
     1
 10
0.0
 20
0.0
 30
0.0
 70
    64
  0
VERTEX
  5
A02
330
A01
100
AcDbEntity
  8
0
 62
     7
100
AcDbVertex
100
AcDbPolyFaceMeshVertex
 10
8.267773269479249
 20
15.51040292868238
 30
0.0
 70
   192
  0
VERTEX
  5
A03
330
A01
100
AcDbEntity
  8
0
 62
     7
100
AcDbVertex
100
AcDbPolyFaceMeshVertex
 10
8.318571725873262
 20
15.47298346192922
 30
0.0
 70
   192
  0
VERTEX
  5
A04
330
A01
100
AcDbEntity
  8
0
 62
     7
100
AcDbVertex
100
AcDbPolyFaceMeshVertex
 10
8.749747241973061
 20
15.77273904844645
 30
0.0
 70
   192
  0
VERTEX
  5
A05
330
A01
100
AcDbEntity
  8
0
 62
     7
100
AcDbVertex
100
AcDbPolyFaceMeshVertex
 10
7.694061924521527
 20
15.67931556902596
 30
0.0
 70
   192
  0
VERTEX
  5
A06
330
A01
100
AcDbEntity
  8
0
 62
     7
100
AcDbVertex
100
AcDbPolyFaceMeshVertex
 10
7.843539491594317
 20
15.67931556902596
 30
0.0
 70
   192
  0
VERTEX
  5
A07
330
A01
100
AcDbEntity
  8
0
 62
     7
100
AcDbVertex
100
AcDbPolyFaceMeshVertex
 10
7.993017058667096
 20
15.63260382931572
 30
0.0
 70
   192
  0
VERTEX
  5
A08
330
A01
100
AcDbEntity
  8
0
 62
     7
100
AcDbVertex
100
AcDbPolyFaceMeshVertex
 10
8.59593407806733
 20
15.66805318173486
 30
0.0
 70
   192
  0
VERTEX
  5
A09
330
A01
100
AcDbEntity
  8
0
 62
     7
100
AcDbVertex
100
AcDbPolyFaceMeshVertex
 10
8.31999923663881
 20
15.63260382931572
 30
0.0
 70
   192
  0
VERTEX
  5
A0A
330
A01
100
AcDbEntity
  8
0
 62
     7
100
AcDbVertex
100
AcDbPolyFaceMeshVertex
 10
7.918278275130706
 20
15.67931556902596
 30
0.0
 70
   192
  0
VERTEX
  5
A0B
330
A01
100
AcDbEntity
  8
0
 62
     7
100
AcDbVertex
100
AcDbPolyFaceMeshVertex
 10
7.768800708057923
 20
15.67931556902596
 30
0.0
 70
   192
  0
VERTEX
  5
A0C
330
A01
100
AcDbEntity
  8
0
 62
     7
100
AcDbVertex
100
AcDbPolyFaceMeshVertex
 10
7.619323140985137
 20
15.67931556902596
 30
0.0
 70
   192
  0
VERTEX
  5
A0D
330
A01
100
AcDbEntity
  8
0
 62
     7
100
AcDbVertex
100
AcDbPolyFaceMeshVertex
 10
8.319304913339752
 20
15.47441919396095
 30
0.0
 70
   192
  0
VERTEX
  5
A0E
330
A01
100
AcDbEntity
  8
0
 62
     7
100
AcDbVertex
100
AcDbPolyFaceMeshVertex
 10
8.331260876542074
 20
15.40337998020961
 30
0.0
 70
   192
  0
VERTEX
  5
A0F
330
A01
100
AcDbEntity
  8
0
 62
     7
100
AcDbVertex
100
AcDbPolyFaceMeshVertex
 10
7.619323140985137
 20
15.77273904844645
 30
0.0
 70
   192
  0
VERTEX
  5
A10
330
A01
100
AcDbEntity
  8
0
 62
     7
100
AcDbVertex
100
AcDbPolyFaceMeshVertex
 10
7.731431316289732
 20
15.58589208960547
 30
0.0
 70
   192
  0
VERTEX
  5
A11
330
A01
100
AcDbEntity
  8
0
 62
     7
100
AcDbVertex
100
AcDbPolyFaceMeshVertex
 10
7.806170099826111
 20
15.58589208960547
 30
0.0
 70
   192
  0
VERTEX
  5
A12
330
A01
100
AcDbEntity
  8
0
 62
     7
100
AcDbVertex
100
AcDbPolyFaceMeshVertex
 10
7.880908883362511
 20
15.58589208960547
 30
0.0
 70
   192
  0
VERTEX
  5
A13
330
A01
100
AcDbEntity
  8
0
 62
     7
100
AcDbVertex
100
AcDbPolyFaceMeshVertex
 10
7.955647666898901
 20
15.58589208960547
 30
0.0
 70
   192
  0
VERTEX
  5
A14
330
A01
100
AcDbEntity
  8
0
 62
     7
100
AcDbVertex
100
AcDbPolyFaceMeshVertex
 10
8.226607894895245
 20
15.38404729907224
 30
0.0
 70
   192
  0
VERTEX
  5
A15
330
A01
100
AcDbEntity
  8
0
 62
     7
100
AcDbVertex
100
AcDbPolyFaceMeshVertex
 10
8.22657575721832
 20
15.24956756369172
 30
0.0
 70
   192
  0
VERTEX
  5
A16
330
A01
100
AcDbEntity
  8
0
 62
     7
100
AcDbVertex
100
AcDbPolyFaceMeshVertex
 10
8.455280171778863
 20
15.54403388649807
 30
0.0
 70
   192
  0
VERTEX
  5
A17
330
A01
100
AcDbEntity
  8
0
 62
     7
100
AcDbFaceRecord
 10
0.0
 20
0.0
 30
0.0
 70
   128
 71
    -1
 72
     2
 73
   -12
 74
     8
  0
VERTEX
  5
A18
330
A01
100
AcDbEntity
  8
0
 62
     7
100
AcDbFaceRecord
 10
0.0
 20
0.0
 30
0.0
 70
   128
 71
    -2
 72
     1
 73
    19
  0
VERTEX
  5
A19
330
A01
100
AcDbEntity
  8
0
 62
     7
100
AcDbFaceRecord
 10
0.0
 20
0.0
 30
0.0
 70
   128
 71
    -3
 72
    -4
 73
   -10
 74
    -5
  0
VERTEX
  5
A1A
330
A01
100
AcDbEntity
  8
0
 62
     7
100
AcDbFaceRecord
 10
0.0
 20
0.0
 30
0.0
 70
   128
 71
    -4
 72
     3
 73
    14
 74
   -11
  0
VERTEX
  5
A1B
330
A01
100
AcDbEntity
  8
0
 62
     7
100
AcDbFaceRecord
 10
0.0
 20
0.0
 30
0.0
 70
   128
 71
    -3
 72
    -5
 73
     9
 74
    -6
  0
VERTEX
  5
A1C
330
A01
100
AcDbEntity
  8
0
 62
     7
100
AcDbFaceRecord
 10
0.0
 20
0.0
 30
0.0
 70
   128
 71
    -3
 72
     6
 73
    -8
 74
     7
  0
VERTEX
  5
A1D
330
A01
100
AcDbEntity
  8
0
 62
     7
100
AcDbFaceRecord
 10
0.0
 20
0.0
 30
0.0
 70
   128
 71
    -7
 72
    -8
 73
    13
 74
    21
  0
VERTEX
  5
A1E
330
A01
100
AcDbEntity
  8
0
 62
     7
100
AcDbFaceRecord
 10
0.0
 20
0.0
 30
0.0
 70
   128
 71
    -9
 72
     5
 73
    18
  0
VERTEX
  5
A1F
330
A01
100
AcDbEntity
  8
0
 62
     7
100
AcDbFaceRecord
 10
0.0
 20
0.0
 30
0.0
 70
   128
 71
    -5
 72
    10
 73
    17
  0
VERTEX
  5
A20
330
A01
100
AcDbEntity
  8
0
 62
     7
100
AcDbFaceRecord
 10
0.0
 20
0.0
 30
0.0
 70
   128
 71
   -10
 72
     4
 73
    16
  0
VERTEX
  5
A21
330
A01
100
AcDbEntity
  8
0
 62
     7
100
AcDbFaceRecord
 10
0.0
 20
0.0
 30
0.0
 70
   128
 71
    -4
 72
    11
 73
    15
  0
VERTEX
  5
A22
330
A01
100
AcDbEntity
  8
0
 62
     7
100
AcDbFaceRecord
 10
0.0
 20
0.0
 30
0.0
 70
   128
 71
    -8
 72
    12
 73
    20
 74
   -13
  0
SEQEND
  5
A23
330
A01
100
AcDbEntity
  8
0
 62
     7
  0
ARC
  5
A24
330
1F
100
AcDbEntity
  8
0
 62
     7
100
AcDbCircle
 10
7.984884183159337
 20
15.27663651132605
 30
0.0
 40
0.0150000738557537
100
AcDbArc
 50
256.9604654822001
 51
0.0
  0
LINE
  5
A25
330
1F
100
AcDbEntity
  8
0
 62
     7
100
AcDbLine
 10
8.22657575721832
 20
15.57706357080018
 30
0.0
 11
8.226575757218324
 21
13.85083077150754
 31
0.0
  0
LINE
  5
A26
330
1F
100
AcDbEntity
  8
0
 62
     7
100
AcDbLine
 10
8.039728798377339
 20
13.85083077150754
 30
0.0
 11
8.039728798377339
 21
15.57706357080018
 31
0.0
  0
CIRCLE
  5
A28
330
1F
100
AcDbEntity
  8
0
 62
     7
100
AcDbCircle
 10
7.943209837459434
 20
16.70731306332942
 30
0.0
 40
0.1588199150148315
  0
LINE
  5
A29
330
1F
100
AcDbEntity
  8
0
 62
     7
100
AcDbLine
 10
7.843367801782168
 20
16.7263714531312
 30
0.0
 11
7.924151447657656
 21
16.7263714531312
 31
0.0
  0
LINE
  5
A2A
330
1F
100
AcDbEntity
  8
0
 62
     7
100
AcDbLine
 10
7.843367801782168
 20
16.68825467352765
 30
0.0
 11
7.924151447657656
 21
16.68825467352765
 31
0.0
  0
LINE
  5
A2B
330
1F
100
AcDbEntity
  8
0
 62
     7
100
AcDbLine
 10
7.972991222427047
 20
15.39346694261319
 30
0.0
 11
7.807456927212058
 21
15.55900123790319
 31
0.0
  0
LINE
  5
A2C
330
1F
100
AcDbEntity
  8
0
 62
     7
100
AcDbLine
 10
7.995490837158246
 20
15.40278458634041
 30
0.0
 11
7.816776753750019
 21
15.58149866967363
 31
0.0
  0
ARC
  5
A2D
330
1F
100
AcDbEntity
  8
0
 62
     7
100
AcDbCircle
 10
-7.912660160772276
 20
16.31357018666903
 30
0.0
 40
0.7473878353639128
210
0.0
220
0.0
230
-1.0
100
AcDbArc
 50
260.2112339999997
 51
276.566637885129
  0
ARC
  5
A2E
330
1F
100
AcDbEntity
  8
0
 62
     7
100
AcDbCircle
 10
7.806170099826111
 20
15.57089201574972
 30
0.0
 40
0.0150000738557537
100
AcDbArc
 50
45.00000000000009
 51
90.0
  0
ARC
  5
A2F
330
1F
100
AcDbEntity
  8
0
 62
     7
100
AcDbCircle
 10
7.796856896795766
 20
15.5484012074119
 30
0.0
 40
0.014990706759633
100
AcDbArc
 50
45.00000000000009
 51
90.0
  0
ARC
  5
A30
330
1F
100
AcDbEntity
  8
0
 62
     7
100
AcDbCircle
 10
7.943209837459434
 20
16.70731306332942
 30
0.0
 40
0.1016447456094922
100
AcDbArc
 50
169.1930771251396
 51
190.8069228748602
  0
LINE
  5
A31
330
1F
100
AcDbEntity
  8
0
 62
     7
100
AcDbLine
 10
8.039728798377339
 20
15.57706357080018
 30
0.0
 11
8.22657575721832
 21
15.57706357080018
 31
0.0
  0
LWPOLYLINE
  5
A32
330
1F
100
AcDbEntity
  8
0
100
AcDbPolyline
 90
        4
 70
     1
 43
0.0
 10
7.999884257015093
 20
15.3921779324165
 10
8.039733789321029
 20
15.3921779324165
 10
8.039733789321029
 20
15.27586237538036
 10
7.999884257015093
 20
15.27586237538036
  0
LINE
  5
A33
330
1F
100
AcDbEntity
  8
0
 62
     7
100
AcDbLine
 10
8.039728798377339
 20
15.40937440434308
 30
0.0
 11
7.881949994617169
 21
15.56715320810325
 31
0.0
  0
LINE
  5
A34
330
1F
100
AcDbEntity
  8
0
 62
     7
100
AcDbLine
 10
8.039728798377339
 20
15.51507148679593
 30
0.0
 11
7.984904163714222
 21
15.56989537407119
 31
0.0
  0
LINE
  5
A35
330
1F
100
AcDbEntity
  8
0
 62
     7
100
AcDbLine
 10
8.039728798377339
 20
15.46222444034517
 30
0.0
 11
7.935170734985607
 21
15.56678250373691
 31
0.0
  0
LINE
  5
A36
330
1F
100
AcDbEntity
  8
0
 62
     7
100
AcDbLine
 10
7.977384214556799
 20
15.30494527523471
 30
0.0
 11
7.977384214556799
 21
15.38286132144437
 31
0.0
  0
LINE
  5
A37
330
1F
100
AcDbEntity
  8
0
 62
     7
100
AcDbLine
 10
7.999884257015093
 20
15.27663651132605
 30
0.0
 11
7.999884257015093
 21
15.3921779324165
 31
0.0
  0
ARC
  5
A38
330
1F
100
AcDbEntity
  8
0
 62
     7
100
AcDbCircle
 10
7.96238560125824
 20
15.38286132144437
 30
0.0
 40
0.0149986133735628
100
AcDbArc
 50
0.0
 51
45.00000000000009
  0
ARC
  5
A39
330
1F
100
AcDbEntity
  8
0
 62
     7
100
AcDbCircle
 10
7.984884183159337
 20
15.3921779324165
 30
0.0
 40
0.0150000738557537
100
AcDbArc
 50
0.0
 51
44.99999999989992
  0
ARC
  5
A3A
330
1F
100
AcDbEntity
  8
0
 62
     7
100
AcDbCircle
 10
7.962384255076607
 20
15.30494527523471
 30
0.0
 40
0.0149999594801906
100
AcDbArc
 50
256.9604654822001
 51
0.0
  0
LINE
  5
A3B
330
1F
100
AcDbEntity
  8
0
 62
     7
100
AcDbLine
 10
8.036630327328591
 20
16.24019547722719
 30
0.0
 11
7.955912441109287
 21
16.15947800422403
 31
0.0
  0
LINE
  5
A3C
330
1F
100
AcDbEntity
  8
0
 62
     7
100
AcDbLine
 10
8.036630327328591
 20
16.2401958552268
 30
0.0
 11
7.955911693721454
 21
16.3209135524463
 31
0.0
  0
LINE
  5
A3D
330
1F
100
AcDbEntity
  8
0
 62
     7
100
AcDbLine
 10
7.962268227261215
 20
16.7263714531312
 30
0.0
 11
8.043051873136711
 21
16.7263714531312
 31
0.0
  0
LINE
  5
A3E
330
1F
100
AcDbEntity
  8
0
 62
     7
100
AcDbLine
 10
7.962268227261215
 20
16.68825467352765
 30
0.0
 11
8.043051873136711
 21
16.68825467352765
 31
0.0
  0
ARC
  5
A3F
330
1F
100
AcDbEntity
  8
0
 62
     7
100
AcDbCircle
 10
7.943209837459434
 20
16.70731306332942
 30
0.0
 40
0.1016447456094922
100
AcDbArc
 50
259.1930771251396
 51
280.8069228748603
  0
ARC
  5
A40
330
1F
100
AcDbEntity
  8
0
 62
     7
100
AcDbCircle
 10
7.943209837459434
 20
16.70731306332942
 30
0.0
 40
0.1016447456094922
100
AcDbArc
 50
79.19307712513968
 51
100.8069228748603
  0
LINE
  5
A41
330
1F
100
AcDbEntity
  8
0
 62
     7
100
AcDbLine
 10
7.924151447657656
 20
16.7263714531312
 30
0.0
 11
7.924151447657656
 21
16.8071550990067
 31
0.0
  0
LINE
  5
A42
330
1F
100
AcDbEntity
  8
0
 62
     7
100
AcDbLine
 10
7.924151447657656
 20
16.60747102765215
 30
0.0
 11
7.924151447657656
 21
16.68825467352765
 31
0.0
  0
LINE
  5
A43
330
1F
100
AcDbEntity
  8
0
 62
     7
100
AcDbLine
 10
7.962268227261215
 20
16.7263714531312
 30
0.0
 11
7.962268227261215
 21
16.8071550990067
 31
0.0
  0
LINE
  5
A44
330
1F
100
AcDbEntity
  8
0
 62
     7
100
AcDbLine
 10
7.962268227261215
 20
16.60747102765215
 30
0.0
 11
7.962268227261215
 21
16.68825467352765
 31
0.0
  0
ARC
  5
A45
330
1F
100
AcDbEntity
  8
0
 62
     7
100
AcDbCircle
 10
7.943209837459434
 20
16.70731306332942
 30
0.0
 40
0.1016447456094922
100
AcDbArc
 50
349.1930771251396
 51
10.80692287486034
  0
CIRCLE
  5
A47
330
1F
100
AcDbEntity
  8
0
 62
     7
100
AcDbCircle
 10
9.064291590505305
 20
16.70731306332942
 30
0.0
 40
0.1588199150148315
  0
ARC
  5
A48
330
1F
100
AcDbEntity
  8
0
 62
     7
100
AcDbCircle
 10
9.064291590505305
 20
16.70731306332942
 30
0.0
 40
0.1016447456094922
100
AcDbArc
 50
259.1930771251396
 51
280.8069228748603
  0
ARC
  5
A49
330
1F
100
AcDbEntity
  8
0
 62
     7
100
AcDbCircle
 10
9.064291590505305
 20
16.70731306332942
 30
0.0
 40
0.1016447456094922
100
AcDbArc
 50
79.19307712513968
 51
100.8069228748603
  0
LINE
  5
A4A
330
1F
100
AcDbEntity
  8
0
 62
     7
100
AcDbLine
 10
8.964449554828032
 20
16.7263714531312
 30
0.0
 11
9.045233200703528
 21
16.7263714531312
 31
0.0
  0
LINE
  5
A4B
330
1F
100
AcDbEntity
  8
0
 62
     7
100
AcDbLine
 10
8.964449554828032
 20
16.68825467352765
 30
0.0
 11
9.045233200703528
 21
16.68825467352765
 31
0.0
  0
ARC
  5
A4C
330
1F
100
AcDbEntity
  8
0
 62
     7
100
AcDbCircle
 10
9.064291590505305
 20
16.70731306332942
 30
0.0
 40
0.1016447456094922
100
AcDbArc
 50
169.1930771251396
 51
190.8069228748602
  0
LINE
  5
A4D
330
1F
100
AcDbEntity
  8
0
 62
     7
100
AcDbLine
 10
9.045233200703528
 20
16.7263714531312
 30
0.0
 11
9.045233200703528
 21
16.8071550990067
 31
0.0
  0
LINE
  5
A4E
330
1F
100
AcDbEntity
  8
0
 62
     7
100
AcDbLine
 10
9.045233200703528
 20
16.60747102765215
 30
0.0
 11
9.045233200703528
 21
16.68825467352765
 31
0.0
  0
LINE
  5
A4F
330
1F
100
AcDbEntity
  8
0
 62
     7
100
AcDbLine
 10
9.083349980307083
 20
16.7263714531312
 30
0.0
 11
9.164133626182579
 21
16.7263714531312
 31
0.0
  0
LINE
  5
A50
330
1F
100
AcDbEntity
  8
0
 62
     7
100
AcDbLine
 10
9.083349980307083
 20
16.68825467352765
 30
0.0
 11
9.164133626182579
 21
16.68825467352765
 31
0.0
  0
LINE
  5
A51
330
1F
100
AcDbEntity
  8
0
 62
     7
100
AcDbLine
 10
9.083349980307083
 20
16.7263714531312
 30
0.0
 11
9.083349980307083
 21
16.8071550990067
 31
0.0
  0
LINE
  5
A52
330
1F
100
AcDbEntity
  8
0
 62
     7
100
AcDbLine
 10
9.083349980307083
 20
16.60747102765215
 30
0.0
 11
9.083349980307083
 21
16.68825467352765
 31
0.0
  0
ARC
  5
A53
330
1F
100
AcDbEntity
  8
0
 62
     7
100
AcDbCircle
 10
9.064291590505305
 20
16.70731306332942
 30
0.0
 40
0.1016447456094922
100
AcDbArc
 50
349.1930771251396
 51
10.80692287486034
  0
LINE
  5
A54
330
1F
100
AcDbEntity
  8
0
 62
     7
100
AcDbLine
 10
10.79252623751984
 20
11.07444860136276
 30
0.0
 11
11.11556153052793
 21
11.07444860136276
 31
0.0
  0
TEXT
  5
A57
330
1F
100
AcDbEntity
  8
0
 62
     7
100
AcDbText
 10
11.34263889289437
 20
10.93287759917735
 30
0.0
 40
0.2491292784546376
  1
REBATE
 41
0.8
  7
ADESK1
100
AcDbText
  0
LINE
  5
A59
330
1F
100
AcDbEntity
  8
0
 62
     7
100
AcDbLine
 10
9.805765674895468
 20
15.77398463749051
 30
0.0
 11
10.97347708586203
 21
15.77398463749051
 31
0.0
  0
CIRCLE
  5
A5B
330
1F
100
AcDbEntity
  8
0
 62
     7
100
AcDbCircle
 10
10.18537334355117
 20
16.70731306332942
 30
0.0
 40
0.1588199150148315
  0
LINE
  5
A5C
330
1F
100
AcDbEntity
  8
0
 62
     7
100
AcDbLine
 10
10.20443173335296
 20
16.7263714531312
 30
0.0
 11
10.28521537922844
 21
16.7263714531312
 31
0.0
  0
LINE
  5
A5D
330
1F
100
AcDbEntity
  8
0
 62
     7
100
AcDbLine
 10
10.20443173335296
 20
16.68825467352765
 30
0.0
 11
10.28521537922844
 21
16.68825467352765
 31
0.0
  0
LINE
  5
A5E
330
1F
100
AcDbEntity
  8
0
 62
     7
100
AcDbLine
 10
10.0855313078739
 20
16.7263714531312
 30
0.0
 11
10.16631495374939
 21
16.7263714531312
 31
0.0
  0
LINE
  5
A5F
330
1F
100
AcDbEntity
  8
0
 62
     7
100
AcDbLine
 10
10.0855313078739
 20
16.68825467352765
 30
0.0
 11
10.16631495374939
 21
16.68825467352765
 31
0.0
  0
ARC
  5
A60
330
1F
100
AcDbEntity
  8
0
 62
     7
100
AcDbCircle
 10
10.18537334355117
 20
16.70731306332942
 30
0.0
 40
0.1016447456094922
100
AcDbArc
 50
169.1930771251396
 51
190.8069228748602
  0
LINE
  5
A61
330
1F
100
AcDbEntity
  8
0
 62
     7
100
AcDbLine
 10
10.16631495374939
 20
16.7263714531312
 30
0.0
 11
10.16631495374939
 21
16.8071550990067
 31
0.0
  0
LINE
  5
A62
330
1F
100
AcDbEntity
  8
0
 62
     7
100
AcDbLine
 10
10.20443173335296
 20
16.7263714531312
 30
0.0
 11
10.20443173335296
 21
16.8071550990067
 31
0.0
  0
ARC
  5
A63
330
1F
100
AcDbEntity
  8
0
 62
     7
100
AcDbCircle
 10
10.18537334355117
 20
16.70731306332942
 30
0.0
 40
0.1016447456094922
100
AcDbArc
 50
259.1930771251396
 51
280.8069228748603
  0
ARC
  5
A64
330
1F
100
AcDbEntity
  8
0
 62
     7
100
AcDbCircle
 10
10.18537334355117
 20
16.70731306332942
 30
0.0
 40
0.1016447456094922
100
AcDbArc
 50
79.19307712513968
 51
100.8069228748603
  0
LINE
  5
A65
330
1F
100
AcDbEntity
  8
0
 62
     7
100
AcDbLine
 10
10.20443173335296
 20
16.60747102765215
 30
0.0
 11
10.20443173335296
 21
16.68825467352765
 31
0.0
  0
LINE
  5
A66
330
1F
100
AcDbEntity
  8
0
 62
     7
100
AcDbLine
 10
10.16631495374939
 20
16.60747102765215
 30
0.0
 11
10.16631495374939
 21
16.68825467352765
 31
0.0
  0
ARC
  5
A67
330
1F
100
AcDbEntity
  8
0
 62
     7
100
AcDbCircle
 10
10.18537334355117
 20
16.70731306332942
 30
0.0
 40
0.1016447456094922
100
AcDbArc
 50
349.1930771251396
 51
10.80692287486034
  0
CIRCLE
  5
A68
330
1F
100
AcDbEntity
  8
0
 62
     7
100
AcDbCircle
 10
11.30645509659704
 20
16.70731306332942
 30
0.0
 40
0.1588199150148315
  0
LINE
  5
A69
330
1F
100
AcDbEntity
  8
0
 62
     7
100
AcDbLine
 10
11.32551348639881
 20
16.7263714531312
 30
0.0
 11
11.40629713227431
 21
16.7263714531312
 31
0.0
  0
LINE
  5
A6A
330
1F
100
AcDbEntity
  8
0
 62
     7
100
AcDbLine
 10
11.32551348639881
 20
16.68825467352765
 30
0.0
 11
11.40629713227431
 21
16.68825467352765
 31
0.0
  0
LINE
  5
A6B
330
1F
100
AcDbEntity
  8
0
 62
     7
100
AcDbLine
 10
11.28739670679527
 20
16.7263714531312
 30
0.0
 11
11.28739670679527
 21
16.8071550990067
 31
0.0
  0
LINE
  5
A6C
330
1F
100
AcDbEntity
  8
0
 62
     7
100
AcDbLine
 10
11.32551348639881
 20
16.7263714531312
 30
0.0
 11
11.32551348639881
 21
16.8071550990067
 31
0.0
  0
ARC
  5
A6D
330
1F
100
AcDbEntity
  8
0
 62
     7
100
AcDbCircle
 10
11.30645509659704
 20
16.70731306332942
 30
0.0
 40
0.1016447456094922
100
AcDbArc
 50
259.1930771251396
 51
280.8069228748603
  0
ARC
  5
A6E
330
1F
100
AcDbEntity
  8
0
 62
     7
100
AcDbCircle
 10
11.30645509659704
 20
16.70731306332942
 30
0.0
 40
0.1016447456094922
100
AcDbArc
 50
79.19307712513968
 51
100.8069228748603
  0
LINE
  5
A6F
330
1F
100
AcDbEntity
  8
0
 62
     7
100
AcDbLine
 10
11.20661306091977
 20
16.7263714531312
 30
0.0
 11
11.28739670679527
 21
16.7263714531312
 31
0.0
  0
LINE
  5
A70
330
1F
100
AcDbEntity
  8
0
 62
     7
100
AcDbLine
 10
11.32551348639881
 20
16.60747102765215
 30
0.0
 11
11.32551348639881
 21
16.68825467352765
 31
0.0
  0
LINE
  5
A71
330
1F
100
AcDbEntity
  8
0
 62
     7
100
AcDbLine
 10
11.28739670679527
 20
16.60747102765215
 30
0.0
 11
11.28739670679527
 21
16.68825467352765
 31
0.0
  0
LINE
  5
A72
330
1F
100
AcDbEntity
  8
0
 62
     7
100
AcDbLine
 10
11.20661306091977
 20
16.68825467352765
 30
0.0
 11
11.28739670679527
 21
16.68825467352765
 31
0.0
  0
ARC
  5
A73
330
1F
100
AcDbEntity
  8
0
 62
     7
100
AcDbCircle
 10
11.30645509659704
 20
16.70731306332942
 30
0.0
 40
0.1016447456094922
100
AcDbArc
 50
169.1930771251396
 51
190.8069228748602
  0
ARC
  5
A74
330
1F
100
AcDbEntity
  8
0
 62
     7
100
AcDbCircle
 10
11.30645509659704
 20
16.70731306332942
 30
0.0
 40
0.1016447456094922
100
AcDbArc
 50
349.1930771251396
 51
10.80692287486034
  0
LINE
  5
A75
330
1F
100
AcDbEntity
  8
0
 62
     7
100
AcDbLine
 10
11.5336609985477
 20
16.24019566622697
 30
0.0
 11
11.62708447796819
 21
16.15947778000767
 31
0.0
  0
LINE
  5
A76
330
1F
100
AcDbEntity
  8
0
 62
     7
100
AcDbLine
 10
11.62708447796819
 20
16.32091355244628
 30
0.0
 11
11.5336609985477
 21
16.24019566622697
 31
0.0
  0
LINE
  5
A77
330
1F
100
AcDbEntity
  8
0
 62
     7
100
AcDbLine
 10
8.036630327328591
 20
17.17443027143206
 30
0.0
 11
7.955911693721454
 21
17.09371257421256
 31
0.0
  0
LINE
  5
A78
330
1F
100
AcDbEntity
  8
0
 62
     7
100
AcDbLine
 10
8.036630327328591
 20
17.17443064943167
 30
0.0
 11
7.955912441109287
 21
17.25514812243481
 31
0.0
  0
LINE
  5
A79
330
1F
100
AcDbEntity
  8
0
 62
     7
100
AcDbLine
 10
10.01945324410039
 20
17.45470089869333
 30
0.0
 11
10.01945324410039
 21
18.20208873405725
 31
0.0
  0
LINE
  5
A7A
330
1F
100
AcDbEntity
  8
0
 62
     7
100
AcDbLine
 10
11.62708447796819
 20
17.09371257421256
 30
0.0
 11
11.5336609985477
 21
17.17443046043186
 31
0.0
  0
LINE
  5
A7B
330
1F
100
AcDbEntity
  8
0
 62
     7
100
AcDbLine
 10
11.5336609985477
 20
17.17443046043186
 30
0.0
 11
11.62708447796819
 21
17.25514834665116
 31
0.0
  0
TEXT
  5
A7C
330
1F
100
AcDbEntity
  8
DIM
100
AcDbText
 10
14.23373036453657
 20
16.0298609612322
 30
0.0
 40
0.2491292784546376
  1
2 1/2"
 50
90.0
 72
     1
 11
14.10916572530925
 21
16.65268415736879
 31
0.0
100
AcDbText
 73
     2
  0
LWPOLYLINE
  5
A7D
330
1F
100
AcDbEntity
  8
0
 62
     7
100
AcDbPolyline
 90
       18
 70
     1
 43
0.0
 10
13.08150120558634
 20
17.61841639276889
 42
0.6681786379192535
 10
13.06880661290701
 20
17.62367466522547
 10
13.00676242204996
 20
17.56163047436842
 10
13.00676242204996
 20
17.52495535521751
 10
12.8483162009528
 20
17.52495535521752
 10
12.8483162009528
 20
17.54887176594915
 10
12.76271731640447
 20
17.49945122691284
 42
0.767326987978942
 10
12.76829974777052
 20
17.47861730942495
 10
13.03665793546451
 20
17.47861730942495
 10
13.03665793546451
 20
15.93600881723384
 10
12.76829974777052
 20
15.93600881723384
 42
0.7673269879789422
 10
12.76271731640447
 20
15.91517489974594
 10
12.8483162009528
 20
15.86575436070963
 10
12.8483162009528
 20
15.88967077144128
 10
13.00676242204996
 20
15.88967077144128
 10
13.00676242204996
 20
15.85299565229037
 10
13.06880661290701
 20
15.79095146143332
 42
0.6681786379192988
 10
13.08150120558634
 20
15.79620973388989
  0
LINE
  5
A7E
330
1F
100
AcDbEntity
  8
DIM
100
AcDbLine
 10
13.69681906259191
 20
17.47016967814371
 30
0.0
 11
13.69681906259191
 21
15.90065522387949
 31
0.0
  0
LINE
  5
A7F
330
1F
100
AcDbEntity
  8
DIM
100
AcDbLine
 10
14.17830098494038
 20
15.75117765680671
 30
0.0
 11
13.21581117161503
 21
15.75117765680671
 31
0.0
  0
ARC
  5
A80
330
1F
100
AcDbEntity
  8
0
 62
     7
100
AcDbCircle
 10
12.32845432468442
 20
16.1114770700242
 30
0.0
 40
0.0303858066578601
100
AcDbArc
 50
270.0
 51
314.9188334096753
  0
ARC
  5
A81
330
1F
100
AcDbEntity
  8
0
 62
     7
100
AcDbCircle
 10
12.16936422202665
 20
16.26720293231873
 30
0.0
 40
0.2228738047113705
100
AcDbArc
 50
9.762702047341127
 51
22.55745101456662
  0
ARC
  5
A82
330
1F
100
AcDbEntity
  8
0
 62
     7
100
AcDbCircle
 10
12.16936422202665
 20
16.21318840013521
 30
0.0
 40
0.2228738047113714
100
AcDbArc
 50
337.4425489854333
 51
350.2372979526587
  0
ARC
  5
A83
330
1F
100
AcDbEntity
  8
0
 62
     7
100
AcDbCircle
 10
12.26780716104171
 20
16.30809502642538
 30
0.0
 40
0.1162756077174701
100
AcDbArc
 50
22.55745101456662
 51
51.43854960384757
  0
LINE
  5
A84
330
1F
100
AcDbEntity
  8
0
 62
     7
100
AcDbLine
 10
12.34028798376014
 20
16.39901558124179
 30
0.0
 11
12.28104883391162
 21
16.39901558124179
 31
0.0
  0
ARC
  5
A85
330
1F
100
AcDbEntity
  8
0
 62
     7
100
AcDbCircle
 10
12.32845432468442
 20
16.1114770700242
 30
0.0
 40
0.0303858066578602
100
AcDbArc
 50
262.1535442896996
 51
270.0
  0
ARC
  5
A86
330
1F
100
AcDbEntity
  8
0
 62
     7
100
AcDbCircle
 10
12.26780716104171
 20
16.17229630602856
 30
0.0
 40
0.1162756077174699
100
AcDbArc
 50
314.9188334096753
 51
337.4425489854333
  0
LINE
  5
A87
330
1F
100
AcDbEntity
  8
0
 62
     7
100
AcDbLine
 10
12.28104883391162
 20
16.08137575121214
 30
0.0
 11
12.33260255949257
 21
16.08137575121214
 31
0.0
  0
LINE
  5
A88
330
1F
100
AcDbEntity
  8
0
 62
     7
100
AcDbLine
 10
12.28104883391162
 20
16.08137575121214
 30
0.0
 11
12.28104883391162
 21
16.39901558124179
 31
0.0
  0
ARC
  5
A89
330
1F
100
AcDbEntity
  8
0
 62
     7
100
AcDbCircle
 10
12.01239969048632
 20
16.24019566622697
 30
0.0
 40
0.3821448208549972
100
AcDbArc
 50
350.2372979526587
 51
0.0
  0
ARC
  5
A8A
330
1F
100
AcDbEntity
  8
0
 62
     7
100
AcDbCircle
 10
12.01239969048632
 20
16.24019566622697
 30
0.0
 40
0.3821448208549965
100
AcDbArc
 50
0.0
 51
9.762702047341127
  0
SOLID
  5
A8B
330
1F
100
AcDbEntity
  8
0
 62
     7
100
AcDbTrace
 10
13.72173199043737
 20
15.90065522387949
 30
0.0
 11
13.67190613474645
 21
15.90065522387949
 31
0.0
 12
13.69681906259192
 22
15.75117765680671
 32
0.0
 13
13.69681906259192
 23
15.75117765680671
 33
0.0
  0
LINE
  5
A8C
330
1F
100
AcDbEntity
  8
DIM
100
AcDbLine
 10
14.17830098494038
 20
17.61964724521649
 30
0.0
 11
13.21533714024346
 21
17.61964724521649
 31
0.0
  0
CIRCLE
  5
A8D
330
1F
100
AcDbEntity
  8
0
 62
     7
100
AcDbCircle
 10
12.68467582313898
 20
17.82839481637529
 30
0.0
 40
0.1868469588409849
  0
LWPOLYLINE
  5
A8E
330
1F
100
AcDbEntity
  8
0
 62
     7
100
AcDbPolyline
 90
        9
 70
     0
 43
0.0
 10
12.34028798376014
 20
17.01561054541703
 42
0.1266889011641713
 10
12.37518714383942
 20
17.06192665825247
 42
0.0558856962682024
 10
12.38901047779978
 20
17.10963093122492
 42
0.0426236080121984
 10
12.39454451134134
 20
17.17443046043186
 42
0.0426236080121983
 10
12.38901047779978
 20
17.2392299896388
 42
0.0558856962682022
 10
12.37518714383942
 20
17.28693426261126
 42
0.0985958869438301
 10
12.3499098754723
 20
17.32466548260732
 42
0.1985442246528007
 10
12.32845432468442
 20
17.33353486329249
 42
0.0342500047400331
 10
12.32430608987627
 20
17.33325037544668
 42
0.0985958869438299
  0
LINE
  5
A8F
330
1F
100
AcDbEntity
  8
0
 62
     7
100
AcDbLine
 10
12.28104883391162
 20
17.33325037544668
 30
0.0
 11
12.28104883391162
 21
17.01561054541703
 31
0.0
  0
LINE
  5
A90
330
1F
100
AcDbEntity
  8
0
 62
     7
100
AcDbLine
 10
12.34028798376014
 20
17.01561054541703
 30
0.0
 11
12.28104883391162
 21
17.01561054541703
 31
0.0
  0
LINE
  5
A91
330
1F
100
AcDbEntity
  8
0
 62
     7
100
AcDbLine
 10
12.28104883391162
 20
17.33325037544668
 30
0.0
 11
12.33260255949257
 21
17.33325037544668
 31
0.0
  0
ARC
  5
A92
330
1F
100
AcDbEntity
  8
0
 62
     7
100
AcDbCircle
 10
13.19850495995168
 20
17.82839481637529
 30
0.0
 40
0.2335586985512358
100
AcDbArc
 50
126.8698976458456
 51
233.1301023541543
  0
LINE
  5
A93
330
1F
100
AcDbEntity
  8
0
 62
     7
100
AcDbLine
 10
12.88045387787346
 20
17.64154785753432
 30
0.0
 11
12.88045387787346
 21
18.01524177521627
 31
0.0
  0
SOLID
  5
A94
330
1F
100
AcDbEntity
  8
0
 62
     7
100
AcDbTrace
 10
13.72173199043737
 20
17.47016967814371
 30
0.0
 11
13.67190613474645
 21
17.47016967814371
 31
0.0
 12
13.69681906259192
 22
17.61964724521649
 32
0.0
 13
13.69681906259192
 23
17.61964724521649
 33
0.0
  0
LINE
  5
AA3
330
1F
100
AcDbEntity
  8
0
100
AcDbLine
 10
6.168163728470148
 20
14.28365464268575
 30
0.0
 11
6.168163728470148
 21
13.83463728353439
 31
0.0
  0
LINE
  5
AA4
330
1F
100
AcDbEntity
  8
0
100
AcDbLine
 10
6.168163728470148
 20
14.28365464268575
 30
0.0
 11
6.168163728470148
 21
16.14677218680649
 31
0.0
  0
LINE
  5
AA5
330
1F
100
AcDbEntity
  8
0
100
AcDbLine
 10
5.981316769629174
 20
14.27830259839671
 30
0.0
 11
5.981316769629181
 21
13.83463728353439
 31
0.0
  0
LINE
  5
AA7
330
1F
100
AcDbEntity
  8
0
 62
     7
100
AcDbLine
 10
5.149257052944186
 20
11.62810226491121
 30
0.0
 11
6.98083161276882
 21
11.62810226491121
 31
0.0
  0
LINE
  5
AA8
330
1F
100
AcDbEntity
  8
0
 62
     7
100
AcDbLine
 10
7.224028788285366
 20
11.64429575288436
 30
0.0
 11
7.321307587585152
 21
11.72526300188595
 31
0.0
  0
LINE
  5
AA9
330
1F
100
AcDbEntity
  8
0
 62
     7
100
AcDbLine
 10
7.321307587585152
 20
11.72526300188595
 30
0.0
 11
6.899766005774687
 21
11.54713520677381
 31
0.0
  0
LINE
  5
AAA
330
1F
100
AcDbEntity
  8
0
 62
     7
100
AcDbLine
 10
6.899766005774687
 20
11.54713520677381
 30
0.0
 11
6.98083161276882
 21
11.62810226491121
 31
0.0
  0
LINE
  5
AAB
330
1F
100
AcDbEntity
  8
0
 62
     7
100
AcDbLine
 10
7.224028788285366
 20
11.64429575288436
 30
0.0
 11
9.367555205127519
 21
11.64429575288436
 31
0.0
  0
LINE
  5
AAC
330
1F
100
AcDbEntity
  8
0
100
AcDbLine
 10
8.045624375753114
 20
9.901869845248665
 30
0.0
 11
8.045624375753114
 21
11.64429575288436
 31
0.0
  0
LINE
  5
AAD
330
1F
100
AcDbEntity
  8
0
100
AcDbLine
 10
8.232471867717105
 20
9.901869656482755
 30
0.0
 11
8.232471867717105
 21
11.64429575288436
 31
0.0
  0
LINE
  5
AAE
330
1F
100
AcDbEntity
  8
0
100
AcDbLine
 10
6.17405983896894
 20
9.332161040476449
 30
0.0
 11
6.17405983896894
 21
11.62810226491121
 31
0.0
  0
LINE
  5
AAF
330
1F
100
AcDbEntity
  8
0
100
AcDbLine
 10
5.987212880127962
 20
11.20063062888623
 30
0.0
 11
5.987212880127962
 21
11.62810226491121
 31
0.0
  0
LEADER
  5
AB0
330
1F
100
AcDbEntity
  8
0
 62
     7
100
AcDbLeader
  3
Standard
 72
     1
 76
     3
 10
7.556557961449506
 20
14.45304510439634
 30
0.0
 10
8.309363354536273
 20
14.15640763716291
 30
0.0
 10
8.696442444091132
 20
14.29973543485916
 30
0.0
211
0.6421586301538776
221
0.7665717798868517
231
0.0
210
0.0
220
0.0
230
-1.0
1001
ACAD
1000
DSTYLE
1002
{
1070
     5
1000
ARCHTICK
1070
    40
1040
2.0
1070
    41
1040
0.09375
1070
    42
1040
0.125
1070
    43
1040
0.375
1070
    44
1040
0.125
1070
    77
1070
     0
1070
   140
1040
0.125
1070
   141
1040
0.0625
1070
   147
1040
0.0625
1070
   170
1070
     1
1070
   171
1070
     1
1070
   174
1070
     1
1070
   271
1070
     5
1070
   272
1070
     5
1070
   274
1070
     1
1070
   277
1070
     4
1070
   279
1070
     2
1070
   341
1005
2B
1070
   342
1005
2B
1002
}
  0
LINE
  5
AB2
330
1F
100
AcDbEntity
  8
DIM
100
AcDbLine
 10
4.979672546579699
 20
16.14677218680649
 30
0.0
 11
2.411834411135973
 21
16.14677218680649
 31
0.0
  0
LINE
  5
AB3
330
1F
100
AcDbEntity
  8
DIM
 62
     7
100
AcDbLine
 10
3.68009038898139
 20
9.705854958158406
 30
0.0
 11
3.68009038898139
 21
10.57915597295528
 31
0.0
  0
LINE
  5
AB4
330
1F
100
AcDbEntity
  8
DIM
100
AcDbLine
 10
2.417730521634755
 20
9.332161040476449
 30
0.0
 11
2.417730521634748
 21
10.90590638919805
 31
0.0
  0
INSERT
  5
AB5
330
1F
100
AcDbEntity
  8
DIM
100
AcDbBlockReference
  2
_ARCHTICK
 10
2.417730521634755
 20
9.332161040476449
 30
0.0
 41
0.2812499999296869
 42
0.2812499999296869
 43
0.2812499999296874
 50
270.0
  0
INSERT
  5
AB6
330
1F
100
AcDbEntity
  8
DIM
 62
     7
100
AcDbBlockReference
  2
_ARCHTICK
 10
3.68009038898139
 20
9.705854958158406
 30
0.0
 41
0.3749999999062497
 42
0.3749999999062497
 43
0.37499999990625
 50
270.0
  0
MTEXT
  5
AB7
330
1F
100
AcDbEntity
  8
DIM
100
AcDbMText
 10
2.337386866919242
 20
11.06672618355781
 30
0.0
 40
0.2499999999375
 41
3.218799999999999
 71
     1
 72
     5
  1
UNIT DIMENSION
 11
0.0000000000000001
 21
1.0
 31
0.0
 73
     1
 44
1.0
  0
INSERT
  5
AB8
330
1F
100
AcDbEntity
  8
DIM
100
AcDbBlockReference
  2
_ARCHTICK
 10
2.411834411135973
 20
16.14677218680649
 30
0.0
 41
0.2812499999296869
 42
0.2812499999296869
 43
0.2812499999296874
 50
90.0
  0
LINE
  5
AB9
330
1F
100
AcDbEntity
  8
DIM
100
AcDbLine
 10
2.411834411135973
 20
16.14677218680649
 30
0.0
 11
2.411834411135973
 21
14.39446794930634
 31
0.0
  0
MTEXT
  5
ABA
330
1F
100
AcDbEntity
  8
DIM
 62
     7
100
AcDbMText
 10
3.729494476431575
 20
12.57950976943099
 30
0.0
 40
0.2499999999375
 41
0.0
 71
     5
 72
     1
  1
FINISHED OPENING
 11
0.0000000000000001
 21
1.0
 31
0.0
 73
     1
 44
1.0
  0
LINE
  5
ABB
330
1F
100
AcDbEntity
  8
DIM
 62
     7
100
AcDbLine
 10
3.686836092033765
 20
15.77307826912454
 30
0.0
 11
3.686836092033768
 21
14.57471390668879
 31
0.0
  0
INSERT
  5
ABC
330
1F
100
AcDbEntity
  8
DIM
 62
     7
100
AcDbBlockReference
  2
_ARCHTICK
 10
3.686836092033765
 20
15.77307826912454
 30
0.0
 41
0.3749999999062497
 42
0.3749999999062497
 43
0.37499999990625
 50
90.0
  0
LINE
  5
ABD
330
1F
100
AcDbEntity
  8
DIM
100
AcDbLine
 10
4.979672546579699
 20
9.332161040476449
 30
0.0
 11
2.417730521634755
 21
9.332161040476449
 31
0.0
  0
LINE
  5
ABE
330
1F
100
AcDbEntity
  8
DIM
 62
     7
100
AcDbLine
 10
4.979672546579692
 20
9.705854958158404
 30
0.0
 11
3.68009038898139
 21
9.705854958158404
 31
0.0
  0
LINE
  5
ABF
330
1F
100
AcDbEntity
  8
DIM
 62
     7
100
AcDbLine
 10
4.979672546579692
 20
15.77307826912454
 30
0.0
 11
3.686836092033765
 21
15.77307826912454
 31
0.0
  0
INSERT
  5
AC3
330
1F
100
AcDbEntity
  8
DIM
 62
     7
100
AcDbBlockReference
  2
_ARCHTICK
 10
13.69681906259192
 20
17.61964724521649
 30
0.0
 41
0.3749999999062497
 42
0.3749999999062497
 43
0.37499999990625
 50
90.0
  0
INSERT
  5
AC4
330
1F
100
AcDbEntity
  8
DIM
 62
     7
100
AcDbBlockReference
  2
_ARCHTICK
 10
13.69681906259192
 20
15.75117765680671
 30
0.0
 41
0.3749999999062497
 42
0.3749999999062497
 43
0.37499999990625
 50
90.0
  0
LINE
  5
ACB
330
1F
100
AcDbEntity
  8
0
100
AcDbLine
 10
3.686836092033765
 20
15.77307826912454
 30
0.0
 11
3.525236635636218
 21
15.77241066004953
 31
0.0
  0
LINE
  5
ACC
330
1F
100
AcDbEntity
  8
0
100
AcDbLine
 10
2.411834411135973
 20
16.14677218680649
 30
0.0
 11
2.250234954738427
 21
16.14610457773148
 31
0.0
  0
LINE
  5
ACD
330
1F
100
AcDbEntity
  8
0
100
AcDbLine
 10
3.68009038898139
 20
9.705854958158404
 30
0.0
 11
3.518490932583844
 21
9.705187349083395
 31
0.0
  0
LINE
  5
ACE
330
1F
100
AcDbEntity
  8
0
100
AcDbLine
 10
2.417730521634755
 20
9.332161040476449
 30
0.0
 11
2.256131065237209
 21
9.33149343140144
 31
0.0
  0
TEXT
  5
ACF
330
1F
100
AcDbEntity
  8
DIM
 62
     7
100
AcDbText
 10
8.471331291143229
 20
1.05669765524302
 30
0.0
 40
0.1875
  1
3:4
 41
0.8
100
AcDbText
  0
ENDSEC
  0
SECTION
  2
OBJECTS
  0
DICTIONARY
  5
C
330
0
100
AcDbDictionary
281
     1
  3
ACAD_GROUP
350
D
  3
ACAD_LAYOUT
350
1A
  3
ACAD_MLINESTYLE
350
17
  3
ACAD_PLOTSETTINGS
350
19
  3
ACAD_PLOTSTYLENAME
350
E
  0
DICTIONARY
  5
D
102
{ACAD_REACTORS
330
C
102
}
330
C
100
AcDbDictionary
281
     1
  0
DICTIONARY
  5
1A
102
{ACAD_REACTORS
330
C
102
}
330
C
100
AcDbDictionary
281
     1
  3
Layout1
350
1E
  3
Layout2
350
26
  3
Model
350
22
  0
DICTIONARY
  5
17
102
{ACAD_REACTORS
330
C
102
}
330
C
100
AcDbDictionary
281
     1
  3
Standard
350
18
  0
DICTIONARY
  5
19
102
{ACAD_REACTORS
330
C
102
}
330
C
100
AcDbDictionary
281
     1
  0
ACDBDICTIONARYWDFLT
  5
E
102
{ACAD_REACTORS
330
C
102
}
330
C
100
AcDbDictionary
281
     1
  3
Normal
350
F
100
AcDbDictionaryWithDefault
340
F
  0
LAYOUT
  5
1E
102
{ACAD_REACTORS
330
1A
102
}
330
1A
100
AcDbPlotSettings
  1

  2
C:\Program Files\ACAD2000\plotters\DWF Classic.pc3
  4

  6

 40
0.0
 41
0.0
 42
0.0
 43
0.0
 44
0.0
 45
0.0
 46
0.0
 47
0.0
 48
0.0
 49
0.0
140
0.0
141
0.0
142
1.0
143
1.0
 70
   688
 72
     0
 73
     0
 74
     5
  7

 75
    16
147
1.0
148
0.0
149
0.0
100
AcDbLayout
  1
Layout1
 70
     1
 71
     1
 10
0.0
 20
0.0
 11
12.0
 21
9.0
 12
0.0
 22
0.0
 32
0.0
 14
1.000000000000000E+20
 24
1.000000000000000E+20
 34
1.000000000000000E+20
 15
-1.000000000000000E+20
 25
-1.000000000000000E+20
 35
-1.000000000000000E+20
146
0.0
 13
0.0
 23
0.0
 33
0.0
 16
1.0
 26
0.0
 36
0.0
 17
0.0
 27
1.0
 37
0.0
 76
     0
330
1B
  0
LAYOUT
  5
26
102
{ACAD_REACTORS
330
1A
102
}
330
1A
100
AcDbPlotSettings
  1

  2
C:\Program Files\ACAD2000\plotters\DWF Classic.pc3
  4

  6

 40
0.0
 41
0.0
 42
0.0
 43
0.0
 44
0.0
 45
0.0
 46
0.0
 47
0.0
 48
0.0
 49
0.0
140
0.0
141
0.0
142
1.0
143
1.0
 70
   688
 72
     0
 73
     0
 74
     5
  7

 75
    16
147
1.0
148
0.0
149
0.0
100
AcDbLayout
  1
Layout2
 70
     1
 71
     2
 10
0.0
 20
0.0
 11
12.0
 21
9.0
 12
0.0
 22
0.0
 32
0.0
 14
0.0
 24
0.0
 34
0.0
 15
0.0
 25
0.0
 35
0.0
146
0.0
 13
0.0
 23
0.0
 33
0.0
 16
1.0
 26
0.0
 36
0.0
 17
0.0
 27
1.0
 37
0.0
 76
     0
330
23
  0
LAYOUT
  5
22
102
{ACAD_REACTORS
330
1A
102
}
330
1A
100
AcDbPlotSettings
  1

  2
\\VPOP\BROTHER 8500
  4
Letter
  6

 40
6.297083377838134
 41
7.143756389617919
 42
7.990402221679687
 43
7.14373779296875
 44
215.8999938964843
 45
279.3999938964843
 46
8.636000000000001
 47
4.825999999999999
 48
0.0
 49
0.0
140
0.0
141
0.0
142
1.0
143
2.0
 70
 11956
 72
     0
 73
     0
 74
     1
  7

 75
    17
147
0.5
148
-22.67257427684367
149
-22.21751149316833
100
AcDbLayout
  1
Model
 70
     1
 71
     0
 10
0.0
 20
0.0
 11
12.0
 21
9.0
 12
0.0
 22
0.0
 32
0.0
 14
0.0
 24
0.0
 34
0.0
 15
0.0
 25
0.0
 35
0.0
146
0.0
 13
0.0
 23
0.0
 33
0.0
 16
1.0
 26
0.0
 36
0.0
 17
0.0
 27
1.0
 37
0.0
 76
     0
330
1F
  0
MLINESTYLE
  5
18
102
{ACAD_REACTORS
330
17
102
}
330
17
100
AcDbMlineStyle
  2
STANDARD
 70
     0
  3

 62
   256
 51
90.0
 52
90.0
 71
     2
 49
0.5
 62
   256
  6
BYLAYER
 49
-0.5
 62
   256
  6
BYLAYER
  0
ACDBPLACEHOLDER
  5
F
102
{ACAD_REACTORS
330
E
102
}
330
E
  0
ENDSEC
  0
EOF
