  0
SECTION
  2
HEADER
  9
$ACADVER
  1
AC1015
  9
$ACADMAINTVER
 70
    20
  9
$DWGCODEPAGE
  3
ANSI_1252
  9
$INSBASE
 10
1.966843444085657
 20
17.63308002514999
 30
0.0
  9
$EXTMIN
 10
-3.868532848261531
 20
3.209169506195531
 30
-3.501974999999999
  9
$EXTMAX
 10
3.401467151738468
 20
13.26416950619553
 30
12.121909
  9
$LIMMIN
 10
0.0
 20
0.0
  9
$LIMMAX
 10
34.0
 20
22.0
  9
$ORTHOMODE
 70
     0
  9
$REGENMODE
 70
     1
  9
$FILLMODE
 70
     1
  9
$QTEXTMODE
 70
     0
  9
$MIRRTEXT
 70
     1
  9
$LTSCALE
 40
1.0
  9
$ATTMODE
 70
     1
  9
$TEXTSIZE
 40
0.1875
  9
$TRACEWID
 40
0.05
  9
$TEXTSTYLE
  7
style1
  9
$CLAYER
  8
DIM
  9
$CELTYPE
  6
BYLAYER
  9
$CECOLOR
 62
   256
  9
$CELTSCALE
 40
1.0
  9
$DISPSILH
 70
     0
  9
$DIMSCALE
 40
1.0
  9
$DIMASZ
 40
0.125
  9
$DIMEXO
 40
0.125
  9
$DIMDLI
 40
0.375
  9
$DIMRND
 40
0.0
  9
$DIMDLE
 40
0.0
  9
$DIMEXE
 40
0.125
  9
$DIMTP
 40
0.0
  9
$DIMTM
 40
0.0
  9
$DIMTXT
 40
0.125
  9
$DIMCEN
 40
0.0625
  9
$DIMTSZ
 40
0.0
  9
$DIMTOL
 70
     0
  9
$DIMLIM
 70
     0
  9
$DIMTIH
 70
     0
  9
$DIMTOH
 70
     0
  9
$DIMSE1
 70
     0
  9
$DIMSE2
 70
     0
  9
$DIMTAD
 70
     1
  9
$DIMZIN
 70
     0
  9
$DIMBLK
  1

  9
$DIMASO
 70
     1
  9
$DIMSHO
 70
     1
  9
$DIMPOST
  1

  9
$DIMAPOST
  1

  9
$DIMALT
 70
     0
  9
$DIMALTD
 70
     1
  9
$DIMALTF
 40
25.4
  9
$DIMLFAC
 40
1.0
  9
$DIMTOFL
 70
     0
  9
$DIMTVP
 40
0.0
  9
$DIMTIX
 70
     1
  9
$DIMSOXD
 70
     0
  9
$DIMSAH
 70
     1
  9
$DIMBLK1
  1
ARCHTICK
  9
$DIMBLK2
  1
ARCHTICK
  9
$DIMSTYLE
  2
STANDARD
  9
$DIMCLRD
 70
     0
  9
$DIMCLRE
 70
     0
  9
$DIMCLRT
 70
     0
  9
$DIMTFAC
 40
1.0
  9
$DIMGAP
 40
0.0625
  9
$DIMJUST
 70
     0
  9
$DIMSD1
 70
     0
  9
$DIMSD2
 70
     0
  9
$DIMTOLJ
 70
     1
  9
$DIMTZIN
 70
     0
  9
$DIMALTZ
 70
     0
  9
$DIMALTTZ
 70
     0
  9
$DIMUPT
 70
     0
  9
$DIMDEC
 70
     4
  9
$DIMTDEC
 70
     4
  9
$DIMALTU
 70
     2
  9
$DIMALTTD
 70
     1
  9
$DIMTXSTY
  7
STANDARD
  9
$DIMAUNIT
 70
     0
  9
$DIMADEC
 70
     0
  9
$DIMALTRND
 40
0.0
  9
$DIMAZIN
 70
     0
  9
$DIMDSEP
 70
    46
  9
$DIMATFIT
 70
     3
  9
$DIMFRAC
 70
     0
  9
$DIMLDRBLK
  1

  9
$DIMLUNIT
 70
     4
  9
$DIMLWD
 70
    -2
  9
$DIMLWE
 70
    -2
  9
$DIMTMOVE
 70
     2
  9
$LUNITS
 70
     2
  9
$LUPREC
 70
     5
  9
$SKETCHINC
 40
0.1
  9
$FILLETRAD
 40
0.0
  9
$AUNITS
 70
     0
  9
$AUPREC
 70
     2
  9
$MENU
  1
acad
  9
$ELEVATION
 40
0.0
  9
$PELEVATION
 40
0.0
  9
$THICKNESS
 40
0.0
  9
$LIMCHECK
 70
     0
  9
$CHAMFERA
 40
0.0
  9
$CHAMFERB
 40
0.0
  9
$CHAMFERC
 40
0.0
  9
$CHAMFERD
 40
0.0
  9
$SKPOLY
 70
     0
  9
$TDCREATE
 40
2449909.393659607
  9
$TDUCREATE
 40
2449909.518659607
  9
$TDUPDATE
 40
2457892.649245567
  9
$TDUUPDATE
 40
2457892.774245567
  9
$TDINDWG
 40
3.8213807755
  9
$TDUSRTIMER
 40
3.8213807755
  9
$USRTIMER
 70
     1
  9
$ANGBASE
 50
0.0
  9
$ANGDIR
 70
     0
  9
$PDMODE
 70
     0
  9
$PDSIZE
 40
0.0
  9
$PLINEWID
 40
0.02
  9
$SPLFRAME
 70
     0
  9
$SPLINETYPE
 70
     6
  9
$SPLINESEGS
 70
     8
  9
$HANDSEED
  5
155D
  9
$SURFTAB1
 70
     6
  9
$SURFTAB2
 70
     6
  9
$SURFTYPE
 70
     6
  9
$SURFU
 70
     6
  9
$SURFV
 70
     6
  9
$UCSBASE
  2

  9
$UCSNAME
  2

  9
$UCSORG
 10
0.0
 20
0.0
 30
0.0
  9
$UCSXDIR
 10
1.0
 20
0.0
 30
0.0
  9
$UCSYDIR
 10
0.0
 20
1.0
 30
0.0
  9
$UCSORTHOREF
  2

  9
$UCSORTHOVIEW
 70
     0
  9
$UCSORGTOP
 10
0.0
 20
0.0
 30
0.0
  9
$UCSORGBOTTOM
 10
0.0
 20
0.0
 30
0.0
  9
$UCSORGLEFT
 10
0.0
 20
0.0
 30
0.0
  9
$UCSORGRIGHT
 10
0.0
 20
0.0
 30
0.0
  9
$UCSORGFRONT
 10
0.0
 20
0.0
 30
0.0
  9
$UCSORGBACK
 10
0.0
 20
0.0
 30
0.0
  9
$PUCSBASE
  2

  9
$PUCSNAME
  2

  9
$PUCSORG
 10
0.0
 20
0.0
 30
0.0
  9
$PUCSXDIR
 10
1.0
 20
0.0
 30
0.0
  9
$PUCSYDIR
 10
0.0
 20
1.0
 30
0.0
  9
$PUCSORTHOREF
  2

  9
$PUCSORTHOVIEW
 70
     0
  9
$PUCSORGTOP
 10
0.0
 20
0.0
 30
0.0
  9
$PUCSORGBOTTOM
 10
0.0
 20
0.0
 30
0.0
  9
$PUCSORGLEFT
 10
0.0
 20
0.0
 30
0.0
  9
$PUCSORGRIGHT
 10
0.0
 20
0.0
 30
0.0
  9
$PUCSORGFRONT
 10
0.0
 20
0.0
 30
0.0
  9
$PUCSORGBACK
 10
0.0
 20
0.0
 30
0.0
  9
$USERI1
 70
     0
  9
$USERI2
 70
     0
  9
$USERI3
 70
     0
  9
$USERI4
 70
     0
  9
$USERI5
 70
     0
  9
$USERR1
 40
0.0
  9
$USERR2
 40
0.0
  9
$USERR3
 40
0.0
  9
$USERR4
 40
0.0
  9
$USERR5
 40
0.0
  9
$WORLDVIEW
 70
     1
  9
$SHADEDGE
 70
     3
  9
$SHADEDIF
 70
    70
  9
$TILEMODE
 70
     1
  9
$MAXACTVP
 70
    16
  9
$PINSBASE
 10
0.0
 20
0.0
 30
0.0
  9
$PLIMCHECK
 70
     0
  9
$PEXTMIN
 10
0.0007855257190528
 20
0.000143144047005
 30
0.0
  9
$PEXTMAX
 10
7.9372819959543
 20
10.43691114772757
 30
0.0
  9
$PLIMMIN
 10
-0.2812499887361301
 20
-0.2812502515597606
  9
$PLIMMAX
 10
8.218749770967979
 20
10.71874950814435
  9
$UNITMODE
 70
     0
  9
$VISRETAIN
 70
     0
  9
$PLINEGEN
 70
     0
  9
$PSLTSCALE
 70
     1
  9
$TREEDEPTH
 70
  3020
  9
$CMLSTYLE
  2
STANDARD
  9
$CMLJUST
 70
     0
  9
$CMLSCALE
 40
1.0
  9
$PROXYGRAPHICS
 70
     1
  9
$MEASUREMENT
 70
     0
  9
$CELWEIGHT
370
    -1
  9
$ENDCAPS
280
     0
  9
$JOINSTYLE
280
     0
  9
$LWDISPLAY
290
     0
  9
$INSUNITS
 70
     0
  9
$HYPERLINKBASE
  1

  9
$STYLESHEET
  1
Default R14 pen assignments.ctb
  9
$XEDIT
290
     1
  9
$CEPSNTYPE
380
     0
  9
$PSTYLEMODE
290
     1
  9
$FINGERPRINTGUID
  2

  9
$VERSIONGUID
  2
{D15533F2-8457-48AA-973E-E1921B15188C}
  9
$EXTNAMES
290
     1
  9
$PSVPSCALE
 40
0.0
  9
$OLESTARTUP
290
     0
  0
ENDSEC
  0
SECTION
  2
CLASSES
  0
CLASS
  1
DICTIONARYVAR
  2
AcDbDictionaryVar
  3
ObjectDBX Classes
 90
        0
280
     0
281
     0
  0
CLASS
  1
ACMESTATEMGR
  2
AcMeStateMgr
  3
AcMeServices
 90
    32768
280
     0
281
     0
  0
CLASS
  1
ACMESCOPE
  2
AcMeScope
  3
AcMeServices
 90
    32768
280
     0
281
     0
  0
CLASS
  1
ACMECOMMANDHISTORY
  2
AcMeCommandHistory
  3
AcMeServices
 90
    32768
280
     0
281
     0
  0
CLASS
  1
ACRFINSADJUSTERMGR
  2
AcRfInsAdjusterMgr
  3
AcMeServices
 90
    32768
280
     0
281
     0
  0
CLASS
  1
ACMEDRAWINGMAN
  2
AcMeDrawingMan
  3
AcMeServices
 90
    32768
280
     0
281
     0
  0
CLASS
  1
AMATTR
  2
AcMeAttribute
  3
AcMeServices
 90
    32768
280
     0
281
     0
  0
CLASS
  1
ACMEBOMCOLUMN
  2
AcMeBOMColumn
  3
AcMeServices
 90
    32768
280
     0
281
     0
  0
CLASS
  1
ACANBOMCONF
  2
AcMeBOMConf
  3
AcMeServices
 90
    32768
280
     0
281
     0
  0
CLASS
  1
ACMEBOMTABLE
  2
AcMeBOMTable
  3
AcMeServices
 90
    32768
280
     0
281
     0
  0
CLASS
  1
ACMEBOMENTRY
  2
AcMeBOMEntry
  3
AcMeServices
 90
    32768
280
     0
281
     0
  0
CLASS
  1
ACMEVIEW
  2
AcMeView
  3
AcMeServices
 90
    32768
280
     0
281
     0
  0
CLASS
  1
ACGREFMASTER
  2
AcGrefMaster
  3
AcGrefServices
 90
    32768
280
     0
281
     0
  0
CLASS
  1
AMIMASTER
  2
AmiMaster
  3
AmiServices
 90
    32768
280
     0
281
     0
  0
CLASS
  1
ACASGREFMASTER
  2
AcAsGrefMaster
  3
AutoSurfResolverServices
 90
    32768
280
     0
281
     0
  0
CLASS
  1
ADAPPL
  2
AcAdAppl
  3
DesignerServices
 90
    32768
280
     0
281
     0
  0
CLASS
  1
DEPMGR
  2
AcAdDepMgr
  3
DesignerServices
 90
    32768
280
     0
281
     0
  0
CLASS
  1
PARAMMGR
  2
AcAdParamMgr
  3
DesignerServices
 90
    32768
280
     0
281
     0
  0
CLASS
  1
PARAMSCOPE
  2
AcAdParamScope
  3
DesignerServices
 90
    32768
280
     0
281
     0
  0
CLASS
  1
ACIMSYSVARMAN
  2
AcImSysVarManager
  3
AcMeServices
 90
    32768
280
     0
281
     0
  0
CLASS
  1
ACIMINTSYSVAR
  2
AcImIntSysVar
  3
AcMeServices
 90
    32768
280
     0
281
     0
  0
CLASS
  1
ACIMREALSYSVAR
  2
AcImRealSysVar
  3
AcMeServices
 90
    32768
280
     0
281
     0
  0
CLASS
  1
ACIMSTRSYSVAR
  2
AcImStrSysVar
  3
AcMeServices
 90
    32768
280
     0
281
     0
  0
CLASS
  1
NAMEDAPPL
  2
AcAdNamedAppl
  3
DesignerServices
 90
    32768
280
     0
281
     0
  0
CLASS
  1
ADHNTMPLT
  2
AdHoleNoteTemplateMgr
  3
DesignerServices
 90
    32768
280
     0
281
     0
  0
CLASS
  1
AM_HNTEMPLATE_MGR_NAME
  2
AdHoleNoteTemplateMgrName
  3
DesignerServices
 90
    32768
280
     0
281
     0
  0
CLASS
  1
ACADGREFMODULE
  2
AcAdGrefModule
  3
AdGrefServices
 90
    32768
280
     0
281
     0
  0
CLASS
  1
AM_DRAWING_MGR
  2
AcDmDwgMgr
  3
AcMechDwgViewMgmt
 90
    32768
280
     0
281
     0
  0
CLASS
  1
AM_DWG_DOCUMENT
  2
AcDmDwgDocument
  3
AcMechDwgViewMgmt
 90
    32768
280
     0
281
     0
  0
CLASS
  1
AM_DWG_SHEET
  2
AcDmSheet
  3
AcMechDwgViewMgmt
 90
    32768
280
     0
281
     0
  0
CLASS
  1
AM_VIEWDIMPARMAP
  2
AcDmViewDimParMap
  3
AcMechDwgViewMgmt
 90
    32768
280
     0
281
     0
  0
CLASS
  1
AM_DWGMGR_NAME
  2
AcDmDwgMgrName
  3
AcMechDwgViewMgmt
 90
    32768
280
     0
281
     0
  0
CLASS
  1
ACAMPROJECT
  2
AcAmProject
  3
DesignerAssemblies
 90
    32768
280
     0
281
     0
  0
CLASS
  1
ACAMGRCOMPSET
  2
AcAmGrCompSet
  3
DesignerAssemblies
 90
    32768
280
     0
281
     0
  0
CLASS
  1
ACAMGRCOMPDEFSET
  2
AcAmGrCompDefSet
  3
DesignerAssemblies
 90
    32768
280
     0
281
     0
  0
CLASS
  1
ACAMGRCOMPDEF
  2
AcAmGrCompDef
  3
DesignerAssemblies
 90
    32768
280
     0
281
     0
  0
CLASS
  1
ACCMCONTEXT
  2
AcCmContext
  3
DesignerAssemblies
 90
    32768
280
     0
281
     0
  0
CLASS
  1
ACAMCOMPDEF
  2
AcAmCompDef
  3
DesignerAssemblies
 90
    32768
280
     0
281
     0
  0
CLASS
  1
ACAMCOMPDEFMGR
  2
AcAmCompDefMgr
  3
DesignerAssemblies
 90
    32768
280
     0
281
     0
  0
CLASS
  1
AMCONTEXTMGR
  2
AcAmContextMgr
  3
DesignerAssemblies
 90
    32768
280
     0
281
     0
  0
CLASS
  1
ACAMCONTEXTMODELER
  2
AcAmContextModeler
  3
DesignerAssemblies
 90
    32768
280
     0
281
     0
  0
CLASS
  1
ACDMVIEWGEOM
  2
AcDmViewGeometry
  3
AcMechDwgViewMgmt
 90
        0
280
     0
281
     1
  0
CLASS
  1
CBROWSERAPPOBJECT
  2
CBrowserAppObject
  3
McadcomServices
 90
    32768
280
     0
281
     0
  0
CLASS
  1
IM_STATIC_MAN
  2
AcImStaticVarManager
  3
AcMeServices
 90
    32768
280
     0
281
     0
  0
CLASS
  1
ASAPP
  2
AcAsAppObject
  3
AutoSurfServices
 90
    32768
280
     0
281
     0
  0
CLASS
  1
ACIMDBLSTATICVAR
  2
AcImDblStaticVar
  3
AcMeServices
 90
    32768
280
     0
281
     0
  0
CLASS
  1
ACIMSTRSTATICVAR
  2
AcImStrStaticVar
  3
AcMeServices
 90
    32768
280
     0
281
     0
  0
CLASS
  1
ACIMINTSTATICVAR
  2
AcImIntStaticVar
  3
AcMeServices
 90
    32768
280
     0
281
     0
  0
CLASS
  1
CATALOGSTATE
  2
AcAmCatalogState
  3
DesignerAssemblies
 90
    32768
280
     0
281
     0
  0
CLASS
  1
DM_PLACEHOLDER
  2
AcDmSelsetPlaceholder
  3
AcMechDwgViewMgmt
 90
    32768
280
     0
281
     0
  0
CLASS
  1
LAYER_INDEX
  2
AcDbLayerIndex
  3
ObjectDBX Classes
 90
    32768
280
     0
281
     0
  0
CLASS
  1
IDBUFFER
  2
AcDbIdBuffer
  3
ObjectDBX Classes
 90
    32768
280
     0
281
     0
  0
CLASS
  1
ACDBDICTIONARYWDFLT
  2
AcDbDictionaryWithDefault
  3
ObjectDBX Classes
 90
        0
280
     0
281
     0
  0
CLASS
  1
ACDBPLACEHOLDER
  2
AcDbPlaceHolder
  3
ObjectDBX Classes
 90
        0
280
     0
281
     0
  0
CLASS
  1
LAYOUT
  2
AcDbLayout
  3
ObjectDBX Classes
 90
        0
280
     0
281
     0
  0
CLASS
  1
LONG_TRANSACTION
  2
AcDbLongTransaction
  3
ObjectDBX Classes
 90
    32768
280
     0
281
     0
  0
CLASS
  1
LWPOLYLINE
  2
AcDbPolyline
  3
ObjectDBX Classes
 90
        0
280
     0
281
     1
  0
CLASS
  1
HATCH
  2
AcDbHatch
  3
ObjectDBX Classes
 90
        0
280
     0
281
     1
  0
CLASS
  1
XRECORD
  2
AcDbXrecord
  3
ObjectDBX Classes
 90
        0
280
     0
281
     0
  0
CLASS
  1
LONG_TRANSACTION
  2
AcDbLongTransaction
  3
ObjectDBX Classes
 90
    32768
280
     0
281
     0
  0
CLASS
  1
LWPOLYLINE
  2
AcDbPolyline
  3
ObjectDBX Classes
 90
        0
280
     0
281
     1
  0
CLASS
  1
HATCH
  2
AcDbHatch
  3
ObjectDBX Classes
 90
        0
280
     0
281
     1
  0
CLASS
  1
XRECORD
  2
AcDbXrecord
  3
ObjectDBX Classes
 90
        0
280
     0
281
     0
  0
CLASS
  1
PLOTSETTINGS
  2
AcDbPlotSettings
  3
ObjectDBX Classes
 90
        0
280
     0
281
     0
  0
CLASS
  1
LONG_TRANSACTION
  2
AcDbLongTransaction
  3
ObjectDBX Classes
 90
    32768
280
     0
281
     0
  0
CLASS
  1
LWPOLYLINE
  2
AcDbPolyline
  3
ObjectDBX Classes
 90
        0
280
     0
281
     1
  0
CLASS
  1
HATCH
  2
AcDbHatch
  3
ObjectDBX Classes
 90
        0
280
     0
281
     1
  0
CLASS
  1
XRECORD
  2
AcDbXrecord
  3
ObjectDBX Classes
 90
        0
280
     0
281
     0
  0
CLASS
  1
LONG_TRANSACTION
  2
AcDbLongTransaction
  3
ObjectDBX Classes
 90
    32768
280
     0
281
     0
  0
CLASS
  1
LWPOLYLINE
  2
AcDbPolyline
  3
ObjectDBX Classes
 90
        0
280
     0
281
     1
  0
CLASS
  1
HATCH
  2
AcDbHatch
  3
ObjectDBX Classes
 90
        0
280
     0
281
     1
  0
CLASS
  1
XRECORD
  2
AcDbXrecord
  3
ObjectDBX Classes
 90
        0
280
     0
281
     0
  0
CLASS
  1
LONG_TRANSACTION
  2
AcDbLongTransaction
  3
ObjectDBX Classes
 90
    32768
280
     0
281
     0
  0
CLASS
  1
LWPOLYLINE
  2
AcDbPolyline
  3
ObjectDBX Classes
 90
        0
280
     0
281
     1
  0
CLASS
  1
HATCH
  2
AcDbHatch
  3
ObjectDBX Classes
 90
        0
280
     0
281
     1
  0
CLASS
  1
XRECORD
  2
AcDbXrecord
  3
ObjectDBX Classes
 90
        0
280
     0
281
     0
  0
CLASS
  1
LONG_TRANSACTION
  2
AcDbLongTransaction
  3
ObjectDBX Classes
 90
    32768
280
     0
281
     0
  0
CLASS
  1
LWPOLYLINE
  2
AcDbPolyline
  3
ObjectDBX Classes
 90
        0
280
     0
281
     1
  0
CLASS
  1
HATCH
  2
AcDbHatch
  3
ObjectDBX Classes
 90
        0
280
     0
281
     1
  0
CLASS
  1
XRECORD
  2
AcDbXrecord
  3
ObjectDBX Classes
 90
        0
280
     0
281
     0
  0
CLASS
  1
LONG_TRANSACTION
  2
AcDbLongTransaction
  3
ObjectDBX Classes
 90
    32768
280
     0
281
     0
  0
CLASS
  1
LWPOLYLINE
  2
AcDbPolyline
  3
ObjectDBX Classes
 90
        0
280
     0
281
     1
  0
CLASS
  1
HATCH
  2
AcDbHatch
  3
ObjectDBX Classes
 90
        0
280
     0
281
     1
  0
CLASS
  1
XRECORD
  2
AcDbXrecord
  3
ObjectDBX Classes
 90
        0
280
     0
281
     0
  0
CLASS
  1
MATERIAL
  2
AcDbMaterial
  3
ObjectDBX Classes
 90
     1024
280
     0
281
     0
  0
CLASS
  1
VISUALSTYLE
  2
AcDbVisualStyle
  3
ObjectDBX Classes
 90
     4095
280
     0
281
     0
  0
CLASS
  1
TABLESTYLE
  2
AcDbTableStyle
  3
ObjectDBX Classes
 90
     4095
280
     0
281
     0
  0
CLASS
  1
SORTENTSTABLE
  2
AcDbSortentsTable
  3
ObjectDBX Classes
 90
        0
280
     0
281
     0
  0
CLASS
  1
SOLID_BACKGROUND
  2
AcDbSolidBackground
  3
SCENEOE
 90
     4095
280
     0
281
     0
  0
CLASS
  1
NPOCOLLECTION
  2
AcDbImpNonPersistentObjectsCollection
  3
ObjectDBX Classes
 90
     1153
280
     0
281
     0
  0
ENDSEC
  0
SECTION
  2
TABLES
  0
TABLE
  2
VPORT
  5
4C4
330
0
100
AcDbSymbolTable
 70
     1
  0
VPORT
  5
1495
330
4C4
100
AcDbSymbolTableRecord
100
AcDbViewportTableRecord
  2
*Active
 70
     0
 10
0.0
 20
0.0
 11
1.0
 21
1.0
 12
-1.692614706015298
 22
9.025282952063019
 13
0.0
 23
0.0
 14
1.0
 24
1.0
 15
0.0
 25
0.0
 16
0.0
 26
0.0
 36
1.0
 17
0.0
 27
0.0
 37
0.0
 40
12.24281663896946
 41
2.262039660056657
 42
50.0
 43
0.0
 44
0.0
 50
0.0
 51
0.0
 71
     0
 72
 10000
 73
     1
 74
     0
 75
     0
 76
     0
 77
     0
 78
     0
281
     0
 65
     1
110
0.0
120
0.0
130
0.0
111
1.0
121
0.0
131
0.0
112
0.0
122
1.0
132
0.0
 79
     0
146
0.0
  0
ENDTAB
  0
TABLE
  2
LTYPE
  5
4BF
330
0
100
AcDbSymbolTable
 70
     4
  0
LTYPE
  5
4C0
330
4BF
100
AcDbSymbolTableRecord
100
AcDbLinetypeTableRecord
  2
BYBLOCK
 70
     0
  3

 72
    65
 73
     0
 40
0.0
  0
LTYPE
  5
4C1
330
4BF
100
AcDbSymbolTableRecord
100
AcDbLinetypeTableRecord
  2
BYLAYER
 70
     0
  3

 72
    65
 73
     0
 40
0.0
  0
LTYPE
  5
8
330
4BF
100
AcDbSymbolTableRecord
100
AcDbLinetypeTableRecord
  2
CONTINUOUS
 70
     0
  3
Solid line
 72
    65
 73
     0
 40
0.0
  0
LTYPE
  5
1A7
330
4BF
100
AcDbSymbolTableRecord
100
AcDbLinetypeTableRecord
  2
HIDDEN
 70
     0
  3
__ __ __ __ __ __ __ __ __ __ __ __ __ __ __ __
 72
    65
 73
     2
 40
0.375
 49
0.25
 74
     0
 49
-0.125
 74
     0
  0
LTYPE
  5
DF
330
4BF
100
AcDbSymbolTableRecord
100
AcDbLinetypeTableRecord
  2
CENTER
 70
     0
  3
____ _ ____ _ ____ _ ____ _ ____ _ ____ _ ____ 
 72
    65
 73
     4
 40
2.0
 49
1.25
 74
     0
 49
-0.25
 74
     0
 49
0.25
 74
     0
 49
-0.25
 74
     0
  0
ENDTAB
  0
TABLE
  2
LAYER
  5
4BC
102
{ACAD_XDICTIONARY
360
14B0
102
}
330
0
100
AcDbSymbolTable
 70
     6
  0
LAYER
  5
4
330
4BC
100
AcDbSymbolTableRecord
100
AcDbLayerTableRecord
  2
0
 70
     0
 62
     7
  6
CONTINUOUS
370
    -3
390
5
  0
LAYER
  5
1AD
330
4BC
100
AcDbSymbolTableRecord
100
AcDbLayerTableRecord
  2
4
 70
     0
 62
     7
  6
CONTINUOUS
370
    -3
390
5
  0
LAYER
  5
19E
330
4BC
100
AcDbSymbolTableRecord
100
AcDbLayerTableRecord
  2
5
 70
     0
 62
     7
  6
CONTINUOUS
370
    -3
390
5
  0
LAYER
  5
439
330
4BC
100
AcDbSymbolTableRecord
100
AcDbLayerTableRecord
  2
Defpoints
 70
     0
 62
     7
  6
CONTINUOUS
290
     0
370
    -3
390
5
  0
LAYER
  5
42C
330
4BC
100
AcDbSymbolTableRecord
100
AcDbLayerTableRecord
  2
DIM
 70
     0
 62
     7
  6
CONTINUOUS
370
    -3
390
5
  0
LAYER
  5
423
330
4BC
100
AcDbSymbolTableRecord
100
AcDbLayerTableRecord
  2
Hatch
 70
     0
 62
     8
  6
CONTINUOUS
370
    -3
390
5
  0
ENDTAB
  0
TABLE
  2
STYLE
  5
4BD
330
0
100
AcDbSymbolTable
 70
     8
  0
STYLE
  5
3CF
330
4BD
100
AcDbSymbolTableRecord
100
AcDbTextStyleTableRecord
  2
STANDARD
 70
     0
 40
0.0
 41
1.0
 50
0.0
 71
     0
 42
0.25
  3
architec.shx
  4

  0
STYLE
  5
19F
330
4BD
100
AcDbSymbolTableRecord
100
AcDbTextStyleTableRecord
  2
ROMANS
 70
     0
 40
0.1875
 41
0.8
 50
0.0
 71
     0
 42
0.1875
  3
architec.shx
  4

  0
STYLE
  5
402
330
4BD
100
AcDbSymbolTableRecord
100
AcDbTextStyleTableRecord
  2
ADESK1
 70
     0
 40
0.0
 41
0.8
 50
0.0
 71
     0
 42
0.25
  3
architec.shx
  4

  0
STYLE
  5
3E0
330
4BD
100
AcDbSymbolTableRecord
100
AcDbTextStyleTableRecord
  2
TITLE
 70
     0
 40
0.0
 41
1.0
 50
0.0
 71
     0
 42
0.32668537629849
  3
romand.shx
  4

  0
STYLE
  5
E47
330
4BD
100
AcDbSymbolTableRecord
100
AcDbTextStyleTableRecord
  2
style1
 70
     0
 40
0.1875
 41
1.0
 50
0.0
 71
     0
 42
0.1875
  3
romand.shx
  4

  0
ENDTAB
  0
TABLE
  2
VIEW
  5
4C2
330
0
100
AcDbSymbolTable
 70
     3
  0
ENDTAB
  0
TABLE
  2
UCS
  5
4C3
330
0
100
AcDbSymbolTable
 70
     0
  0
ENDTAB
  0
TABLE
  2
APPID
  5
4C6
330
0
100
AcDbSymbolTable
 70
     4
  0
APPID
  5
43E
330
4C6
100
AcDbSymbolTableRecord
100
AcDbRegAppTableRecord
  2
ACAD
 70
     0
  0
APPID
  5
1289
330
4C6
100
AcDbSymbolTableRecord
100
AcDbRegAppTableRecord
  2
DCO15
 70
     0
  0
APPID
  5
14BC
330
4C6
100
AcDbSymbolTableRecord
100
AcDbRegAppTableRecord
  2
ACAD_EXEMPT_FROM_CAD_STANDARDS
 70
     0
  0
APPID
  5
14FA
330
4C6
100
AcDbSymbolTableRecord
100
AcDbRegAppTableRecord
  2
ACAD_PSEXT
 70
     0
  0
ENDTAB
  0
TABLE
  2
DIMSTYLE
  5
4C7
330
0
100
AcDbSymbolTable
 70
     6
100
AcDbDimStyleTable
 71
     1
340
430
  0
DIMSTYLE
105
430
102
{ACAD_REACTORS
330
1436
102
}
330
4C7
100
AcDbSymbolTableRecord
100
AcDbDimStyleTableRecord
  2
STANDARD
 70
     0
 41
0.125
 42
0.125
 43
0.375
 44
0.125
140
0.125
141
0.0625
147
0.0625
171
     1
173
     1
174
     1
271
     2
272
     2
274
     1
277
     4
279
     2
340
3CF
341
C12
343
C12
344
C12
  0
DIMSTYLE
105
14AF
330
4C7
100
AcDbSymbolTableRecord
100
AcDbDimStyleTableRecord
  2
STANDARD$0
 70
     0
 41
0.08
 44
0.0625
 73
     0
 74
     0
 77
     1
140
0.08
141
0.0
147
0.035
172
     1
271
     5
272
     5
276
     2
277
     5
340
3CF
  0
ENDTAB
  0
TABLE
  2
BLOCK_RECORD
  5
1
330
0
100
AcDbSymbolTable
 70
    20
  0
BLOCK_RECORD
  5
2
102
{ACAD_XDICTIONARY
360
47A
102
}
330
1
100
AcDbSymbolTableRecord
100
AcDbBlockTableRecord
  2
*MODEL_SPACE
340
47E
  0
BLOCK_RECORD
  5
14F2
330
1
100
AcDbSymbolTableRecord
100
AcDbBlockTableRecord
  2
*Paper_Space
340
14F3
  0
BLOCK_RECORD
  5
485
330
1
100
AcDbSymbolTableRecord
100
AcDbBlockTableRecord
  2
ansi_v
340
0
102
{BLKREFS
331
484
102
}
  0
BLOCK_RECORD
  5
42D
330
1
100
AcDbSymbolTableRecord
100
AcDbBlockTableRecord
  2
_None
340
0
  0
BLOCK_RECORD
  5
440
330
1
100
AcDbSymbolTableRecord
100
AcDbBlockTableRecord
  2
_DotSmall
340
0
  0
BLOCK_RECORD
  5
C12
330
1
100
AcDbSymbolTableRecord
100
AcDbBlockTableRecord
  2
_ARCHTICK
340
0
102
{BLKREFS
331
1150
331
1151
331
1167
331
1168
331
115B
331
115C
331
1453
331
1454
331
1488
331
1489
102
}
  0
BLOCK_RECORD
  5
E8E
330
1
100
AcDbSymbolTableRecord
100
AcDbBlockTableRecord
  2
A$C65655757
340
0
  0
BLOCK_RECORD
  5
114B
330
1
100
AcDbSymbolTableRecord
100
AcDbBlockTableRecord
  2
*D5
340
0
  0
BLOCK_RECORD
  5
1157
330
1
100
AcDbSymbolTableRecord
100
AcDbBlockTableRecord
  2
*D6
340
0
  0
BLOCK_RECORD
  5
1163
330
1
100
AcDbSymbolTableRecord
100
AcDbBlockTableRecord
  2
*D7
340
0
  0
BLOCK_RECORD
  5
116F
330
1
100
AcDbSymbolTableRecord
100
AcDbBlockTableRecord
  2
300-3001-12
340
0
  0
BLOCK_RECORD
  5
1228
330
1
100
AcDbSymbolTableRecord
100
AcDbBlockTableRecord
  2
A$C7A684676
340
0
  0
BLOCK_RECORD
  5
12C2
330
1
100
AcDbSymbolTableRecord
100
AcDbBlockTableRecord
  2
A$C63713654
340
0
  0
BLOCK_RECORD
  5
1437
330
1
100
AcDbSymbolTableRecord
100
AcDbBlockTableRecord
  2
*D11
340
0
  0
ENDTAB
  0
ENDSEC
  0
SECTION
  2
BLOCKS
  0
BLOCK
  5
47C
330
2
100
AcDbEntity
  8
0
100
AcDbBlockBegin
  2
*MODEL_SPACE
 70
     0
 10
0.0
 20
0.0
 30
0.0
  3
*MODEL_SPACE
  1

  0
ENDBLK
  5
47D
330
2
100
AcDbEntity
  8
0
100
AcDbBlockEnd
  0
BLOCK
  5
14F4
330
14F2
100
AcDbEntity
 67
     1
  8
0
100
AcDbBlockBegin
  2
*Paper_Space
 70
     0
 10
0.0
 20
0.0
 30
0.0
  3
*Paper_Space
  1

  0
ENDBLK
  5
14F5
330
14F2
100
AcDbEntity
 67
     1
  8
0
100
AcDbBlockEnd
  0
BLOCK
  5
4B5
330
485
100
AcDbEntity
  8
0
100
AcDbBlockBegin
  2
ansi_v
 70
     0
 10
0.0
 20
0.0
 30
0.0
  3
ansi_v
  1

  0
LINE
  5
486
330
485
100
AcDbEntity
  8
0
100
AcDbLine
 10
0.0
 20
0.0
 30
0.0
 11
8.5
 21
0.0
 31
0.0
  0
LINE
  5
487
330
485
100
AcDbEntity
  8
0
100
AcDbLine
 10
8.5
 20
0.0
 30
0.0
 11
8.5
 21
11.0
 31
0.0
  0
LINE
  5
488
330
485
100
AcDbEntity
  8
0
100
AcDbLine
 10
8.5
 20
11.0
 30
0.0
 11
0.0
 21
11.0
 31
0.0
  0
LINE
  5
489
330
485
100
AcDbEntity
  8
0
100
AcDbLine
 10
0.0
 20
11.0
 30
0.0
 11
0.0
 21
0.0
 31
0.0
  0
LINE
  5
48A
330
485
100
AcDbEntity
  8
0
100
AcDbLine
 10
0.38
 20
0.25
 30
0.0
 11
8.119999999999999
 21
0.25
 31
0.0
  0
LINE
  5
48B
330
485
100
AcDbEntity
  8
0
100
AcDbLine
 10
8.119999999999999
 20
0.25
 30
0.0
 11
8.119999999999999
 21
10.75
 31
0.0
  0
LINE
  5
48C
330
485
100
AcDbEntity
  8
0
100
AcDbLine
 10
8.119999999999999
 20
10.75
 30
0.0
 11
0.38
 21
10.75
 31
0.0
  0
LINE
  5
48D
330
485
100
AcDbEntity
  8
0
100
AcDbLine
 10
0.38
 20
10.75
 30
0.0
 11
0.38
 21
0.25
 31
0.0
  0
LWPOLYLINE
  5
48E
330
485
100
AcDbEntity
  8
0
100
AcDbPolyline
 90
        2
 70
     0
 43
0.02
 10
4.25
 20
0.0
 10
4.25
 20
0.1
  0
SOLID
  5
48F
330
485
100
AcDbEntity
  8
0
100
AcDbTrace
 10
4.099999999999999
 20
0.1
 30
0.0
 11
4.4
 21
0.1
 31
0.0
 12
4.25
 22
0.25
 32
0.0
 13
4.25
 23
0.25
 33
0.0
  0
LWPOLYLINE
  5
490
330
485
100
AcDbEntity
  8
0
100
AcDbPolyline
 90
        2
 70
     0
 43
0.02
 10
8.369999999999999
 20
5.5
 10
8.269999999999999
 20
5.5
  0
SOLID
  5
491
330
485
100
AcDbEntity
  8
0
100
AcDbTrace
 10
8.269999999999999
 20
5.349999999999999
 30
0.0
 11
8.269999999999999
 21
5.65
 31
0.0
 12
8.119999999999999
 22
5.5
 32
0.0
 13
8.119999999999999
 23
5.5
 33
0.0
  0
LWPOLYLINE
  5
492
330
485
100
AcDbEntity
  8
0
100
AcDbPolyline
 90
        2
 70
     0
 43
0.02
 10
4.25
 20
11.0
 10
4.25
 20
10.9
  0
SOLID
  5
493
330
485
100
AcDbEntity
  8
0
100
AcDbTrace
 10
4.099999999999999
 20
10.9
 30
0.0
 11
4.4
 21
10.9
 31
0.0
 12
4.25
 22
10.75
 32
0.0
 13
4.25
 23
10.75
 33
0.0
  0
LWPOLYLINE
  5
494
330
485
100
AcDbEntity
  8
0
100
AcDbPolyline
 90
        2
 70
     0
 43
0.02
 10
0.13
 20
5.5
 10
0.23
 20
5.5
  0
SOLID
  5
495
330
485
100
AcDbEntity
  8
0
100
AcDbTrace
 10
0.23
 20
5.349999999999999
 30
0.0
 11
0.23
 21
5.65
 31
0.0
 12
0.38
 22
5.5
 32
0.0
 13
0.38
 23
5.5
 33
0.0
  0
LINE
  5
496
330
485
100
AcDbEntity
  8
0
100
AcDbLine
 10
1.87
 20
0.25
 30
0.0
 11
1.87
 21
2.0
 31
0.0
  0
LINE
  5
497
330
485
100
AcDbEntity
  8
0
100
AcDbLine
 10
1.87
 20
2.0
 30
0.0
 11
8.119999999999999
 21
2.0
 31
0.0
  0
LINE
  5
498
330
485
100
AcDbEntity
  8
0
100
AcDbLine
 10
1.87
 20
0.565
 30
0.0
 11
3.87
 21
0.565
 31
0.0
  0
LINE
  5
499
330
485
100
AcDbEntity
  8
0
100
AcDbLine
 10
1.87
 20
0.88
 30
0.0
 11
8.119999999999999
 21
0.88
 31
0.0
  0
LINE
  5
49A
330
485
100
AcDbEntity
  8
0
100
AcDbLine
 10
3.87
 20
0.5
 30
0.0
 11
8.119999999999999
 21
0.5
 31
0.0
  0
LINE
  5
49B
330
485
100
AcDbEntity
  8
0
100
AcDbLine
 10
3.87
 20
1.5
 30
0.0
 11
8.119999999999999
 21
1.5
 31
0.0
  0
LINE
  5
49C
330
485
100
AcDbEntity
  8
0
100
AcDbLine
 10
3.87
 20
0.25
 30
0.0
 11
3.87
 21
2.0
 31
0.0
  0
LINE
  5
49D
330
485
100
AcDbEntity
  8
0
100
AcDbLine
 10
4.87
 20
0.25
 30
0.0
 11
4.87
 21
0.5
 31
0.0
  0
LINE
  5
49E
330
485
100
AcDbEntity
  8
0
100
AcDbLine
 10
6.37
 20
0.25
 30
0.0
 11
6.37
 21
0.5
 31
0.0
  0
LINE
  5
49F
330
485
100
AcDbEntity
  8
0
100
AcDbLine
 10
4.25
 20
0.5
 30
0.0
 11
4.25
 21
0.88
 31
0.0
  0
LINE
  5
4A0
330
485
100
AcDbEntity
  8
0
100
AcDbLine
 10
5.37
 20
0.5
 30
0.0
 11
5.37
 21
0.88
 31
0.0
  0
LINE
  5
4A1
330
485
100
AcDbEntity
  8
0
100
AcDbLine
 10
7.74
 20
0.5
 30
0.0
 11
7.74
 21
0.88
 31
0.0
  0
TEXT
  5
4A2
330
485
100
AcDbEntity
  8
0
100
AcDbText
 10
3.922299999999999
 20
0.3425
 30
0.0
 40
0.065
  1
Scale
  7
ADESK1
100
AcDbText
  0
TEXT
  5
4A3
330
485
100
AcDbEntity
  8
0
100
AcDbText
 10
6.422799999999999
 20
0.3425
 30
0.0
 40
0.065
  1
Sheet
  7
ADESK1
100
AcDbText
  0
TEXT
  5
4A4
330
485
100
AcDbEntity
  8
0
100
AcDbText
 10
3.9579
 20
0.7659000000000001
 30
0.0
 40
0.065
  1
SIZE
  7
ADESK1
100
AcDbText
  0
TEXT
  5
4A5
330
485
100
AcDbEntity
  8
0
100
AcDbText
 10
4.3189
 20
0.7659000000000001
 30
0.0
 40
0.065
  1
FSCM NO.
  7
ADESK1
100
AcDbText
  0
TEXT
  5
4A6
330
485
100
AcDbEntity
  8
0
100
AcDbText
 10
5.440999999999999
 20
0.7659000000000001
 30
0.0
 40
0.065
  1
DWG NO.
  7
ADESK1
100
AcDbText
  0
TEXT
  5
4A7
330
485
100
AcDbEntity
  8
0
100
AcDbText
 10
7.8205
 20
0.7659000000000001
 30
0.0
 40
0.065
  1
REV
  7
ADESK1
100
AcDbText
  0
LINE
  5
4A8
330
485
100
AcDbEntity
  8
0
100
AcDbLine
 10
2.62
 20
10.5
 30
0.0
 11
8.119999999999999
 21
10.5
 31
0.0
  0
LINE
  5
4A9
330
485
100
AcDbEntity
  8
0
100
AcDbLine
 10
2.62
 20
10.25
 30
0.0
 11
8.119999999999999
 21
10.25
 31
0.0
  0
LINE
  5
4AA
330
485
100
AcDbEntity
  8
0
100
AcDbLine
 10
2.62
 20
10.75
 30
0.0
 11
2.62
 21
9.7027
 31
0.0
  0
LINE
  5
4AB
330
485
100
AcDbEntity
  8
0
100
AcDbLine
 10
3.12
 20
10.25
 30
0.0
 11
3.12
 21
10.5
 31
0.0
  0
LINE
  5
4AC
330
485
100
AcDbEntity
  8
0
100
AcDbLine
 10
3.5
 20
10.25
 30
0.0
 11
3.5
 21
10.5
 31
0.0
  0
LINE
  5
4AD
330
485
100
AcDbEntity
  8
0
100
AcDbLine
 10
6.24
 20
10.25
 30
0.0
 11
6.24
 21
10.5
 31
0.0
  0
LINE
  5
4AE
330
485
100
AcDbEntity
  8
0
100
AcDbLine
 10
7.12
 20
10.25
 30
0.0
 11
7.12
 21
10.5
 31
0.0
  0
TEXT
  5
4AF
330
485
100
AcDbEntity
  8
0
100
AcDbText
 10
5.330199999999999
 20
10.5825
 30
0.0
 40
0.065
  1
REVISIONS
  7
ADESK1
100
AcDbText
  0
TEXT
  5
4B0
330
485
100
AcDbEntity
  8
0
100
AcDbText
 10
2.728699999999999
 20
10.3403
 30
0.0
 40
0.065
  1
ZONE
  7
ADESK1
100
AcDbText
  0
TEXT
  5
4B1
330
485
100
AcDbEntity
  8
0
100
AcDbText
 10
3.200099999999999
 20
10.3403
 30
0.0
 40
0.065
  1
REV
  7
ADESK1
100
AcDbText
  0
TEXT
  5
4B2
330
485
100
AcDbEntity
  8
0
100
AcDbText
 10
4.501999999999999
 20
10.3403
 30
0.0
 40
0.065
  1
DESCRIPTION
  7
ADESK1
100
AcDbText
  0
TEXT
  5
4B3
330
485
100
AcDbEntity
  8
0
100
AcDbText
 10
6.5677
 20
10.3403
 30
0.0
 40
0.065
  1
Date
  7
ADESK1
100
AcDbText
  0
TEXT
  5
4B4
330
485
100
AcDbEntity
  8
0
100
AcDbText
 10
7.361399999999999
 20
10.3403
 30
0.0
 40
0.065
  1
APPROVED
  7
ADESK1
100
AcDbText
  0
ENDBLK
  5
4B6
330
485
100
AcDbEntity
  8
0
100
AcDbBlockEnd
  0
BLOCK
  5
42E
330
42D
100
AcDbEntity
  8
0
100
AcDbBlockBegin
  2
_None
 70
     0
 10
0.0
 20
0.0
 30
0.0
  3
_None
  1

  0
ENDBLK
  5
42F
330
42D
100
AcDbEntity
  8
0
100
AcDbBlockEnd
  0
BLOCK
  5
442
330
440
100
AcDbEntity
  8
0
100
AcDbBlockBegin
  2
_DotSmall
 70
     0
 10
0.0
 20
0.0
 30
0.0
  3
_DotSmall
  1

  0
LWPOLYLINE
  5
441
330
440
100
AcDbEntity
  8
Hatch
 62
     0
100
AcDbPolyline
 90
        2
 70
     1
 43
0.5
 10
-0.0625
 20
0.0
 42
1.0
 10
0.0625
 20
0.0
 42
1.0
  0
ENDBLK
  5
443
330
440
100
AcDbEntity
  8
0
100
AcDbBlockEnd
  0
BLOCK
  5
C13
330
C12
100
AcDbEntity
  8
0
100
AcDbBlockBegin
  2
_ARCHTICK
 70
     0
 10
0.0
 20
0.0
 30
0.0
  3
_ARCHTICK
  1

  0
LWPOLYLINE
  5
C14
330
C12
100
AcDbEntity
  8
0
  6
ByBlock
 62
     0
100
AcDbPolyline
 90
        2
 70
     0
 43
0.15
 10
-0.5
 20
-0.5
 10
0.5
 20
0.5
  0
ENDBLK
  5
C18
330
C12
100
AcDbEntity
  8
0
100
AcDbBlockEnd
  0
BLOCK
  5
E97
330
E8E
100
AcDbEntity
  8
0
100
AcDbBlockBegin
  2
A$C65655757
 70
     0
 10
0.0
 20
0.0
 30
0.0
  3
A$C65655757
  1

  0
TEXT
  5
E8F
330
E8E
100
AcDbEntity
  8
5
  6
Continuous
 62
     7
370
    30
100
AcDbText
 10
-0.0111139013349089
 20
2.65912195243645
 30
-2.3346
 40
0.375
  1
ADVANCED GLAZINGS Ltd.
 41
0.8
  7
style1
 11
-0.0111139013349089
 21
2.84662195243645
 31
-2.3346
100
AcDbText
 73
     2
  0
TEXT
  5
E90
330
E8E
100
AcDbEntity
  8
0
100
AcDbText
 10
0.0393205943543649
 20
-0.0000000212489294
 30
7.003999999999999
 40
0.195
  1
CSI UNIFORM DRAWING SYSTEM 2000
  7
style1
 11
0.0393205943543649
 21
0.1949999787510705
 31
7.003999999999999
100
AcDbText
 73
     3
  0
TEXT
  5
E91
330
E8E
100
AcDbEntity
  8
0
100
AcDbText
 10
0.0393205943543649
 20
0.3076200495211554
 30
7.003999999999999
 40
0.195
  1
DRAWINGS CONFORM TO
  7
style1
 11
0.0393205943543649
 21
0.5026200495211555
 31
7.003999999999999
100
AcDbText
 73
     3
  0
TEXT
  5
E92
330
E8E
100
AcDbEntity
  8
5
  6
Continuous
 62
     7
100
AcDbText
 10
-0.003116681697918
 20
2.24356586670801
 30
7.003999999999999
 40
0.1875
  1
SYDNEY , NOVA SCOTIA
  7
style1
 11
-0.003116681697918
 21
2.43106586670801
 31
7.003999999999999
100
AcDbText
 73
     3
  0
TEXT
  5
E93
330
E8E
100
AcDbEntity
  8
5
  6
Continuous
 62
     7
100
AcDbText
 10
-0.003116681697918
 20
1.887253649928922
 30
7.003999999999999
 40
0.1875
  1
CANADA
  7
style1
 11
-0.003116681697918
 21
2.074753649928922
 31
7.003999999999999
100
AcDbText
 73
     3
  0
TEXT
  5
E94
330
E8E
100
AcDbEntity
  8
DIM
 62
     7
100
AcDbText
 10
-0.003116681697918
 20
3.489213974989991
 30
7.003999999999999
 40
0.187
  1
DIMENSIONS IN INCHES  
 41
0.8
  7
ADESK1
 11
-0.003116681697918
 21
3.676213974989991
 31
7.003999999999999
100
AcDbText
 73
     3
  0
TEXT
  5
E95
330
E8E
100
AcDbEntity
  8
0
100
AcDbText
 10
0.0130734016746885
 20
0.8627432887918262
 30
11.6733
 40
0.195
  1
ADVANCED GLAZINGS LTD.
  7
style1
 11
0.0130734016746885
 21
1.057743288791826
 31
11.6733
100
AcDbText
 73
     3
  0
TEXT
  5
E96
330
E8E
100
AcDbEntity
  8
0
100
AcDbText
 10
0.0130734016746885
 20
1.16395665126975
 30
11.6733
 40
0.195
  1
SOLERA IS A REGISTERED TRADEMARK
  7
style1
 11
0.0130734016746885
 21
1.35895665126975
 31
11.6733
100
AcDbText
 73
     3
  0
ENDBLK
  5
E98
330
E8E
100
AcDbEntity
  8
0
100
AcDbBlockEnd
  0
BLOCK
  5
1155
330
114B
100
AcDbEntity
  8
0
100
AcDbBlockBegin
  2
*D5
 70
     1
 10
0.0
 20
0.0
 30
0.0
  3
*D5
  1

  0
LINE
  5
114C
330
114B
100
AcDbEntity
  8
DIM
 62
     0
370
    -2
100
AcDbLine
 10
-2.084030793518781
 20
9.425427140238273
 30
0.0
 11
-2.511978507046514
 21
9.425427140238273
 31
0.0
  0
LINE
  5
114D
330
114B
100
AcDbEntity
  8
DIM
 62
     0
370
    -2
100
AcDbLine
 10
-1.849280793518779
 20
9.823677140238277
 30
0.0
 11
-2.511978507046514
 21
9.823677140238277
 31
0.0
  0
LINE
  5
114E
330
114B
100
AcDbEntity
  8
DIM
 62
     0
370
    -2
100
AcDbLine
 10
-2.386978507046514
 20
9.425427140238273
 30
0.0
 11
-2.386978507046514
 21
9.823677140238277
 31
0.0
  0
MTEXT
  5
114F
330
114B
100
AcDbEntity
  8
DIM
 62
     0
100
AcDbMText
 10
-2.573982473152803
 20
9.077838450238658
 30
0.0
 40
0.125
 41
0.0
 71
     5
 72
     1
  1
\A1;{\H1.000000x;\S1/2;}"
 11
0.0000000000000001
 21
1.0
 31
0.0
 73
     1
 44
1.0
1001
ACAD
1000
MTEXTBEGIN
1070
    73
1070
     1
1070
    44
1040
1.0
1070
    74
1070
     0
1000
MTEXTEND
  0
INSERT
  5
1150
330
114B
100
AcDbEntity
  8
DIM
 62
     0
370
    -2
100
AcDbBlockReference
  2
_ARCHTICK
 10
-2.386978507046514
 20
9.425427140238273
 30
0.0
 41
0.125
 42
0.125
 43
0.125
 50
270.0
  0
INSERT
  5
1151
330
114B
100
AcDbEntity
  8
DIM
 62
     0
370
    -2
100
AcDbBlockReference
  2
_ARCHTICK
 10
-2.386978507046514
 20
9.823677140238277
 30
0.0
 41
0.125
 42
0.125
 43
0.125
 50
90.0
  0
POINT
  5
1152
330
114B
100
AcDbEntity
  8
Defpoints
 62
     0
100
AcDbPoint
 10
-1.959030793518781
 20
9.425427140238273
 30
3.501974999999999
  0
POINT
  5
1153
330
114B
100
AcDbEntity
  8
Defpoints
 62
     0
100
AcDbPoint
 10
-1.724280793518779
 20
9.823677140238277
 30
3.501974999999999
  0
POINT
  5
1154
330
114B
100
AcDbEntity
  8
Defpoints
 62
     0
100
AcDbPoint
 10
-2.386978507046514
 20
9.823677140238277
 30
0.0
  0
ENDBLK
  5
1156
330
114B
100
AcDbEntity
  8
0
100
AcDbBlockEnd
  0
BLOCK
  5
1161
330
1157
100
AcDbEntity
  8
0
100
AcDbBlockBegin
  2
*D6
 70
     1
 10
0.0
 20
0.0
 30
0.0
  3
*D6
  1

  0
LINE
  5
1158
330
1157
100
AcDbEntity
  8
DIM
 62
     0
370
    -2
100
AcDbLine
 10
-1.959030793518778
 20
11.58076729388287
 30
0.0
 11
-1.959030793518778
 21
12.51509798037542
 31
0.0
  0
LINE
  5
1159
330
1157
100
AcDbEntity
  8
DIM
 62
     0
370
    -2
100
AcDbLine
 10
0.7954692064812221
 20
11.58076729388287
 30
0.0
 11
0.7954692064812222
 21
12.51509798037542
 31
0.0
  0
LINE
  5
115A
330
1157
100
AcDbEntity
  8
DIM
 62
     0
370
    -2
100
AcDbLine
 10
-1.959030793518778
 20
12.39009798037542
 30
0.0
 11
0.7954692064812222
 21
12.39009798037542
 31
0.0
  0
INSERT
  5
115B
330
1157
100
AcDbEntity
  8
DIM
 62
     0
370
    -2
100
AcDbBlockReference
  2
_ARCHTICK
 10
-1.959030793518778
 20
12.39009798037542
 30
0.0
 41
0.125
 42
0.125
 43
0.125
 50
180.0
  0
INSERT
  5
115C
330
1157
100
AcDbEntity
  8
DIM
 62
     0
370
    -2
100
AcDbBlockReference
  2
_ARCHTICK
 10
0.7954692064812222
 20
12.39009798037542
 30
0.0
 41
0.125
 42
0.125
 43
0.125
  0
MTEXT
  5
115D
330
1157
100
AcDbEntity
  8
DIM
 62
     0
100
AcDbMText
 10
-0.581780793518778
 20
12.52030631370876
 30
0.0
 40
0.125
 41
0.0
 71
     5
 72
     1
  1
\A1;SEE NOTE 2
 73
     1
 44
1.0
1001
ACAD
1000
MTEXTBEGIN
1070
    73
1070
     1
1070
    44
1040
1.0
1070
    74
1070
     0
1000
MTEXTEND
  0
POINT
  5
115E
330
1157
100
AcDbEntity
  8
Defpoints
 62
     0
100
AcDbPoint
 10
-1.959030793518778
 20
11.45576729388287
 30
3.501974999999999
  0
POINT
  5
115F
330
1157
100
AcDbEntity
  8
Defpoints
 62
     0
100
AcDbPoint
 10
0.7954692064812221
 20
11.45576729388287
 30
3.501974999999999
  0
POINT
  5
1160
330
1157
100
AcDbEntity
  8
Defpoints
 62
     0
100
AcDbPoint
 10
0.7954692064812222
 20
12.39009798037542
 30
0.0
  0
ENDBLK
  5
1162
330
1157
100
AcDbEntity
  8
0
100
AcDbBlockEnd
  0
BLOCK
  5
116D
330
1163
100
AcDbEntity
  8
0
100
AcDbBlockBegin
  2
*D7
 70
     1
 10
0.0
 20
0.0
 30
0.0
  3
*D7
  1

  0
LINE
  5
1164
330
1163
100
AcDbEntity
  8
DIM
 62
     0
370
    -2
100
AcDbLine
 10
-1.771530793518778
 20
11.58076729388287
 30
0.0
 11
-1.771530793518778
 21
12.02241617299375
 31
0.0
  0
LINE
  5
1165
330
1163
100
AcDbEntity
  8
DIM
 62
     0
370
    -2
100
AcDbLine
 10
0.6079692064812221
 20
11.58076729388287
 30
0.0
 11
0.6079692064812221
 21
12.02241617299375
 31
0.0
  0
LINE
  5
1166
330
1163
100
AcDbEntity
  8
DIM
 62
     0
370
    -2
100
AcDbLine
 10
-1.771530793518778
 20
11.89741617299375
 30
0.0
 11
0.6079692064812221
 21
11.89741617299375
 31
0.0
  0
INSERT
  5
1167
330
1163
100
AcDbEntity
  8
DIM
 62
     0
370
    -2
100
AcDbBlockReference
  2
_ARCHTICK
 10
-1.771530793518778
 20
11.89741617299375
 30
0.0
 41
0.125
 42
0.125
 43
0.125
 50
180.0
  0
INSERT
  5
1168
330
1163
100
AcDbEntity
  8
DIM
 62
     0
370
    -2
100
AcDbBlockReference
  2
_ARCHTICK
 10
0.6079692064812221
 20
11.89741617299375
 30
0.0
 41
0.125
 42
0.125
 43
0.125
  0
MTEXT
  5
1169
330
1163
100
AcDbEntity
  8
DIM
 62
     0
100
AcDbMText
 10
-0.581780793518778
 20
12.10640054799375
 30
0.0
 40
0.125
 41
0.0
 71
     5
 72
     1
  1
\A1;2{\H1.000000x;\S1/2;}"*
 73
     1
 44
1.0
1001
ACAD
1000
MTEXTBEGIN
1070
    73
1070
     1
1070
    44
1040
1.0
1070
    74
1070
     0
1000
MTEXTEND
  0
POINT
  5
116A
330
1163
100
AcDbEntity
  8
Defpoints
 62
     0
100
AcDbPoint
 10
-1.771530793518778
 20
11.45576729388287
 30
3.501974999999999
  0
POINT
  5
116B
330
1163
100
AcDbEntity
  8
Defpoints
 62
     0
100
AcDbPoint
 10
0.6079692064812221
 20
11.45576729388287
 30
3.501974999999999
  0
POINT
  5
116C
330
1163
100
AcDbEntity
  8
Defpoints
 62
     0
100
AcDbPoint
 10
0.6079692064812221
 20
11.89741617299375
 30
0.0
  0
ENDBLK
  5
116E
330
1163
100
AcDbEntity
  8
0
100
AcDbBlockEnd
  0
BLOCK
  5
120A
330
116F
100
AcDbEntity
  8
0
100
AcDbBlockBegin
  2
300-3001-12
 70
     0
 10
0.0
 20
0.0
 30
0.0
  3
300-3001-12
  1

  0
TEXT
  5
1170
330
116F
100
AcDbEntity
  8
DIM
  6
Continuous
100
AcDbText
 10
-116.0428240727193
 20
103.1795226734418
 30
0.0
 40
0.1
  1
 
  7
ROMANS
 11
-116.0428240727193
 21
103.2295226734418
 31
0.0
100
AcDbText
 73
     2
  0
TEXT
  5
1171
330
116F
100
AcDbEntity
  8
DIM
  6
Continuous
100
AcDbText
 10
-112.1341240727193
 20
103.2044226734418
 30
0.0
 40
0.1
  1
 
  7
ROMANS
 11
-112.1341240727193
 21
103.2544226734418
 31
0.0
100
AcDbText
 73
     2
  0
TEXT
  5
1172
330
116F
100
AcDbEntity
  8
DIM
  6
Continuous
100
AcDbText
 10
-111.2041240727194
 20
100.4007226734418
 30
0.0
 40
0.125
  1
 
  7
ROMANS
 11
-111.2041240727194
 21
100.4632226734418
 31
0.0
100
AcDbText
 73
     2
  0
TEXT
  5
1173
330
116F
100
AcDbEntity
  8
DIM
  6
Continuous
100
AcDbText
 10
-111.2041240727194
 20
100.2132226734417
 30
0.0
 40
0.125
  1
 
  7
ROMANS
 11
-111.2041240727194
 21
100.2757226734418
 31
0.0
100
AcDbText
 73
     2
  0
TEXT
  5
1174
330
116F
100
AcDbEntity
  8
DIM
  6
Continuous
100
AcDbText
 10
-111.2041240727194
 20
100.0257226734418
 30
0.0
 40
0.125
  1
 
  7
ROMANS
 11
-111.2041240727194
 21
100.0882226734417
 31
0.0
100
AcDbText
 73
     2
  0
TEXT
  5
1175
330
116F
100
AcDbEntity
  8
DIM
  6
Continuous
100
AcDbText
 10
-111.2041240727194
 20
99.83822267344178
 30
0.0
 40
0.125
  1
 
  7
ROMANS
 11
-111.2041240727194
 21
99.90072267344178
 31
0.0
100
AcDbText
 73
     2
  0
TEXT
  5
1176
330
116F
100
AcDbEntity
  8
DIM
  6
Continuous
100
AcDbText
 10
-111.2041240727194
 20
99.65072267344178
 30
0.0
 40
0.125
  1
 
  7
ROMANS
 11
-111.2041240727194
 21
99.71322267344177
 31
0.0
100
AcDbText
 73
     2
  0
TEXT
  5
1177
330
116F
100
AcDbEntity
  8
DIM
 62
     7
100
AcDbText
 10
-1.929357157078061
 20
-13.00642963349986
 30
4.669299999999999
 40
0.15625
  1
SOLERA-S TGU 
 41
0.8
 11
-1.929357157078061
 21
-12.92830463349986
 31
4.669299999999999
100
AcDbText
 73
     2
  0
TEXT
  5
1178
330
116F
100
AcDbEntity
  8
DIM
 62
     7
100
AcDbText
 10
-1.929357157078061
 20
-13.56101524156552
 30
4.669299999999999
 40
0.15625
  1
SOLERA-S TGU CROSS SECTION
 41
0.8
 11
-1.929357157078061
 21
-13.48289024156552
 31
4.669299999999999
100
AcDbText
 73
     2
  0
LINE
  5
1179
330
116F
100
AcDbEntity
  8
0
100
AcDbLine
 10
-5.820376292347187
 20
-13.48268721916546
 30
0.0
 11
-2.453331011623578
 21
-13.48268721916546
 31
0.0
  0
LINE
  5
117A
330
116F
100
AcDbEntity
  8
0
100
AcDbLine
 10
-2.455376292347188
 20
-14.15891051895445
 30
0.0
 11
1.419623707652811
 21
-14.15891051895445
 31
0.0
  0
LINE
  5
117B
330
116F
100
AcDbEntity
  8
0
100
AcDbLine
 10
-2.455376292347188
 20
-13.15891051895445
 30
0.0
 11
1.419623707652811
 21
-13.15891051895445
 31
0.0
  0
LINE
  5
117C
330
116F
100
AcDbEntity
  8
0
100
AcDbLine
 10
-1.455376292347188
 20
-14.40891051895445
 30
0.0
 11
-1.455376292347188
 21
-14.15891051895445
 31
0.0
  0
LINE
  5
117D
330
116F
100
AcDbEntity
  8
0
100
AcDbLine
 10
0.044623707652812
 20
-14.40891051895445
 30
0.0
 11
0.044623707652812
 21
-14.15891051895445
 31
0.0
  0
LINE
  5
117E
330
116F
100
AcDbEntity
  8
0
100
AcDbLine
 10
-1.865130640859332
 20
-14.15891051895445
 30
0.0
 11
-1.865130640859332
 21
-13.77891051895445
 31
0.0
  0
LINE
  5
117F
330
116F
100
AcDbEntity
  8
0
100
AcDbLine
 10
-0.6925692279873688
 20
-14.15891051895445
 30
0.0
 11
-0.6925692279873688
 21
-13.77891051895445
 31
0.0
  0
LINE
  5
1180
330
116F
100
AcDbEntity
  8
0
100
AcDbLine
 10
1.039623707652812
 20
-14.15891051895445
 30
0.0
 11
1.039623707652812
 21
-13.77891051895445
 31
0.0
  0
TEXT
  5
1181
330
116F
100
AcDbEntity
  8
DIM
100
AcDbText
 10
-2.403076292347188
 20
-14.31641051895445
 30
0.0
 40
0.065
  1
Scale
 41
0.8
100
AcDbText
  0
TEXT
  5
1182
330
116F
100
AcDbEntity
  8
DIM
100
AcDbText
 10
0.0974237076528115
 20
-14.31641051895445
 30
0.0
 40
0.065
  1
Sheet
 41
0.8
100
AcDbText
  0
TEXT
  5
1183
330
116F
100
AcDbEntity
  8
DIM
100
AcDbText
 10
-2.367476292347188
 20
-13.89301051895445
 30
0.0
 40
0.065
  1
DRWN.
 41
0.8
100
AcDbText
  0
TEXT
  5
1184
330
116F
100
AcDbEntity
  8
DIM
100
AcDbText
 10
-1.796230640859332
 20
-13.89301051895445
 30
0.0
 40
0.065
  1
DATE:
 41
0.8
100
AcDbText
  0
TEXT
  5
1185
330
116F
100
AcDbEntity
  8
DIM
100
AcDbText
 10
-0.6215692279873691
 20
-13.89301051895445
 30
0.0
 40
0.065
  1
DWG NO.
 41
0.8
100
AcDbText
  0
TEXT
  5
1186
330
116F
100
AcDbEntity
  8
DIM
100
AcDbText
 10
1.120123707652811
 20
-13.89301051895445
 30
0.0
 40
0.065
  1
REV
  7
ADESK1
100
AcDbText
  0
TEXT
  5
1187
330
116F
100
AcDbEntity
  8
DIM
100
AcDbText
 10
-2.367476292347188
 20
-13.28047537366585
 30
0.0
 40
0.065
  1
TITLE:
 41
0.8
100
AcDbText
  0
TEXT
  5
1188
330
116F
100
AcDbEntity
  8
DIM
100
AcDbText
 10
-2.333777102183036
 20
-14.08941781818157
 30
0.0
 40
0.09375
  1
ATS
 41
0.8
100
AcDbText
  0
TEXT
  5
1189
330
116F
100
AcDbEntity
  8
DIM
 62
     7
100
AcDbText
 10
-0.1892640473374407
 20
-14.08941781818157
 30
0.0
 40
0.125
  1
300-3001-12
 41
0.8
100
AcDbText
  0
TEXT
  5
118A
330
116F
100
AcDbEntity
  8
DIM
  6
Continuous
100
AcDbText
 10
1.164722662903904
 20
-14.08941781818157
 30
0.0
 40
0.125
  1
2
  7
TITLE
100
AcDbText
  0
TEXT
  5
118B
330
116F
100
AcDbEntity
  8
DIM
100
AcDbText
 10
-2.006476292347187
 20
-14.32178509644035
 30
0.0
 40
0.09375
  1
FULL
 41
0.8
100
AcDbText
  0
TEXT
  5
118C
330
116F
100
AcDbEntity
  8
DIM
100
AcDbText
 10
-1.797650727972342
 20
-14.08941781818157
 30
0.0
 40
0.09375
  1
06/23/00
 41
0.8
100
AcDbText
  0
LINE
  5
118D
330
116F
100
AcDbEntity
  8
5
  6
HIDDEN
 62
     7
100
AcDbLine
 10
-1.358874237604437
 20
-7.645152884911713
 30
3.501974999999999
 11
-3.738374237604435
 21
-7.645152884911713
 31
3.501974999999999
  0
LINE
  5
118E
330
116F
100
AcDbEntity
  8
5
  6
HIDDEN
 62
     7
100
AcDbLine
 10
-1.358874237604435
 20
-7.457652884911713
 30
3.501974999999999
 11
-3.738374237604435
 21
-7.457652884911713
 31
3.501974999999999
  0
LINE
  5
118F
330
116F
100
AcDbEntity
  8
5
  6
Continuous
 62
     7
100
AcDbLine
 10
-1.358874237604435
 20
-7.270152884911713
 30
3.501974999999999
 11
-3.738374237604435
 21
-7.270152884911713
 31
3.501974999999999
  0
LINE
  5
1190
330
116F
100
AcDbEntity
  8
5
  6
HIDDEN
 62
     7
100
AcDbLine
 10
-1.358874237604435
 20
-6.364812731267111
 30
3.501974999999999
 11
-3.738374237604435
 21
-6.364812731267111
 31
3.501974999999999
  0
LINE
  5
1191
330
116F
100
AcDbEntity
  8
5
  6
Continuous
 62
     7
100
AcDbLine
 10
-1.358874237604435
 20
-6.177312731267111
 30
3.501974999999999
 11
-3.738374237604435
 21
-6.177312731267111
 31
3.501974999999999
  0
LINE
  5
1192
102
{ACAD_REACTORS
330
11D3
102
}
330
116F
100
AcDbEntity
  8
4
  6
Continuous
 62
     7
100
AcDbLine
 10
-3.550124237604435
 20
-8.138652884911714
 30
3.501974999999999
 11
-1.54712423760444
 21
-8.138652884911714
 31
3.501974999999999
  0
LINE
  5
1193
102
{ACAD_REACTORS
330
11D3
102
}
330
116F
100
AcDbEntity
  8
4
  6
Continuous
 62
     7
100
AcDbLine
 10
-1.54712423760444
 20
-8.091402884911712
 30
3.501974999999999
 11
-3.550124237604435
 21
-8.091402884911712
 31
3.501974999999999
  0
LINE
  5
1194
330
116F
100
AcDbEntity
  8
4
  6
Continuous
 62
     7
100
AcDbLine
 10
-3.691124237604437
 20
-7.809402884911708
 30
3.501974999999999
 11
-1.406124237604438
 21
-7.809402884911708
 31
3.501974999999999
  0
LINE
  5
1195
330
116F
100
AcDbEntity
  8
4
  6
Continuous
 62
     7
100
AcDbLine
 10
-1.365849237604434
 20
-7.95040288491171
 30
3.501974999999999
 11
-1.358874237604437
 21
-7.943502884911715
 31
3.501974999999999
  0
LINE
  5
1196
330
116F
100
AcDbEntity
  8
4
  6
Continuous
 62
     7
100
AcDbLine
 10
-1.376424237604433
 20
-7.95040288491171
 30
3.501974999999999
 11
-1.358874237604437
 21
-7.932927884911716
 31
3.501974999999999
  0
LINE
  5
1197
330
116F
100
AcDbEntity
  8
4
  6
Continuous
 62
     7
100
AcDbLine
 10
-1.386999237604432
 20
-7.95040288491171
 30
3.501974999999999
 11
-1.358874237604437
 21
-7.922277884911714
 31
3.501974999999999
  0
LINE
  5
1198
330
116F
100
AcDbEntity
  8
4
  6
Continuous
 62
     7
100
AcDbLine
 10
-1.397649237604434
 20
-7.95040288491171
 30
3.501974999999999
 11
-1.358874237604437
 21
-7.911702884911715
 31
3.501974999999999
  0
LINE
  5
1199
330
116F
100
AcDbEntity
  8
4
  6
Continuous
 62
     7
100
AcDbLine
 10
-1.406124237604438
 20
-7.948302884911715
 30
3.501974999999999
 11
-1.358874237604437
 21
-7.901052884911713
 31
3.501974999999999
  0
LINE
  5
119A
330
116F
100
AcDbEntity
  8
4
  6
Continuous
 62
     7
100
AcDbLine
 10
-1.406124237604438
 20
-7.937727884911716
 30
3.501974999999999
 11
-1.358874237604437
 21
-7.890477884911714
 31
3.501974999999999
  0
LINE
  5
119B
330
116F
100
AcDbEntity
  8
4
  6
Continuous
 62
     7
100
AcDbLine
 10
-1.406124237604438
 20
-7.927077884911714
 30
3.501974999999999
 11
-1.358874237604437
 21
-7.879827884911712
 31
3.501974999999999
  0
LINE
  5
119C
330
116F
100
AcDbEntity
  8
4
  6
Continuous
 62
     7
100
AcDbLine
 10
-1.406124237604438
 20
-7.916502884911714
 30
3.501974999999999
 11
-1.358874237604437
 21
-7.869252884911713
 31
3.501974999999999
  0
LINE
  5
119D
330
116F
100
AcDbEntity
  8
4
  6
Continuous
 62
     7
100
AcDbLine
 10
-1.406124237604438
 20
-7.905927884911715
 30
3.501974999999999
 11
-1.358874237604437
 21
-7.858677884911703
 31
3.501974999999999
  0
LINE
  5
119E
330
116F
100
AcDbEntity
  8
4
  6
Continuous
 62
     7
100
AcDbLine
 10
-1.406124237604438
 20
-7.895277884911713
 30
3.501974999999999
 11
-1.358874237604437
 21
-7.848027884911711
 31
3.501974999999999
  0
LINE
  5
119F
330
116F
100
AcDbEntity
  8
4
  6
Continuous
 62
     7
100
AcDbLine
 10
-1.406124237604438
 20
-7.884702884911714
 30
3.501974999999999
 11
-1.358874237604437
 21
-7.837452884911712
 31
3.501974999999999
  0
LINE
  5
11A0
330
116F
100
AcDbEntity
  8
4
  6
Continuous
 62
     7
100
AcDbLine
 10
-1.406124237604438
 20
-7.874052884911712
 30
3.501974999999999
 11
-1.358874237604437
 21
-7.82680288491171
 31
3.501974999999999
  0
LINE
  5
11A1
330
116F
100
AcDbEntity
  8
4
  6
Continuous
 62
     7
100
AcDbLine
 10
-1.406124237604438
 20
-7.863477884911713
 30
3.501974999999999
 11
-1.358874237604437
 21
-7.816227884911711
 31
3.501974999999999
  0
LINE
  5
11A2
330
116F
100
AcDbEntity
  8
4
  6
Continuous
 62
     7
100
AcDbLine
 10
-1.406124237604438
 20
-7.852827884911711
 30
3.501974999999999
 11
-1.362699237604436
 21
-7.809402884911708
 31
3.501974999999999
  0
LINE
  5
11A3
330
116F
100
AcDbEntity
  8
4
  6
Continuous
 62
     7
100
AcDbLine
 10
-1.406124237604438
 20
-7.842252884911712
 30
3.501974999999999
 11
-1.373274237604435
 21
-7.809402884911708
 31
3.501974999999999
  0
LINE
  5
11A4
330
116F
100
AcDbEntity
  8
4
  6
Continuous
 62
     7
100
AcDbLine
 10
-1.406124237604438
 20
-7.831677884911723
 30
3.501974999999999
 11
-1.383924237604437
 21
-7.809402884911708
 31
3.501974999999999
  0
LINE
  5
11A5
330
116F
100
AcDbEntity
  8
4
  6
Continuous
 62
     7
100
AcDbLine
 10
-1.406124237604438
 20
-7.82102788491171
 30
3.501974999999999
 11
-1.394499237604436
 21
-7.809402884911708
 31
3.501974999999999
  0
LINE
  5
11A6
330
116F
100
AcDbEntity
  8
4
  6
Continuous
 62
     7
100
AcDbLine
 10
-1.406124237604438
 20
-7.810452884911711
 30
3.501974999999999
 11
-1.405149237604427
 21
-7.809402884911708
 31
3.501974999999999
  0
ARC
  5
11A7
102
{ACAD_REACTORS
330
11D3
102
}
330
116F
100
AcDbEntity
  8
4
  6
HIDDEN
 62
     7
100
AcDbCircle
 10
1.803654237604439
 20
-8.811561884911721
 30
-3.501971249999999
 40
0.75
210
0.0
220
0.0
230
-1.0
100
AcDbArc
 50
116.2069939999998
 51
126.369994
  0
LINE
  5
11A8
102
{ACAD_REACTORS
330
11D3
102
}
330
116F
100
AcDbEntity
  8
4
  6
HIDDEN
 62
     7
100
AcDbLine
 10
-1.54712423760444
 20
-8.138652884911714
 30
3.501974999999999
 11
-1.472424237604433
 21
-8.138652884911714
 31
3.501974999999999
  0
LWPOLYLINE
  5
11A9
102
{ACAD_REACTORS
330
11D3
102
}
330
116F
100
AcDbEntity
  8
4
  6
Continuous
 62
     7
100
AcDbPolyline
 90
        4
 70
     1
 43
0.0
 38
3.501974999999999
 10
-1.358874237604437
 20
-7.95040288491171
 10
-1.358874237604437
 20
-7.809402884911708
 10
-1.406124237604438
 20
-7.809402884911708
 10
-1.406124237604438
 20
-7.95040288491171
  0
LINE
  5
11AA
330
116F
100
AcDbEntity
  8
4
  6
Continuous
 62
     7
100
AcDbLine
 10
-1.406124237604438
 20
-7.809402884911708
 30
3.501974999999999
 11
-1.406124237604438
 21
-7.95040288491171
 31
3.501974999999999
  0
LINE
  5
11AB
102
{ACAD_REACTORS
330
11D3
102
}
330
116F
100
AcDbEntity
  8
4
  6
Continuous
 62
     7
100
AcDbLine
 10
-1.54712423760444
 20
-8.091402884911712
 30
3.501974999999999
 11
-1.406124237604438
 21
-7.95040288491171
 31
3.501974999999999
  0
LINE
  5
11AC
330
116F
100
AcDbEntity
  8
4
  6
Continuous
 62
     7
100
AcDbLine
 10
-3.698624237604441
 20
-7.95040288491171
 30
3.501974999999999
 11
-3.691124237604437
 21
-7.942977884911709
 31
3.501974999999999
  0
LINE
  5
11AD
330
116F
100
AcDbEntity
  8
4
  6
Continuous
 62
     7
100
AcDbLine
 10
-3.70919923760444
 20
-7.95040288491171
 30
3.501974999999999
 11
-3.691124237604437
 21
-7.932327884911718
 31
3.501974999999999
  0
LINE
  5
11AE
330
116F
100
AcDbEntity
  8
4
  6
Continuous
 62
     7
100
AcDbLine
 10
-3.719849237604442
 20
-7.95040288491171
 30
3.501974999999999
 11
-3.691124237604437
 21
-7.921752884911718
 31
3.501974999999999
  0
LINE
  5
11AF
330
116F
100
AcDbEntity
  8
4
  6
Continuous
 62
     7
100
AcDbLine
 10
-3.730424237604441
 20
-7.95040288491171
 30
3.501974999999999
 11
-3.691124237604437
 21
-7.911102884911716
 31
3.501974999999999
  0
LINE
  5
11B0
330
116F
100
AcDbEntity
  8
4
  6
Continuous
 62
     7
100
AcDbLine
 10
-3.738374237604439
 20
-7.947777884911708
 30
3.501974999999999
 11
-3.691124237604437
 21
-7.900527884911717
 31
3.501974999999999
  0
LINE
  5
11B1
330
116F
100
AcDbEntity
  8
4
  6
Continuous
 62
     7
100
AcDbLine
 10
-3.738374237604439
 20
-7.937127884911717
 30
3.501974999999999
 11
-3.691124237604437
 21
-7.889877884911715
 31
3.501974999999999
  0
LINE
  5
11B2
330
116F
100
AcDbEntity
  8
4
  6
Continuous
 62
     7
100
AcDbLine
 10
-3.738374237604439
 20
-7.926552884911718
 30
3.501974999999999
 11
-3.691124237604437
 21
-7.879302884911716
 31
3.501974999999999
  0
LINE
  5
11B3
330
116F
100
AcDbEntity
  8
4
  6
Continuous
 62
     7
100
AcDbLine
 10
-3.738374237604439
 20
-7.915977884911718
 30
3.501974999999999
 11
-3.691124237604437
 21
-7.868727884911717
 31
3.501974999999999
  0
LINE
  5
11B4
330
116F
100
AcDbEntity
  8
4
  6
Continuous
 62
     7
100
AcDbLine
 10
-3.738374237604439
 20
-7.905327884911717
 30
3.501974999999999
 11
-3.691124237604437
 21
-7.858077884911715
 31
3.501974999999999
  0
LINE
  5
11B5
330
116F
100
AcDbEntity
  8
4
  6
Continuous
 62
     7
100
AcDbLine
 10
-3.738374237604439
 20
-7.894752884911717
 30
3.501974999999999
 11
-3.691124237604437
 21
-7.847502884911715
 31
3.501974999999999
  0
LINE
  5
11B6
330
116F
100
AcDbEntity
  8
4
  6
Continuous
 62
     7
100
AcDbLine
 10
-3.738374237604439
 20
-7.884102884911715
 30
3.501974999999999
 11
-3.691124237604437
 21
-7.836852884911714
 31
3.501974999999999
  0
LINE
  5
11B7
330
116F
100
AcDbEntity
  8
4
  6
Continuous
 62
     7
100
AcDbLine
 10
-3.738374237604439
 20
-7.873527884911716
 30
3.501974999999999
 11
-3.691124237604437
 21
-7.826277884911714
 31
3.501974999999999
  0
LINE
  5
11B8
330
116F
100
AcDbEntity
  8
4
  6
Continuous
 62
     7
100
AcDbLine
 10
-3.738374237604439
 20
-7.862877884911714
 30
3.501974999999999
 11
-3.691124237604437
 21
-7.815627884911712
 31
3.501974999999999
  0
LINE
  5
11B9
330
116F
100
AcDbEntity
  8
4
  6
Continuous
 62
     7
100
AcDbLine
 10
-3.738374237604439
 20
-7.852302884911715
 30
3.501974999999999
 11
-3.695474237604432
 21
-7.809402884911708
 31
3.501974999999999
  0
LINE
  5
11BA
330
116F
100
AcDbEntity
  8
4
  6
Continuous
 62
     7
100
AcDbLine
 10
-3.738374237604439
 20
-7.841727884911716
 30
3.501974999999999
 11
-3.706124237604434
 21
-7.809402884911708
 31
3.501974999999999
  0
LINE
  5
11BB
330
116F
100
AcDbEntity
  8
4
  6
Continuous
 62
     7
100
AcDbLine
 10
-3.738374237604439
 20
-7.831077884911714
 30
3.501974999999999
 11
-3.716699237604433
 21
-7.809402884911708
 31
3.501974999999999
  0
LINE
  5
11BC
330
116F
100
AcDbEntity
  8
4
  6
Continuous
 62
     7
100
AcDbLine
 10
-3.738374237604439
 20
-7.820502884911714
 30
3.501974999999999
 11
-3.727349237604435
 21
-7.809402884911708
 31
3.501974999999999
  0
LINE
  5
11BD
330
116F
100
AcDbEntity
  8
4
  6
Continuous
 62
     7
100
AcDbLine
 10
-3.738374237604439
 20
-7.809852884911713
 30
3.501974999999999
 11
-3.737924237604434
 21
-7.809402884911708
 31
3.501974999999999
  0
LINE
  5
11BE
102
{ACAD_REACTORS
330
11D3
102
}
330
116F
100
AcDbEntity
  8
4
  6
HIDDEN
 62
     7
100
AcDbLine
 10
-3.727874237604442
 20
-8.202627884911716
 30
3.501974999999999
 11
-3.738374237604439
 21
-8.192052884911717
 31
3.501974999999999
  0
ARC
  5
11BF
102
{ACAD_REACTORS
330
11D3
102
}
330
116F
100
AcDbEntity
  8
4
  6
HIDDEN
 62
     7
100
AcDbCircle
 10
3.343828487604439
 20
-8.845473884911719
 30
-3.501971249999999
 40
0.75
210
0.0
220
0.0
230
-1.0
100
AcDbArc
 50
58.25742800000004
 51
70.46209200000037
  0
ARC
  5
11C0
330
116F
100
AcDbEntity
  8
4
  6
HIDDEN
 62
     7
100
AcDbCircle
 10
-3.59057623760444
 20
-8.326113884911716
 30
3.501971249999999
 40
0.1875
100
AcDbArc
 50
142.038914
 51
143.3105609999998
  0
LINE
  5
11C1
102
{ACAD_REACTORS
330
11D3
102
}
330
116F
100
AcDbEntity
  8
4
  6
HIDDEN
 62
     7
100
AcDbLine
 10
-3.550124237604435
 20
-8.138652884911714
 30
3.501974999999999
 11
-3.594674237604432
 21
-8.138652884911714
 31
3.501974999999999
  0
LWPOLYLINE
  5
11C2
102
{ACAD_REACTORS
330
11D3
102
}
330
116F
100
AcDbEntity
  8
4
  6
Continuous
 62
     7
100
AcDbPolyline
 90
        4
 70
     1
 43
0.0
 38
3.501974999999999
 10
-3.691124237604437
 20
-7.95040288491171
 10
-3.691124237604437
 20
-7.809402884911708
 10
-3.738374237604439
 20
-7.809402884911706
 10
-3.738374237604439
 20
-7.950402884911708
  0
LINE
  5
11C3
102
{ACAD_REACTORS
330
11D3
102
}
330
116F
100
AcDbEntity
  8
4
  6
Continuous
 62
     7
100
AcDbLine
 10
-3.550124237604435
 20
-8.091402884911712
 30
3.501974999999999
 11
-3.691124237604437
 21
-7.95040288491171
 31
3.501974999999999
  0
LINE
  5
11C4
330
116F
100
AcDbEntity
  8
4
  6
Continuous
 62
     7
100
AcDbLine
 10
-3.691124237604437
 20
-7.95040288491171
 30
3.501974999999999
 11
-3.691124237604437
 21
-7.809402884911708
 31
3.501974999999999
  0
LINE
  5
11C5
330
116F
100
AcDbEntity
  8
4
  6
Continuous
 62
     7
100
AcDbLine
 10
-1.319499237604428
 20
-6.276087731267107
 30
3.501974999999999
 11
-1.358874237604435
 21
-6.177312731267111
 31
3.501974999999999
  0
LINE
  5
11C6
102
{ACAD_REACTORS
330
11D3
102
}
330
116F
100
AcDbEntity
  8
4
  6
Continuous
 62
     7
100
AcDbLine
 10
-1.358874237604435
 20
-6.177312731267111
 30
3.501974999999999
 11
-1.358874237604437
 21
-8.207652884911713
 31
3.501974999999999
  0
LINE
  5
11C7
102
{ACAD_REACTORS
330
11D3
102
}
330
116F
100
AcDbEntity
  8
4
  6
Continuous
 62
     7
100
AcDbLine
 10
-1.358874237604437
 20
-8.207652884911713
 30
3.501974999999999
 11
-1.171374237604437
 21
-8.207652884911713
 31
3.501974999999999
  0
LINE
  5
11C8
330
116F
100
AcDbEntity
  8
4
  6
Continuous
 62
     7
100
AcDbLine
 10
-1.171374237604437
 20
-8.207652884911713
 30
3.501974999999999
 11
-1.171374237604435
 21
-6.177312731267111
 31
3.501974999999999
  0
LINE
  5
11C9
330
116F
100
AcDbEntity
  8
4
  6
Continuous
 62
     7
100
AcDbLine
 10
-1.171374237604435
 20
-6.177312731267111
 30
3.501974999999999
 11
-1.214724237604435
 21
-6.221487731267107
 31
3.501974999999999
  0
LINE
  5
11CA
330
116F
100
AcDbEntity
  8
4
  6
Continuous
 62
     7
100
AcDbLine
 10
-1.214724237604435
 20
-6.221487731267107
 30
3.501974999999999
 11
-1.232199237604429
 21
-6.101412731267107
 31
3.501974999999999
  0
LINE
  5
11CB
330
116F
100
AcDbEntity
  8
4
  6
Continuous
 62
     7
100
AcDbLine
 10
-1.232199237604429
 20
-6.101412731267107
 30
3.501974999999999
 11
-1.319499237604428
 21
-6.276087731267107
 31
3.501974999999999
  0
LINE
  5
11CC
330
116F
100
AcDbEntity
  8
4
  6
Continuous
 62
     7
100
AcDbLine
 10
-3.886499237604428
 20
-6.276087731267107
 30
3.501974999999999
 11
-3.925874237604435
 21
-6.177312731267111
 31
3.501974999999999
  0
LINE
  5
11CD
330
116F
100
AcDbEntity
  8
4
  6
Continuous
 62
     7
100
AcDbLine
 10
-3.925874237604435
 20
-6.177312731267111
 30
3.501974999999999
 11
-3.925874237604439
 21
-8.207652884911713
 31
3.501974999999999
  0
LINE
  5
11CE
330
116F
100
AcDbEntity
  8
4
  6
Continuous
 62
     7
100
AcDbLine
 10
-3.925874237604439
 20
-8.207652884911713
 30
3.501974999999999
 11
-3.738374237604439
 21
-8.207652884911713
 31
3.501974999999999
  0
LINE
  5
11CF
330
116F
100
AcDbEntity
  8
4
  6
Continuous
 62
     7
100
AcDbLine
 10
-3.781724237604435
 20
-6.221487731267107
 30
3.501974999999999
 11
-3.799199237604429
 21
-6.101412731267107
 31
3.501974999999999
  0
LINE
  5
11D0
330
116F
100
AcDbEntity
  8
4
  6
Continuous
 62
     7
100
AcDbLine
 10
-3.799199237604429
 20
-6.101412731267107
 30
3.501974999999999
 11
-3.886499237604428
 21
-6.276087731267107
 31
3.501974999999999
  0
LINE
  5
11D1
102
{ACAD_REACTORS
330
11D3
102
}
330
116F
100
AcDbEntity
  8
4
  6
Continuous
 62
     7
100
AcDbLine
 10
-3.738374237604439
 20
-8.207652884911713
 30
3.501974999999999
 11
-3.738374237604435
 21
-6.177312731267111
 31
3.501974999999999
  0
LINE
  5
11D2
330
116F
100
AcDbEntity
  8
4
  6
Continuous
 62
     7
100
AcDbLine
 10
-3.738374237604435
 20
-6.177312731267111
 30
3.501974999999999
 11
-3.781724237604435
 21
-6.221487731267107
 31
3.501974999999999
  0
HATCH
  5
11D3
330
116F
100
AcDbEntity
  8
Hatch
100
AcDbHatch
 10
0.0
 20
0.0
 30
0.0
210
0.0
220
0.0
230
1.0
  2
ANSI38
 70
     0
 71
     1
 91
        1
 92
        7
 72
     1
 73
     1
 93
       14
 10
-3.550124237604434
 20
-8.091402884911712
 42
0.0
 10
-3.691124237604435
 20
-7.950402884911712
 42
0.0
 10
-3.738374237604438
 20
-7.950402884911706
 42
0.0
 10
-3.738374237604438
 20
-8.192052884911719
 42
0.0
 10
-3.728725643372264
 20
-8.201770397674124
 42
-0.0495220426039751
 10
-3.594635333521758
 20
-8.138652884911714
 42
0.0
 10
-3.550124237604435
 20
-8.138652884911714
 42
0.0
 10
-1.54712423760444
 20
-8.138652884911714
 42
0.0
 10
-1.472454180661525
 20
-8.138652884911714
 42
-0.0443746303524067
 10
-1.358913954159158
 20
-8.207652884911713
 42
0.0
 10
-1.358874237604437
 20
-8.207652884911713
 42
0.0
 10
-1.358874237604436
 20
-7.95040288491171
 42
0.0
 10
-1.406124237604439
 20
-7.95040288491171
 42
0.0
 10
-1.547124237604441
 20
-8.091402884911714
 42
0.0
 97
       14
330
11C3
330
11C2
330
11D1
330
11BE
330
11BF
330
11C1
330
1192
330
11A8
330
11A7
330
11C7
330
11C6
330
11A9
330
11AB
330
1193
 75
     0
 76
     1
 52
89.99999999999998
 41
0.375
 77
     0
 78
     2
 53
134.9999999999999
 43
9.461224351777765
 44
-9.5435926305644
 45
-0.0331456303681194
 46
-0.0331456303681194
 79
     0
 53
225.0
 43
9.461224351777765
 44
-9.5435926305644
 45
-0.0331456303681195
 46
-0.0994368911043583
 79
     2
 49
0.1171875
 49
-0.0703125
 47
0.0090790706578831
 98
        1
 10
-3.388645194374077
 20
-8.114707174276126
  0
TEXT
  5
11D4
330
116F
100
AcDbEntity
  8
DIM
100
AcDbText
 10
-4.18381835034388
 20
-8.72504663118303
 30
0.0
 40
0.125
  1
MAX.
 50
90.0
 41
0.8
  7
ADESK1
100
AcDbText
  0
TEXT
  5
11D5
330
116F
100
AcDbEntity
  8
DIM
100
AcDbText
 10
-1.527919320970962
 20
-8.976620776462858
 30
0.0
 40
0.125
  1
STRUCTURAL SEAL
 41
0.8
  7
ADESK1
100
AcDbText
  0
TEXT
  5
11D6
330
116F
100
AcDbEntity
  8
DIM
100
AcDbText
 10
-2.965921741915026
 20
-8.631131416869227
 30
0.0
 40
0.125
  1
SPACER
 41
0.8
  7
ADESK1
100
AcDbText
  0
TEXT
  5
11D7
330
116F
100
AcDbEntity
  8
DIM
100
AcDbText
 10
-0.8688526552949479
 20
-5.718960600052154
 30
0.0
 40
0.125
  1
GLASS AS SPECIFIED
 41
0.8
  7
ADESK1
100
AcDbText
  0
LWPOLYLINE
  5
11D8
330
116F
100
AcDbEntity
  8
DIM
 62
     7
100
AcDbPolyline
 90
        3
 70
     0
 10
-1.175864476571671
 20
-8.089950895929398
 40
0.0
 41
0.03
 10
-1.036451270075797
 20
-8.089950895929398
 40
0.0
 41
0.0
 10
-0.6942675638869882
 20
-8.089950895929398
 40
0.0
 41
0.0
  0
LWPOLYLINE
  5
11D9
330
116F
100
AcDbEntity
  8
DIM
 62
     7
100
AcDbPolyline
 90
        3
 70
     0
 10
-1.175864476571671
 20
-7.823186095286068
 40
0.0
 41
0.03
 10
-1.036451270075797
 20
-7.823186095286068
 40
0.0
 41
0.0
 10
-0.6942675638869882
 20
-7.823186095286068
 40
0.0
 41
0.0
  0
TEXT
  5
11DA
330
116F
100
AcDbEntity
  8
DIM
100
AcDbText
 10
-0.5577918054471112
 20
-7.875135301190738
 30
0.0
 40
0.125
  1
F MAX.
 41
0.8
  7
ADESK1
100
AcDbText
  0
TEXT
  5
11DB
330
116F
100
AcDbEntity
  8
DIM
100
AcDbText
 10
-0.5577918054471112
 20
-8.07751625357169
 30
0.0
 40
0.125
  1
SEE NOTE 1
 41
0.8
  7
ADESK1
100
AcDbText
  0
TEXT
  5
11DC
330
116F
100
AcDbEntity
  8
DIM
100
AcDbText
 10
-1.381335992993135
 20
-9.5661863396212
 30
0.0
 40
0.125
  1
NOTE '1'
 41
0.8
  7
ADESK1
100
AcDbText
  0
TEXT
  5
11DD
330
116F
100
AcDbEntity
  8
DIM
100
AcDbText
 10
-1.381335992993135
 20
-9.768567292002153
 30
0.0
 40
0.125
  1
MAXIMUM CLAMPING FORCE
 41
0.8
  7
ADESK1
100
AcDbText
  0
TEXT
  5
11DE
330
116F
100
AcDbEntity
  8
DIM
100
AcDbText
 10
-1.381335992993135
 20
-9.970948244383105
 30
0.0
 40
0.125
  1
OF 10 LBS / LINEAR INCH
 41
0.8
  7
ADESK1
100
AcDbText
  0
TEXT
  5
11DF
330
116F
100
AcDbEntity
  8
DIM
100
AcDbText
 10
-1.411473130821632
 20
-10.83325418363505
 30
0.0
 40
0.125
  1
NOTE '2'
 41
0.8
  7
ADESK1
100
AcDbText
  0
TEXT
  5
11E0
330
116F
100
AcDbEntity
  8
DIM
100
AcDbText
 10
-1.411473130821632
 20
-11.035635136016
 30
0.0
 40
0.125
  1
OVERALL THICKNESS=
 41
0.8
  7
ADESK1
100
AcDbText
  0
TEXT
  5
11E1
330
116F
100
AcDbEntity
  8
DIM
100
AcDbText
 10
-1.411473130821632
 20
-11.23801608839695
 30
0.0
 40
0.125
  1
INSULATION INSERT 
 41
0.8
  7
ADESK1
100
AcDbText
  0
TEXT
  5
11E2
330
116F
100
AcDbEntity
  8
DIM
100
AcDbText
 10
-1.411473130821632
 20
-11.4403970407779
 30
0.0
 40
0.125
  1
PLUS THICKNESS OUTSIDE GLASS
 41
0.8
  7
ADESK1
100
AcDbText
  0
TEXT
  5
11E3
330
116F
100
AcDbEntity
  8
DIM
100
AcDbText
 10
-1.411473130821632
 20
-11.64277799315885
 30
0.0
 40
0.125
  1
PLUS THICKNESS INSIDE GLASS
 41
0.8
  7
ADESK1
100
AcDbText
  0
LINE
  5
11E4
330
116F
100
AcDbEntity
  8
5
  6
HIDDEN
 62
     7
100
AcDbLine
 10
-1.358874237604435
 20
-6.509885621807516
 30
3.501974999999999
 11
-3.738374237604435
 21
-6.509885621807516
 31
3.501974999999999
  0
LINE
  5
11E5
330
116F
100
AcDbEntity
  8
5
  6
Continuous
 62
     7
100
AcDbLine
 10
-1.358874237604435
 20
-6.676172142689441
 30
3.501974999999999
 11
-3.738374237604435
 21
-6.676172142689441
 31
3.501974999999999
  0
LINE
  5
11E6
330
116F
100
AcDbEntity
  8
5
  6
HIDDEN
 62
     7
100
AcDbLine
 10
-1.358874237604435
 20
-6.88488577303099
 30
3.501974999999999
 11
-3.738374237604435
 21
-6.88488577303099
 31
3.501974999999999
  0
LINE
  5
11E7
330
116F
100
AcDbEntity
  8
5
  6
HIDDEN
 62
     7
100
AcDbLine
 10
-1.358874237604437
 20
-7.07238577303099
 30
3.501974999999999
 11
-3.738374237604435
 21
-7.07238577303099
 31
3.501974999999999
  0
TEXT
  5
11E8
330
116F
100
AcDbEntity
  8
DIM
100
AcDbText
 10
-5.156382443442215
 20
-10.99199813713437
 30
0.0
 40
0.125
  1
* PLUS / MINUS .020"
 41
0.8
  7
ADESK1
100
AcDbText
  0
TEXT
  5
11E9
330
116F
100
AcDbEntity
  8
DIM
100
AcDbText
 10
-2.367476292347188
 20
-12.77990411293356
 30
0.0
 40
0.065
  1
PROJECT:
 41
0.8
100
AcDbText
  0
LINE
  5
11EA
330
116F
100
AcDbEntity
  8
0
100
AcDbLine
 10
-2.455376292347188
 20
-12.42946321547426
 30
0.0
 11
1.419623707652811
 21
-12.42946321547426
 31
0.0
  0
LINE
  5
11EB
330
116F
100
AcDbEntity
  8
0
100
AcDbLine
 10
-1.865130640859332
 20
-12.67209384423357
 30
0.0
 11
-1.865130640859332
 21
-11.89145647242292
 31
0.0
  0
LINE
  5
11EC
330
116F
100
AcDbEntity
  8
0
100
AcDbLine
 10
-0.6925692279873688
 20
-12.67209384423357
 30
0.0
 11
-0.6925692279873688
 21
-11.89145647242292
 31
0.0
  0
TEXT
  5
11ED
330
116F
100
AcDbEntity
  8
DIM
100
AcDbText
 10
-2.367476292347188
 20
-12.55688471488333
 30
0.0
 40
0.065
  1
ISSUE
 41
0.8
100
AcDbText
  0
TEXT
  5
11EE
330
116F
100
AcDbEntity
  8
DIM
100
AcDbText
 10
-1.48459505006645
 20
-12.55688471488333
 30
0.0
 40
0.065
  1
DATE:
 41
0.8
100
AcDbText
  0
TEXT
  5
11EF
330
116F
100
AcDbEntity
  8
DIM
100
AcDbText
 10
0.041912967107169
 20
-12.55688471488333
 30
0.0
 40
0.065
  1
DESCRIPTION:
 41
0.8
100
AcDbText
  0
LINE
  5
11F0
330
116F
100
AcDbEntity
  8
0
100
AcDbLine
 10
-2.455376292347188
 20
-12.16987773786412
 30
0.0
 11
1.419623707652811
 21
-12.16987773786412
 31
0.0
  0
TEXT
  5
11F1
330
116F
100
AcDbEntity
  8
DIM
100
AcDbText
 10
-5.663836735115953
 20
-14.25738851205091
 30
3.501999999999999
 40
0.0975
  1
CSI UNIFORM DRAWING SYSTEM 2000
  7
style1
 11
-5.663836735115953
 21
-14.15988851205091
 31
3.501999999999999
100
AcDbText
 73
     3
  0
TEXT
  5
11F2
330
116F
100
AcDbEntity
  8
DIM
100
AcDbText
 10
-5.663836735115953
 20
-14.10357847666587
 30
3.501999999999999
 40
0.0975
  1
DRAWINGS CONFORM TO
  7
style1
 11
-5.663836735115953
 21
-14.00607847666587
 31
3.501999999999999
100
AcDbText
 73
     3
  0
TEXT
  5
11F3
330
116F
100
AcDbEntity
  8
DIM
100
AcDbText
 10
-5.685055373142095
 20
-12.57653957207322
 30
3.501999999999999
 40
0.0935
  1
DIMENSIONS IN INCHES  
 41
0.8
  7
ADESK1
 11
-5.685055373142095
 21
-12.48303957207322
 31
3.501999999999999
100
AcDbText
 73
     3
  0
TEXT
  5
11F4
330
116F
100
AcDbEntity
  8
DIM
100
AcDbText
 10
-5.676960331455791
 20
-13.82601685703053
 30
5.836649999999999
 40
0.0975
  1
ADVANCED GLAZINGS LTD.
  7
style1
 11
-5.676960331455791
 21
-13.72851685703053
 31
5.836649999999999
100
AcDbText
 73
     3
  0
TEXT
  5
11F5
330
116F
100
AcDbEntity
  8
DIM
100
AcDbText
 10
-5.676960331455791
 20
-13.67541017579157
 30
5.836649999999999
 40
0.0975
  1
SOLERA IS A REGISTERED TRADEMARK
  7
style1
 11
-5.676960331455791
 21
-13.57791017579157
 31
5.836649999999999
100
AcDbText
 73
     3
  0
LINE
  5
11F6
330
116F
100
AcDbEntity
  8
0
100
AcDbLine
 10
-2.453331011623578
 20
-13.77891051895445
 30
0.0
 11
1.419623707652811
 21
-13.77891051895445
 31
0.0
  0
LINE
  5
11F7
330
116F
100
AcDbEntity
  8
0
100
AcDbLine
 10
-5.820376292347187
 20
-13.904581001227
 30
0.0
 11
-2.453331011623578
 21
-13.904581001227
 31
0.0
  0
LWPOLYLINE
  5
11F8
330
116F
100
AcDbEntity
  8
0
100
AcDbPolyline
 90
        4
 70
     1
 43
0.03
 10
1.419623707652811
 20
-14.40891051895445
 10
1.419623707652811
 20
-4.383910518954454
 10
-5.820376292347187
 20
-4.383910518954454
 10
-5.820376292347187
 20
-14.40891051895445
  0
LWPOLYLINE
  5
11F9
330
116F
100
AcDbEntity
  8
0
100
AcDbPolyline
 90
        2
 70
     0
 43
0.03
 10
-5.820376292347187
 20
-12.65891051895445
 10
1.419623707652811
 20
-12.65891051895445
  0
LINE
  5
11FA
330
116F
100
AcDbEntity
  8
0
100
AcDbLine
 10
-2.455376292347188
 20
-12.67300069032122
 30
0.0
 11
-2.455376292347188
 21
-11.89591597926043
 31
0.0
  0
LWPOLYLINE
  5
11FB
330
116F
100
AcDbEntity
  8
0
100
AcDbPolyline
 90
        2
 70
     0
 43
0.03
 10
-2.455376292347188
 20
-14.40891051895445
 10
-2.455376292347188
 20
-12.67300069032122
  0
TEXT
  5
11FC
330
116F
100
AcDbEntity
  8
DIM
100
AcDbText
 10
-0.8545295719793548
 20
-6.56063684644036
 30
0.0
 40
0.125
  1
TIM CORE
 41
0.8
  7
ADESK1
100
AcDbText
  0
LEADER
  5
11FD
330
116F
100
AcDbEntity
  8
DIM
100
AcDbLeader
  3
STANDARD
 72
     1
 76
     2
 10
-1.509756301523597
 20
-6.90817571984499
 30
0.0
 10
-0.8977433072507455
 20
-6.534604613016966
 30
0.0
1001
ACAD
1000
DSTYLE
1002
{
1070
     6
1000

1070
    73
1070
     0
1070
    74
1070
     0
1070
    77
1070
     0
1070
   147
1040
0.0625
1070
   341
1005
0
1070
   343
1005
0
1002
}
  0
LEADER
  5
11FE
330
116F
100
AcDbEntity
  8
DIM
100
AcDbLeader
  3
STANDARD
 72
     1
 76
     2
 10
-1.237750508827328
 20
-6.415741076455063
 30
0.0
 10
-0.914743672568743
 20
-5.719540354225941
 30
0.0
1001
ACAD
1000
DSTYLE
1002
{
1070
     6
1000

1070
    73
1070
     0
1070
    74
1070
     0
1070
    77
1070
     0
1070
   147
1040
0.0625
1070
   341
1005
0
1070
   343
1005
0
1002
}
  0
LEADER
  5
11FF
330
116F
100
AcDbEntity
  8
DIM
100
AcDbLeader
  3
STANDARD
 72
     1
 76
     3
 10
-3.690807913297003
 20
-7.876064537765405
 30
0.0
 10
-3.197797423858456
 20
-8.011908599752487
 30
0.0
 10
-2.840789856963876
 20
-8.402460203722821
 30
0.0
1001
ACAD
1000
DSTYLE
1002
{
1070
     6
1000

1070
    73
1070
     0
1070
    74
1070
     0
1070
    77
1070
     0
1070
   147
1040
0.0625
1070
   341
1005
0
1070
   343
1005
0
1002
}
  0
LEADER
  5
1200
330
116F
100
AcDbEntity
  8
DIM
100
AcDbLeader
  3
STANDARD
 72
     1
 76
     2
 10
-2.291772896584741
 20
-8.130772136314391
 30
0.0
 10
-1.611758441039906
 20
-8.877914378253308
 30
0.0
1001
ACAD
1000
DSTYLE
1002
{
1070
     6
1000

1070
    73
1070
     0
1070
    74
1070
     0
1070
    77
1070
     0
1070
   147
1040
0.0625
1070
   341
1005
0
1070
   343
1005
0
1002
}
  0
DIMENSION
  5
1201
330
116F
100
AcDbEntity
  8
DIM
100
AcDbDimension
  2
*D5
 10
-4.353821951132172
 20
-7.809402884911708
 30
0.0
 11
-4.540825917238461
 21
-8.555241574911327
 31
0.0
 12
-1.966843444085657
 22
-17.63308002514999
 32
0.0
 70
   160
 71
     5
 42
-1.0
  3
STANDARD
100
AcDbAlignedDimension
 13
-3.925874237604439
 23
-8.207652884911713
 33
3.501974999999999
 14
-3.691124237604437
 24
-7.809402884911708
 34
3.501974999999999
 50
90.0
100
AcDbRotatedDimension
1001
ACAD
1000
DSTYLE
1002
{
1070
    73
1070
     0
1070
    74
1070
     0
1070
    77
1070
     1
1070
   341
1005
0
1002
}
  0
DIMENSION
  5
1202
330
116F
100
AcDbEntity
  8
DIM
100
AcDbDimension
  2
*D6
 10
-1.171374237604435
 20
-5.242982044774564
 30
0.0
 11
-2.548624237604435
 21
-5.11277371144123
 31
0.0
 12
-1.966843444085657
 22
-17.63308002514999
 32
0.0
 70
    32
  1
SEE NOTE 2
 71
     5
 42
-1.0
  3
STANDARD
100
AcDbAlignedDimension
 13
-3.925874237604435
 23
-6.177312731267111
 33
3.501974999999999
 14
-1.171374237604435
 24
-6.177312731267111
 34
3.501974999999999
100
AcDbRotatedDimension
1001
ACAD
1000
DSTYLE
1002
{
1070
    73
1070
     0
1070
    74
1070
     0
1070
    77
1070
     1
1070
   341
1005
0
1002
}
  0
DIMENSION
  5
1203
330
116F
100
AcDbEntity
  8
DIM
100
AcDbDimension
  2
*D7
 10
-1.358874237604435
 20
-5.735663852156235
 30
0.0
 11
-2.548624237604435
 21
-5.526679477156235
 31
0.0
 12
-1.966843444085657
 22
-17.63308002514999
 32
0.0
 70
    32
  1
<>*
 71
     5
 42
-1.0
  3
STANDARD
100
AcDbAlignedDimension
 13
-3.738374237604435
 23
-6.177312731267111
 33
3.501974999999999
 14
-1.358874237604435
 24
-6.177312731267111
 34
3.501974999999999
100
AcDbRotatedDimension
1001
ACAD
1000
DSTYLE
1002
{
1070
    73
1070
     0
1070
    74
1070
     0
1070
    77
1070
     1
1070
   341
1005
0
1002
}
  0
TEXT
  5
1204
330
116F
100
AcDbEntity
  8
DIM
100
AcDbText
 10
-2.31020633105429
 20
-12.3501528358652
 30
0.0
 40
0.09375
  1
2
 41
0.8
100
AcDbText
  0
TEXT
  5
1205
330
116F
100
AcDbEntity
  8
DIM
100
AcDbText
 10
-1.623288550347811
 20
-12.36863757490839
 30
0.0
 40
0.09375
  1
28/03/01
 41
0.8
100
AcDbText
  0
TEXT
  5
1206
330
116F
100
AcDbEntity
  8
DIM
100
AcDbText
 10
-0.4370628214186954
 20
-12.36341361427143
 30
0.0
 40
0.09375
  1
DIM 2 1/2" WAS 2 3/4"
 41
0.8
100
AcDbText
  0
LINE
  5
1207
330
116F
100
AcDbEntity
  8
0
100
AcDbLine
 10
-2.455376292347188
 20
-11.89145647242292
 30
0.0
 11
1.419623707652811
 21
-11.89145647242292
 31
0.0
  0
TEXT
  5
1208
330
116F
100
AcDbEntity
  8
DIM
100
AcDbText
 10
-5.692844410675879
 20
-13.03942860319643
 30
0.0
 40
0.25
  1
SOLERA
  7
style1
100
AcDbText
  0
TEXT
  5
1209
330
116F
100
AcDbEntity
  8
DIM
100
AcDbText
 10
-5.700270591778242
 20
-13.42048809091916
 30
0.0
 40
0.125
  1
ADVANCED GLAZINGS Ltd.
  7
style1
100
AcDbText
  0
ENDBLK
  5
120B
330
116F
100
AcDbEntity
  8
0
100
AcDbBlockEnd
  0
BLOCK
  5
1235
330
1228
100
AcDbEntity
  8
0
100
AcDbBlockBegin
  2
A$C7A684676
 70
     0
 10
0.0
 20
0.0
 30
0.0
  3
A$C7A684676
  1

  0
LINE
  5
1229
330
1228
100
AcDbEntity
  8
0
  6
Continuous
 62
     7
100
AcDbLine
 10
0.0000000049556324
 20
2.129999991240143
 30
0.0
 11
0.0000000049556324
 21
0.249999991240144
 31
0.0
  0
LINE
  5
122A
330
1228
100
AcDbEntity
  8
0
  6
Continuous
 62
     7
100
AcDbLine
 10
0.0400000049556324
 20
2.113431448740143
 30
0.0
 11
0.0400000049556324
 21
0.266568533740144
 31
0.0
  0
LINE
  5
122B
330
1228
100
AcDbEntity
  8
0
  6
Continuous
 62
     7
100
AcDbLine
 10
0.4600000049556324
 20
0.039999991240144
 30
0.0
 11
0.4600000049556324
 21
2.339999991240143
 31
0.0
  0
LINE
  5
122C
330
1228
100
AcDbEntity
  8
0
  6
Continuous
 62
     7
100
AcDbLine
 10
0.0400000049556324
 20
0.266568533740144
 30
0.0
 11
0.2665685474556324
 21
0.039999991240144
 31
0.0
  0
LINE
  5
122D
330
1228
100
AcDbEntity
  8
0
  6
Continuous
 62
     7
100
AcDbLine
 10
0.2665685474556324
 20
0.039999991240144
 30
0.0
 11
0.4600000049556324
 21
0.039999991240144
 31
0.0
  0
LINE
  5
122E
330
1228
100
AcDbEntity
  8
0
  6
Continuous
 62
     7
100
AcDbLine
 10
0.5000000049556325
 20
2.379999991240143
 30
0.0
 11
0.2500000049556324
 21
2.379999991240143
 31
0.0
  0
LINE
  5
122F
330
1228
100
AcDbEntity
  8
0
  6
Continuous
 62
     7
100
AcDbLine
 10
0.2665685474556324
 20
2.339999991240143
 30
0.0
 11
0.0400000049556324
 21
2.113431448740143
 31
0.0
  0
LINE
  5
1230
330
1228
100
AcDbEntity
  8
0
  6
Continuous
 62
     7
100
AcDbLine
 10
0.2500000049556324
 20
2.379999991240143
 30
0.0
 11
0.0000000049556324
 21
2.129999991240143
 31
0.0
  0
LINE
  5
1231
330
1228
100
AcDbEntity
  8
0
  6
Continuous
 62
     7
100
AcDbLine
 10
0.4600000049556324
 20
2.339999991240143
 30
0.0
 11
0.2665685474556324
 21
2.339999991240143
 31
0.0
  0
LINE
  5
1232
330
1228
100
AcDbEntity
  8
0
  6
Continuous
 62
     7
100
AcDbLine
 10
0.5000000049556325
 20
-0.000000008759856
 30
0.0
 11
0.5000000049556325
 21
2.379999991240143
 31
0.0
  0
LINE
  5
1233
330
1228
100
AcDbEntity
  8
0
  6
Continuous
 62
     7
100
AcDbLine
 10
0.2500000049556324
 20
-0.000000008759856
 30
0.0
 11
0.5000000049556325
 21
-0.000000008759856
 31
0.0
  0
LINE
  5
1234
330
1228
100
AcDbEntity
  8
0
  6
Continuous
 62
     7
100
AcDbLine
 10
0.0000000049556324
 20
0.249999991240144
 30
0.0
 11
0.2500000049556324
 21
-0.000000008759856
 31
0.0
  0
ENDBLK
  5
1236
330
1228
100
AcDbEntity
  8
0
100
AcDbBlockEnd
  0
BLOCK
  5
12C8
330
12C2
100
AcDbEntity
  8
0
100
AcDbBlockBegin
  2
A$C63713654
 70
     0
 10
0.0
 20
0.0
 30
0.0
  3
A$C63713654
  1

  0
LINE
  5
12C3
330
12C2
100
AcDbEntity
  8
0
 62
     7
100
AcDbLine
 10
0.0000000181581887
 20
0.1300004341070977
 30
12.121909
 11
1.90140297500393
 21
0.1300004341070977
 31
12.121909
  0
LINE
  5
12C4
330
12C2
100
AcDbEntity
  8
0
100
AcDbLine
 10
1.792937726897958
 20
0.2383338244919972
 30
12.121909
 11
1.90140297500393
 21
0.1300004341070977
 31
12.121909
  0
LINE
  5
12C5
330
12C2
100
AcDbEntity
  8
0
 62
     7
100
AcDbLine
 10
2.35695758628624
 20
0.0000000081201907
 30
12.121909
 11
1.792937726897958
 21
0.2383338244919972
 31
12.121909
  0
LINE
  5
12C6
330
12C2
100
AcDbEntity
  8
0
 62
     7
100
AcDbLine
 10
2.226799193686202
 20
0.1083336538801181
 30
12.121909
 11
2.35695758628624
 21
0.0000000081201907
 31
12.121909
  0
LINE
  5
12C7
330
12C2
100
AcDbEntity
  8
0
 62
     7
100
AcDbLine
 10
2.226799193686202
 20
0.1083336538801181
 30
12.121909
 11
3.970376598668165
 21
0.1083336538801181
 31
12.121909
  0
ENDBLK
  5
12C9
330
12C2
100
AcDbEntity
  8
0
100
AcDbBlockEnd
  0
BLOCK
  5
1441
330
1437
100
AcDbEntity
  8
0
100
AcDbBlockBegin
  2
*D11
 70
     1
 10
0.0
 20
0.0
 30
0.0
  3
*D11
  1

  0
LINE
  5
1485
330
1437
100
AcDbEntity
  8
DIM
 62
     0
370
    -2
100
AcDbLine
 10
-1.618496926136901
 20
11.34741686883588
 30
0.0
 11
-1.618496926136901
 21
11.69747057539376
 31
0.0
  0
LINE
  5
1486
330
1437
100
AcDbEntity
  8
DIM
 62
     0
370
    -2
100
AcDbLine
 10
0.8865030738630927
 20
11.32575008860889
 30
0.0
 11
0.8865030738630927
 21
11.69747057539376
 31
0.0
  0
LINE
  5
1487
330
1437
100
AcDbEntity
  8
DIM
 62
     0
370
    -2
100
AcDbLine
 10
-1.618496926136901
 20
11.57247057539376
 30
0.0
 11
0.8865030738630927
 21
11.57247057539376
 31
0.0
  0
INSERT
  5
1488
330
1437
100
AcDbEntity
  8
DIM
 62
     0
370
    -2
100
AcDbBlockReference
  2
_ARCHTICK
 10
-1.618496926136901
 20
11.57247057539376
 30
0.0
 41
0.125
 42
0.125
 43
0.125
 50
180.0
  0
INSERT
  5
1489
330
1437
100
AcDbEntity
  8
DIM
 62
     0
370
    -2
100
AcDbBlockReference
  2
_ARCHTICK
 10
0.8865030738630927
 20
11.57247057539376
 30
0.0
 41
0.125
 42
0.125
 43
0.125
  0
MTEXT
  5
148A
330
1437
100
AcDbEntity
  8
DIM
 62
     0
100
AcDbMText
 10
-0.3659969261369045
 20
11.7808039087271
 30
0.0
 40
0.125
 41
0.0
 71
     5
 72
     1
  1
\A1;2{\H1.000000x;\S1/2;}"
 73
     1
 44
1.0
1001
ACAD
1000
MTEXTBEGIN
1070
    73
1070
     1
1070
    44
1040
1.0
1070
    74
1070
     0
1000
MTEXTEND
  0
POINT
  5
148B
330
1437
100
AcDbEntity
  8
Defpoints
 62
     0
100
AcDbPoint
 10
-1.618496926136901
 20
11.22241686883588
 30
0.0
  0
POINT
  5
148C
330
1437
100
AcDbEntity
  8
Defpoints
 62
     0
100
AcDbPoint
 10
0.8865030738630927
 20
11.20075008860889
 30
0.0
  0
POINT
  5
148D
330
1437
100
AcDbEntity
  8
Defpoints
 62
     0
100
AcDbPoint
 10
0.8865030738630927
 20
11.57247057539376
 30
0.0
  0
ENDBLK
  5
1442
330
1437
100
AcDbEntity
  8
0
100
AcDbBlockEnd
  0
ENDSEC
  0
SECTION
  2
ENTITIES
  0
TEXT
  5
19D
330
2
100
AcDbEntity
  8
DIM
  6
Continuous
100
AcDbText
 10
-114.0759806286337
 20
120.8126026985917
 30
0.0
 40
0.1
  1
 
  7
ROMANS
 11
-114.0759806286337
 21
120.8626026985917
 31
0.0
100
AcDbText
 73
     2
  0
TEXT
  5
1A0
330
2
100
AcDbEntity
  8
DIM
  6
Continuous
100
AcDbText
 10
-110.1672806286337
 20
120.8375026985917
 30
0.0
 40
0.1
  1
 
  7
ROMANS
 11
-110.1672806286337
 21
120.8875026985917
 31
0.0
100
AcDbText
 73
     2
  0
TEXT
  5
1A1
330
2
100
AcDbEntity
  8
DIM
  6
Continuous
100
AcDbText
 10
-109.2372806286337
 20
118.0338026985917
 30
0.0
 40
0.125
  1
 
  7
ROMANS
 11
-109.2372806286337
 21
118.0963026985917
 31
0.0
100
AcDbText
 73
     2
  0
TEXT
  5
1A2
330
2
100
AcDbEntity
  8
DIM
  6
Continuous
100
AcDbText
 10
-109.2372806286337
 20
117.8463026985917
 30
0.0
 40
0.125
  1
 
  7
ROMANS
 11
-109.2372806286337
 21
117.9088026985917
 31
0.0
100
AcDbText
 73
     2
  0
TEXT
  5
1A3
330
2
100
AcDbEntity
  8
DIM
  6
Continuous
100
AcDbText
 10
-109.2372806286337
 20
117.6588026985917
 30
0.0
 40
0.125
  1
 
  7
ROMANS
 11
-109.2372806286337
 21
117.7213026985917
 31
0.0
100
AcDbText
 73
     2
  0
TEXT
  5
1A4
330
2
100
AcDbEntity
  8
DIM
  6
Continuous
100
AcDbText
 10
-109.2372806286337
 20
117.4713026985917
 30
0.0
 40
0.125
  1
 
  7
ROMANS
 11
-109.2372806286337
 21
117.5338026985917
 31
0.0
100
AcDbText
 73
     2
  0
TEXT
  5
1A5
330
2
100
AcDbEntity
  8
DIM
  6
Continuous
100
AcDbText
 10
-109.2372806286337
 20
117.2838026985917
 30
0.0
 40
0.125
  1
 
  7
ROMANS
 11
-109.2372806286337
 21
117.3463026985917
 31
0.0
100
AcDbText
 73
     2
  0
LINE
  5
3F8
330
2
100
AcDbEntity
  8
0
100
AcDbLine
 10
-3.85353284826153
 20
4.150392805984522
 30
0.0
 11
-0.486487567537921
 21
4.150392805984522
 31
0.0
  0
LINE
  5
3F9
330
2
100
AcDbEntity
  8
0
100
AcDbLine
 10
-0.4885328482615306
 20
3.474169506195531
 30
0.0
 11
3.386467151738468
 21
3.474169506195531
 31
0.0
  0
LINE
  5
3FA
330
2
100
AcDbEntity
  8
0
100
AcDbLine
 10
-0.4885328482615306
 20
4.474169506195531
 30
0.0
 11
3.386467151738468
 21
4.474169506195531
 31
0.0
  0
LINE
  5
3FC
330
2
100
AcDbEntity
  8
0
100
AcDbLine
 10
0.5114671517384695
 20
3.224169506195531
 30
0.0
 11
0.5114671517384695
 21
3.474169506195531
 31
0.0
  0
LINE
  5
3FD
330
2
100
AcDbEntity
  8
0
100
AcDbLine
 10
2.011467151738469
 20
3.224169506195531
 30
0.0
 11
2.011467151738469
 21
3.474169506195531
 31
0.0
  0
LINE
  5
3FE
330
2
100
AcDbEntity
  8
0
100
AcDbLine
 10
0.1017128032263246
 20
3.474169506195531
 30
0.0
 11
0.1017128032263246
 21
3.854169506195531
 31
0.0
  0
LINE
  5
3FF
330
2
100
AcDbEntity
  8
0
100
AcDbLine
 10
1.274274216098288
 20
3.474169506195531
 30
0.0
 11
1.274274216098288
 21
3.854169506195531
 31
0.0
  0
LINE
  5
400
330
2
100
AcDbEntity
  8
0
100
AcDbLine
 10
3.006467151738469
 20
3.474169506195531
 30
0.0
 11
3.006467151738469
 21
3.854169506195531
 31
0.0
  0
TEXT
  5
401
330
2
100
AcDbEntity
  8
DIM
100
AcDbText
 10
-0.4362328482615308
 20
3.316669506195531
 30
0.0
 40
0.065
  1
Scale
 41
0.8
100
AcDbText
  0
TEXT
  5
403
330
2
100
AcDbEntity
  8
DIM
100
AcDbText
 10
2.064267151738468
 20
3.316669506195531
 30
0.0
 40
0.065
  1
Sheet
 41
0.8
100
AcDbText
  0
TEXT
  5
404
330
2
100
AcDbEntity
  8
DIM
100
AcDbText
 10
-0.4006328482615307
 20
3.740069506195531
 30
0.0
 40
0.065
  1
DRWN.
 41
0.8
100
AcDbText
  0
TEXT
  5
405
330
2
100
AcDbEntity
  8
DIM
100
AcDbText
 10
0.1706128032263248
 20
3.740069506195531
 30
0.0
 40
0.065
  1
DATE:
 41
0.8
100
AcDbText
  0
TEXT
  5
406
330
2
100
AcDbEntity
  8
DIM
100
AcDbText
 10
1.345274216098288
 20
3.740069506195531
 30
0.0
 40
0.065
  1
DWG NO.
 41
0.8
100
AcDbText
  0
TEXT
  5
407
330
2
100
AcDbEntity
  8
DIM
100
AcDbText
 10
3.086967151738469
 20
3.740069506195531
 30
0.0
 40
0.065
  1
REV
  7
ADESK1
100
AcDbText
  0
TEXT
  5
415
330
2
100
AcDbEntity
  8
DIM
100
AcDbText
 10
-0.4006328482615307
 20
4.352604651484135
 30
0.0
 40
0.065
  1
TITLE:
 41
0.8
100
AcDbText
  0
TEXT
  5
416
330
2
100
AcDbEntity
  8
DIM
100
AcDbText
 10
-0.3669336580973788
 20
3.543662206968412
 30
0.0
 40
0.09375
  1
AMM
 41
0.8
100
AcDbText
  0
TEXT
  5
671
330
2
100
AcDbEntity
  8
DIM
100
AcDbText
 10
0.1691927161133151
 20
3.543662206968412
 30
0.0
 40
0.09375
  1
2017-05-07
 41
0.8
100
AcDbText
  0
TEXT
  5
B1E
330
2
100
AcDbEntity
  8
DIM
100
AcDbText
 10
0.5855074510925218
 20
8.066893685528786
 30
0.0
 40
0.125
  1
NOTE '1'
 41
0.8
  7
ADESK1
100
AcDbText
  0
TEXT
  5
B1F
330
2
100
AcDbEntity
  8
DIM
100
AcDbText
 10
0.5855074510925218
 20
7.864512733147834
 30
0.0
 40
0.125
  1
MAXIMUM CLAMPING FORCE
 41
0.8
  7
ADESK1
100
AcDbText
  0
TEXT
  5
B20
330
2
100
AcDbEntity
  8
DIM
100
AcDbText
 10
0.5855074510925218
 20
7.662131780766881
 30
0.0
 40
0.125
  1
OF 10 LBS / LINEAR INCH
 41
0.8
  7
ADESK1
100
AcDbText
  0
TEXT
  5
B24
330
2
100
AcDbEntity
  8
DIM
100
AcDbText
 10
0.5553703132640253
 20
6.799825841514939
 30
0.0
 40
0.125
  1
NOTE '2'
 41
0.8
  7
ADESK1
100
AcDbText
  0
TEXT
  5
B25
330
2
100
AcDbEntity
  8
DIM
100
AcDbText
 10
0.5553703132640253
 20
6.597444889133987
 30
0.0
 40
0.125
  1
OVERALL THICKNESS=
 41
0.8
  7
ADESK1
100
AcDbText
  0
TEXT
  5
B26
330
2
100
AcDbEntity
  8
DIM
100
AcDbText
 10
0.5553703132640253
 20
6.395063936753034
 30
0.0
 40
0.125
  1
INSULATION INSERT 
 41
0.8
  7
ADESK1
100
AcDbText
  0
TEXT
  5
B27
330
2
100
AcDbEntity
  8
DIM
100
AcDbText
 10
0.5553703132640253
 20
6.192682984372082
 30
0.0
 40
0.125
  1
PLUS THICKNESS OUTSIDE GLASS
 41
0.8
  7
ADESK1
100
AcDbText
  0
TEXT
  5
B28
330
2
100
AcDbEntity
  8
DIM
100
AcDbText
 10
0.5553703132640253
 20
5.990302031991129
 30
0.0
 40
0.125
  1
PLUS THICKNESS INSIDE GLASS
 41
0.8
  7
ADESK1
100
AcDbText
  0
TEXT
  5
E2A
330
2
100
AcDbEntity
  8
DIM
100
AcDbText
 10
-3.381599567253253
 20
5.410606247693266
 30
0.0
 40
0.125
  1
* PLUS / MINUS .020"
 41
0.8
  7
ADESK1
100
AcDbText
  0
TEXT
  5
E31
330
2
100
AcDbEntity
  8
DIM
100
AcDbText
 10
-0.4006328482615307
 20
4.853175912216425
 30
0.0
 40
0.065
  1
PROJECT:
 41
0.8
100
AcDbText
  0
TEXT
  5
E9F
330
2
100
AcDbEntity
  8
DIM
100
AcDbText
 10
-3.718211929056437
 20
5.056540453076762
 30
3.501999999999999
 40
0.0935
  1
DIMENSIONS IN INCHES  
 41
0.8
  7
ADESK1
 11
-3.718211929056437
 21
5.150040453076762
 31
3.501999999999999
100
AcDbText
 73
     3
  0
TEXT
  5
EA0
330
2
100
AcDbEntity
  8
DIM
100
AcDbText
 10
-3.710116887370134
 20
3.807063168119452
 30
5.836649999999999
 40
0.0975
  1
ADVANCED GLAZINGS LTD.
  7
style1
 11
-3.710116887370134
 21
3.904563168119452
 31
5.836649999999999
100
AcDbText
 73
     3
  0
TEXT
  5
EA1
330
2
100
AcDbEntity
  8
DIM
100
AcDbText
 10
-3.710116887370134
 20
3.957669849358413
 30
5.836649999999999
 40
0.0975
  1
SOLERA IS A REGISTERED TRADEMARK
  7
style1
 11
-3.710116887370134
 21
4.055169849358414
 31
5.836649999999999
100
AcDbText
 73
     3
  0
LINE
  5
EA2
330
2
100
AcDbEntity
  8
0
100
AcDbLine
 10
-0.486487567537921
 20
3.854169506195531
 30
0.0
 11
3.386467151738468
 21
3.854169506195531
 31
0.0
  0
LINE
  5
EA3
330
2
100
AcDbEntity
  8
0
100
AcDbLine
 10
-3.85353284826153
 20
3.728499023922984
 30
0.0
 11
-0.486487567537921
 21
3.728499023922984
 31
0.0
  0
LWPOLYLINE
  5
EA4
330
2
100
AcDbEntity
  8
0
100
AcDbPolyline
 90
        4
 70
     1
 43
0.03
 10
3.386467151738468
 20
3.224169506195531
 10
3.386467151738468
 20
13.24916950619553
 10
-3.85353284826153
 20
13.24916950619553
 10
-3.85353284826153
 20
3.224169506195531
  0
LWPOLYLINE
  5
EA5
330
2
100
AcDbEntity
  8
0
100
AcDbPolyline
 90
        2
 70
     0
 43
0.03
 10
-3.85353284826153
 20
4.974169506195531
 10
3.386467151738468
 20
4.974169506195531
  0
LWPOLYLINE
  5
EA7
330
2
100
AcDbEntity
  8
0
100
AcDbPolyline
 90
        2
 70
     0
 43
0.03
 10
-0.4885328482615306
 20
3.224169506195531
 10
-0.4885328482615306
 20
4.960079334828762
  0
TEXT
  5
110C
330
2
100
AcDbEntity
  8
DIM
100
AcDbText
 10
-3.726000966590222
 20
4.593651421953559
 30
0.0
 40
0.25
  1
SOLERA
  7
style1
100
AcDbText
  0
TEXT
  5
110D
330
2
100
AcDbEntity
  8
DIM
100
AcDbText
 10
-3.733427147692585
 20
4.212591934230822
 30
0.0
 40
0.125
  1
ADVANCED GLAZINGS Ltd.
  7
style1
100
AcDbText
  0
TEXT
  5
12AD
330
2
100
AcDbEntity
  8
DIM
100
AcDbText
 10
3.116488946152715
 20
3.557179806781838
 30
0.0
 40
0.09375
  1
05
 41
0.8
100
AcDbText
  0
TEXT
  5
12C1
330
2
100
AcDbEntity
  8
DIM
100
AcDbText
 10
-0.0316648428215114
 20
3.286559684401544
 30
0.0
 40
0.09375
  1
1:1
 41
0.8
100
AcDbText
  0
LINE
  5
1375
102
{ACAD_REACTORS
330
14D7
102
}
330
2
100
AcDbEntity
  8
0
  6
Continuous
 62
     7
100
AcDbLine
 10
-1.555996926136902
 20
9.371827091323622
 30
0.0
 11
-1.305996926136902
 21
9.121827091323622
 31
0.0
  0
LINE
  5
1376
102
{ACAD_REACTORS
330
14D7
102
}
330
2
100
AcDbEntity
  8
0
  6
Continuous
 62
     7
100
AcDbLine
 10
0.5740030738630964
 20
9.121827091323622
 30
0.0
 11
0.8240030738630981
 21
9.371827091323622
 31
0.0
  0
LINE
  5
1377
330
2
100
AcDbEntity
  8
0
  6
Continuous
 62
     7
100
AcDbLine
 10
-1.515996926136903
 20
9.388395633823622
 30
0.0
 11
-1.289428383636902
 21
9.161827091323623
 31
0.0
  0
LINE
  5
1378
330
2
100
AcDbEntity
  8
0
  6
Continuous
 62
     7
100
AcDbLine
 10
0.5574345313630964
 20
9.161827091323623
 30
0.0
 11
0.7840030738630972
 21
9.388395633823622
 31
0.0
  0
LINE
  5
1379
330
2
100
AcDbEntity
  8
0
  6
Continuous
 62
     7
100
AcDbLine
 10
-1.305996926136902
 20
9.121827091323622
 30
0.0
 11
0.5740030738630964
 21
9.121827091323622
 31
0.0
  0
LINE
  5
137A
330
2
100
AcDbEntity
  8
0
  6
Continuous
 62
     7
100
AcDbLine
 10
-1.289428383636902
 20
9.161827091323623
 30
0.0
 11
0.5574345313630964
 21
9.161827091323623
 31
0.0
  0
LINE
  5
137C
330
2
100
AcDbEntity
  8
0
  6
Continuous
 62
     7
100
AcDbLine
 10
0.8240030738630981
 20
9.621827091323622
 30
0.0
 11
-1.555996926136902
 21
9.621827091323622
 31
0.0
  0
LINE
  5
137D
330
2
100
AcDbEntity
  8
0
  6
Continuous
 62
     7
100
AcDbLine
 10
0.7840030738630972
 20
9.581827091323622
 30
0.0
 11
-1.515996926136903
 21
9.581827091323622
 31
0.0
  0
LINE
  5
137E
330
2
100
AcDbEntity
  8
0
  6
Continuous
 62
     7
100
AcDbLine
 10
0.8240030738630981
 20
9.371827091323622
 30
0.0
 11
0.8240030738630981
 21
9.621827091323622
 31
0.0
  0
LINE
  5
137F
330
2
100
AcDbEntity
  8
0
  6
Continuous
 62
     7
100
AcDbLine
 10
0.7840030738630972
 20
9.388395633823622
 30
0.0
 11
0.7840030738630972
 21
9.581827091323622
 31
0.0
  0
LINE
  5
1380
330
2
100
AcDbEntity
  8
0
  6
Continuous
 62
     7
100
AcDbLine
 10
-1.555996926136902
 20
9.621827091323622
 30
0.0
 11
-1.555996926136902
 21
9.371827091323622
 31
0.0
  0
LINE
  5
1381
330
2
100
AcDbEntity
  8
0
  6
Continuous
 62
     7
100
AcDbLine
 10
-1.515996926136903
 20
9.581827091323622
 30
0.0
 11
-1.515996926136903
 21
9.388395633823622
 31
0.0
  0
LINE
  5
13C5
330
2
100
AcDbEntity
  8
0
  6
Continuous
 62
     7
100
AcDbLine
 10
-1.618496926136902
 20
9.559327091323622
 30
0.0
 11
-1.618496926136902
 21
9.371827091323622
 31
0.0
  0
LINE
  5
13C6
330
2
100
AcDbEntity
  8
0
  6
Continuous
 62
     7
100
AcDbLine
 10
0.8865030738630981
 20
9.434327091323622
 30
0.0
 11
0.8865030738630981
 21
9.621827091323622
 31
0.0
  0
LINE
  5
13CC
330
2
100
AcDbEntity
  8
DIM
100
AcDbLine
 10
-1.618496926136902
 20
9.371827091323622
 30
0.0
 11
-1.555996926136902
 21
9.371827091323622
 31
0.0
  0
LINE
  5
13CE
330
2
100
AcDbEntity
  8
DIM
100
AcDbLine
 10
0.8240030738630981
 20
9.621827091323622
 30
0.0
 11
0.8240030738630981
 21
9.434327091323622
 31
0.0
  0
LINE
  5
13CF
330
2
100
AcDbEntity
  8
DIM
100
AcDbLine
 10
-1.555996926136902
 20
9.559327091323622
 30
0.0
 11
-1.555996926136902
 21
9.371827091323622
 31
0.0
  0
LINE
  5
13D1
330
2
100
AcDbEntity
  8
DIM
100
AcDbLine
 10
1.136503073863096
 20
11.20075008860889
 30
0.0
 11
1.136503073863096
 21
9.121827091323616
 31
0.0
  0
LINE
  5
13D2
102
{ACAD_REACTORS
330
14D7
102
}
330
2
100
AcDbEntity
  8
DIM
100
AcDbLine
 10
0.8865030738630927
 20
11.20075008860889
 30
0.0
 11
0.8865030738630963
 21
9.121827091323616
 31
0.0
  0
LINE
  5
13D3
102
{ACAD_REACTORS
330
14D7
102
}
330
2
100
AcDbEntity
  8
DIM
100
AcDbLine
 10
-1.618496926136901
 20
11.22241686883588
 30
0.0
 11
-1.618496926136902
 21
9.121827091323622
 31
0.0
  0
LINE
  5
13D4
330
2
100
AcDbEntity
  8
DIM
100
AcDbLine
 10
-1.868496926136903
 20
11.22241686883588
 30
0.0
 11
-1.868496926136902
 21
9.121827091323622
 31
0.0
  0
LINE
  5
13D5
330
2
100
AcDbEntity
  8
DIM
100
AcDbLine
 10
-1.868496926136902
 20
9.121827091323622
 30
0.0
 11
-1.618496926136902
 21
9.121827091323622
 31
0.0
  0
LINE
  5
13D6
330
2
100
AcDbEntity
  8
DIM
100
AcDbLine
 10
0.8865030738630963
 20
9.121827091323616
 30
0.0
 11
1.136503073863096
 21
9.121827091323616
 31
0.0
  0
LINE
  5
13E1
330
2
100
AcDbEntity
  8
5
  6
HIDDEN
 62
     7
100
AcDbLine
 10
0.8865030738630963
 20
10.31255266110266
 30
3.501974999999999
 11
-1.618496926136902
 21
10.31255266110266
 31
3.501974999999999
  0
LINE
  5
13E2
330
2
100
AcDbEntity
  8
5
  6
HIDDEN
 62
     7
100
AcDbLine
 10
0.8865030738630945
 20
10.50005266110266
 30
3.501974999999999
 11
-1.618496926136902
 21
10.50005266110266
 31
3.501974999999999
  0
LINE
  5
13E3
330
2
100
AcDbEntity
  8
5
  6
Continuous
 62
     7
100
AcDbLine
 10
0.8865030738630945
 20
10.70876629144421
 30
3.501974999999999
 11
-1.618496926136902
 21
10.70876629144421
 31
3.501974999999999
  0
LINE
  5
13E4
330
2
100
AcDbEntity
  8
5
  6
Continuous
 62
     7
100
AcDbLine
 10
0.8865030738630945
 20
10.11478554922194
 30
3.501974999999999
 11
-1.618496926136902
 21
10.11478554922194
 31
3.501974999999999
  0
LINE
  5
13E5
330
2
100
AcDbEntity
  8
5
  6
HIDDEN
 62
     7
100
AcDbLine
 10
0.8865030738630945
 20
9.927285549221942
 30
3.501974999999999
 11
-1.618496926136902
 21
9.927285549221942
 31
0.0
  0
LINE
  5
13E6
330
2
100
AcDbEntity
  8
5
  6
HIDDEN
 62
     7
100
AcDbLine
 10
0.8240030738630959
 20
9.739785549221942
 30
0.0
 11
-1.555996926136902
 21
9.739785549221942
 31
0.0
  0
LINE
  5
13E7
330
2
100
AcDbEntity
  8
5
  6
HIDDEN
 62
     7
100
AcDbLine
 10
0.8865030738630945
 20
10.87505281232614
 30
3.501974999999999
 11
-1.618496926136902
 21
10.87505281232614
 31
3.501974999999999
  0
LINE
  5
13E8
330
2
100
AcDbEntity
  8
5
  6
HIDDEN
 62
     7
100
AcDbLine
 10
0.8865030738630945
 20
11.02012570286654
 30
3.501974999999999
 11
-1.618496926136902
 21
11.02012570286654
 31
3.501974999999999
  0
LINE
  5
13E9
330
2
100
AcDbEntity
  8
0
 62
     7
100
AcDbLine
 10
-0.1719695112524722
 20
11.20075008860889
 30
12.121909
 11
1.57160789372949
 21
11.20075008860889
 31
12.121909
  0
LINE
  5
13EA
330
2
100
AcDbEntity
  8
0
 62
     7
100
AcDbLine
 10
-2.398768686780486
 20
11.22241686883588
 30
12.121909
 11
-0.4973657299347441
 21
11.22241686883588
 31
12.121909
  0
LINE
  5
13EB
330
2
100
AcDbEntity
  8
0
 62
     7
100
AcDbLine
 10
-0.0418111186524346
 20
11.09241644284897
 30
12.121909
 11
-0.6058309780407161
 21
11.33075025922077
 31
12.121909
  0
LINE
  5
13EC
330
2
100
AcDbEntity
  8
0
100
AcDbLine
 10
-0.6058309780407161
 20
11.33075025922077
 30
12.121909
 11
-0.4973657299347441
 21
11.22241686883588
 31
12.121909
  0
LINE
  5
13ED
330
2
100
AcDbEntity
  8
0
 62
     7
100
AcDbLine
 10
-0.1719695112524722
 20
11.20075008860889
 30
12.121909
 11
-0.0418111186524346
 21
11.09241644284897
 31
12.121909
  0
ARC
  5
13EE
102
{ACAD_REACTORS
330
14D7
102
}
330
2
100
AcDbEntity
  8
DIM
100
AcDbCircle
 10
-1.462246926136902
 20
7.785113270595523
 30
0.0
 40
1.345814957943888
100
AcDbArc
 50
83.33288671401835
 51
96.66711328598166
  0
ARC
  5
13F3
102
{ACAD_REACTORS
330
14D7
102
}
330
2
100
AcDbEntity
  8
DIM
100
AcDbCircle
 10
0.7302530738630751
 20
7.847479993279343
 30
0.0
 40
1.28389041152034
100
AcDbArc
 50
83.00975128505049
 51
96.99024871494762
  0
DIMENSION
  5
1436
330
2
100
AcDbEntity
  8
DIM
100
AcDbDimension
  2
*D11
 10
0.8865030738630927
 20
11.57247057539376
 30
0.0
 11
-0.3659969261369045
 21
11.7808039087271
 31
0.0
 70
    32
 71
     5
 42
2.504999999999994
  3
STANDARD
100
AcDbAlignedDimension
 13
-1.618496926136901
 23
11.22241686883588
 33
0.0
 14
0.8865030738630927
 24
11.20075008860889
 34
0.0
100
AcDbRotatedDimension
1001
ACAD
1000
DSTYLE
1002
{
1070
    73
1070
     0
1070
    74
1070
     0
1070
    77
1070
     1
1070
   271
1070
     4
1070
   272
1070
     4
1070
   341
1005
0
1002
}
  0
LINE
  5
1450
330
2
100
AcDbEntity
  8
DIM
100
AcDbLine
 10
-1.868496926136903
 20
11.34741686883588
 30
0.0
 11
-1.868496926136903
 21
12.2975176527255
 31
0.0
  0
LINE
  5
1451
330
2
100
AcDbEntity
  8
DIM
100
AcDbLine
 10
1.136503073863096
 20
11.32575008860889
 30
0.0
 11
1.136503073863096
 21
12.2975176527255
 31
0.0
  0
LINE
  5
1452
330
2
100
AcDbEntity
  8
DIM
100
AcDbLine
 10
-1.868496926136903
 20
12.1725176527255
 30
0.0
 11
1.136503073863096
 21
12.1725176527255
 31
0.0
  0
INSERT
  5
1453
330
2
100
AcDbEntity
  8
DIM
100
AcDbBlockReference
  2
_ARCHTICK
 10
-1.868496926136903
 20
12.1725176527255
 30
0.0
 41
0.125
 42
0.125
 43
0.125
 50
180.0
  0
INSERT
  5
1454
330
2
100
AcDbEntity
  8
DIM
100
AcDbBlockReference
  2
_ARCHTICK
 10
1.136503073863096
 20
12.1725176527255
 30
0.0
 41
0.125
 42
0.125
 43
0.125
  0
MTEXT
  5
145D
330
2
100
AcDbEntity
  8
DIM
100
AcDbMText
 10
-0.360912804676591
 20
12.30214182064141
 30
0.0
 40
0.125
 41
0.0
 71
     5
 72
     1
  1
\A1;SEE NOTE 2
 73
     1
 44
1.0
1001
ACAD
1000
MTEXTBEGIN
1070
    73
1070
     1
1070
    44
1040
1.0
1070
    74
1070
     0
1000
MTEXTEND
  0
TEXT
  5
145E
330
2
100
AcDbEntity
  8
DIM
100
AcDbText
 10
1.365252916089801
 20
11.66677546739423
 30
-3.501974999999999
 40
0.125
  1
GLASS AS SPECIFIED
 41
0.8
  7
ADESK1
100
AcDbText
  0
LEADER
  5
145F
330
2
100
AcDbEntity
  8
DIM
100
AcDbLeader
  3
STANDARD
 72
     1
 76
     2
 10
0.99635506255742
 20
10.96999499099132
 30
-3.501974999999999
 10
1.319361898816005
 20
11.66619571322044
 30
-3.501974999999999
1001
ACAD
1000
DSTYLE
1002
{
1070
     6
1000

1070
    73
1070
     0
1070
    74
1070
     0
1070
    77
1070
     0
1070
   147
1040
0.0625
1070
   341
1005
0
1070
   343
1005
0
1002
}
  0
LEADER
  5
1461
330
2
100
AcDbEntity
  8
DIM
100
AcDbLeader
  3
STANDARD
 72
     1
 76
     2
 10
0.7664274269843006
 20
10.56165723886825
 30
-3.501974999999999
 10
1.378440421257153
 20
10.93522834569627
 30
-3.501974999999999
1001
ACAD
1000
DSTYLE
1002
{
1070
     6
1000

1070
    73
1070
     0
1070
    74
1070
     0
1070
    77
1070
     0
1070
   147
1040
0.0625
1070
   341
1005
0
1070
   343
1005
0
1002
}
  0
TEXT
  5
1462
330
2
100
AcDbEntity
  8
DIM
100
AcDbText
 10
1.753459876637778
 20
9.540720140078473
 30
0.0
 40
0.125
  1
F MAX.
 41
0.8
  7
ADESK1
100
AcDbText
  0
TEXT
  5
1463
330
2
100
AcDbEntity
  8
DIM
100
AcDbText
 10
1.753459876637778
 20
9.338339187697521
 30
0.0
 40
0.125
  1
SEE NOTE 1
 41
0.8
  7
ADESK1
100
AcDbText
  0
LWPOLYLINE
  5
1464
330
2
100
AcDbEntity
  8
DIM
 62
     7
100
AcDbPolyline
 90
        3
 70
     0
 10
1.135387205513218
 20
9.592669345983143
 40
0.0
 41
0.03
 10
1.274800412009092
 20
9.592669345983143
 40
0.0
 41
0.0
 10
1.616984118197901
 20
9.592669345983143
 40
0.0
 41
0.0
  0
LWPOLYLINE
  5
1465
330
2
100
AcDbEntity
  8
DIM
 62
     7
100
AcDbPolyline
 90
        3
 70
     0
 10
1.135387205513218
 20
9.325904545339813
 40
0.0
 41
0.03
 10
1.274800412009092
 20
9.325904545339813
 40
0.0
 41
0.0
 10
1.616984118197901
 20
9.325904545339813
 40
0.0
 41
0.0
  0
SPLINE
  5
1466
330
2
100
AcDbEntity
  8
DIM
100
AcDbSpline
210
0.0
220
0.0
230
1.0
 70
     8
 71
     3
 72
     8
 73
     4
 74
     0
 42
0.0000000001
 43
0.0000000001
 40
0.0
 40
0.0
 40
0.0
 40
0.0
 40
0.6804375627937012
 40
0.6804375627937012
 40
0.6804375627937012
 40
0.6804375627937012
 10
0.6900150305221615
 20
9.085750726196316
 30
-3.501974999999999
 10
0.5373468164978004
 20
8.918011833634713
 30
-3.501974999999999
 10
0.3846786024734374
 20
8.750272941073109
 30
-3.501974999999999
 10
0.1986709076773465
 20
8.538899910845081
 30
-3.501974999999999
1001
ACAD
1000
DSTYLE
1002
{
1070
     6
1000

1070
    73
1070
     0
1070
    74
1070
     0
1070
    77
1070
     0
1070
   147
1040
0.0625
1070
   341
1005
0
1070
   343
1005
0
1002
}
  0
SOLID
  5
1467
330
2
100
AcDbEntity
  8
DIM
100
AcDbTrace
 10
0.7054222939631405
 20
9.071727744664629
 30
-3.501974999999999
 11
0.7741529197122877
 21
9.17819430684219
 31
-3.501974999999999
 12
0.6746077670811826
 22
9.099773707728004
 32
-3.501974999999999
 13
0.6746077670811826
 23
9.099773707728004
 33
-3.501974999999999
1001
ACAD
1000
DSTYLE
1002
{
1070
     6
1000

1070
    73
1070
     0
1070
    74
1070
     0
1070
    77
1070
     0
1070
   147
1040
0.0625
1070
   341
1005
0
1070
   343
1005
0
1002
}
  0
TEXT
  5
1468
330
2
100
AcDbEntity
  8
DIM
100
AcDbText
 10
-1.206544829472982
 20
8.413372504763993
 30
-3.501974999999999
 40
0.125
  1
STRUCTURAL SEAL
 41
0.8
  7
ADESK1
100
AcDbText
  0
TEXT
  5
1469
330
2
100
AcDbEntity
  8
DIM
100
AcDbText
 10
-0.5018269013037422
 20
8.816277165822846
 30
-3.501974999999999
 40
0.125
  1
SPACER
 41
0.8
  7
ADESK1
100
AcDbText
  0
LEADER
  5
146A
330
2
100
AcDbEntity
  8
DIM
100
AcDbLeader
  3
STANDARD
 72
     1
 76
     3
 10
-1.099557023244749
 20
9.142596428371657
 30
0.0
 10
-0.8962113190796259
 20
8.907718539559397
 30
0.0
 10
-0.5392037521850455
 20
8.872495327090136
 30
0.0
1001
ACAD
1000
DSTYLE
1002
{
1070
     6
1000

1070
    73
1070
     0
1070
    74
1070
     0
1070
    77
1070
     0
1070
   147
1040
0.0625
1070
   341
1005
0
1070
   343
1005
0
1002
}
  0
TEXT
  5
14B9
330
2
100
AcDbEntity
  8
DIM
100
AcDbText
 10
1.421654156528543
 20
10.90919611227288
 30
-3.501974999999999
 40
0.125
  1
HONEYCOMB CORE
 41
0.8
  7
ADESK1
100
AcDbText
  0
LINE
  5
14C2
330
2
100
AcDbEntity
  8
DIM
100
AcDbLine
 10
-1.555996926136902
 20
9.371827091323622
 30
0.0
 11
-1.555996926136902
 21
9.871827091323622
 31
0.0
  0
LINE
  5
14C3
330
2
100
AcDbEntity
  8
DIM
100
AcDbLine
 10
-1.555996926136902
 20
9.871827091323622
 30
0.0
 11
-1.618496926136902
 21
9.871827091323622
 31
0.0
  0
LINE
  5
14C4
330
2
100
AcDbEntity
  8
DIM
100
AcDbLine
 10
-1.618496926136902
 20
9.871827091323622
 30
0.0
 11
-1.618496926136902
 21
9.371827091323622
 31
0.0
  0
LINE
  5
14C5
102
{ACAD_REACTORS
330
14D7
102
}
330
2
100
AcDbEntity
  8
DIM
100
AcDbLine
 10
-1.618496926136902
 20
9.371827091323622
 30
0.0
 11
-1.555996926136902
 21
9.371827091323622
 31
0.0
  0
LINE
  5
14C6
330
2
100
AcDbEntity
  8
0
  6
Continuous
 62
     7
100
AcDbLine
 10
0.8865030738630959
 20
9.621827091323627
 30
0.0
 11
0.8865030738630959
 21
9.371827091323627
 31
0.0
  0
LINE
  5
14C7
330
2
100
AcDbEntity
  8
0
  6
Continuous
 62
     7
100
AcDbLine
 10
0.8240030738630959
 20
9.559327091323627
 30
0.0
 11
0.8240030738630959
 21
9.371827091323627
 31
0.0
  0
LINE
  5
14C8
330
2
100
AcDbEntity
  8
DIM
100
AcDbLine
 10
0.8240030738630959
 20
9.371827091323627
 30
0.0
 11
0.8865030738630959
 21
9.371827091323627
 31
0.0
  0
LINE
  5
14C9
330
2
100
AcDbEntity
  8
DIM
100
AcDbLine
 10
0.8865030738630959
 20
9.559327091323627
 30
0.0
 11
0.8865030738630959
 21
9.371827091323627
 31
0.0
  0
LINE
  5
14CA
330
2
100
AcDbEntity
  8
DIM
100
AcDbLine
 10
0.8865030738630959
 20
9.371827091323627
 30
0.0
 11
0.8865030738630959
 21
9.871827091323627
 31
0.0
  0
LINE
  5
14CB
330
2
100
AcDbEntity
  8
DIM
100
AcDbLine
 10
0.8865030738630959
 20
9.871827091323627
 30
0.0
 11
0.8240030738630959
 21
9.871827091323627
 31
0.0
  0
LINE
  5
14CC
330
2
100
AcDbEntity
  8
DIM
100
AcDbLine
 10
0.8240030738630959
 20
9.871827091323627
 30
0.0
 11
0.8240030738630959
 21
9.371827091323627
 31
0.0
  0
LINE
  5
14CD
102
{ACAD_REACTORS
330
14D7
102
}
330
2
100
AcDbEntity
  8
DIM
100
AcDbLine
 10
0.8240030738630959
 20
9.371827091323627
 30
0.0
 11
0.8865030738630959
 21
9.371827091323627
 31
0.0
  0
HATCH
  5
14D7
330
2
100
AcDbEntity
  8
DIM
100
AcDbHatch
 10
0.0
 20
0.0
 30
0.0
210
0.0
220
0.0
230
1.0
  2
ANSI31
 70
     0
 71
     1
 91
        2
 92
        7
 72
     1
 73
     1
 93
        4
 10
0.8865030738630959
 20
9.371827091323627
 42
0.0
 10
0.824003073863102
 20
9.371827091323627
 42
0.0
 10
0.5740030738630964
 20
9.121827091323622
 42
-0.0610772062468086
 10
0.8865030738630963
 20
9.121827091323616
 42
0.0
 97
        4
330
14CD
330
1376
330
13F3
330
13D2
 92
        7
 72
     1
 73
     1
 93
        4
 10
-1.555996926136901
 20
9.371827091323622
 42
0.0
 10
-1.618496926136902
 20
9.371827091323622
 42
0.0
 10
-1.618496926136902
 20
9.121827091323622
 42
-0.0582472781810576
 10
-1.305996926136902
 20
9.121827091323622
 42
0.0
 97
        4
330
14C5
330
13D3
330
13EE
330
1375
 75
     0
 76
     1
 52
0.0
 41
0.25
 77
     0
 78
     1
 53
45.0
 43
0.0
 44
0.0
 45
-0.0220970869120796
 46
0.0220970869120796
 79
     0
 47
0.0050645949686979
 98
        2
 10
0.8244968732632926
 20
9.242197159793761
 10
-1.527331153624494
 20
9.206744996009025
1001
ACAD
1010
0.0
1020
0.0
1030
0.0
  0
LEADER
  5
14DB
330
2
100
AcDbEntity
  8
DIM
100
AcDbLeader
  3
STANDARD
 72
     1
 76
     3
 10
-1.515890558978746
 20
9.185776783702351
 30
0.0
 10
-1.355170735338639
 20
8.828443794521284
 30
0.0
 10
-1.232785953163677
 20
8.547933556807404
 30
0.0
1001
ACAD
1000
DSTYLE
1002
{
1070
     6
1000

1070
    73
1070
     0
1070
    74
1070
     0
1070
    77
1070
     0
1070
   147
1040
0.0625
1070
   341
1005
0
1070
   343
1005
0
1002
}
  0
TEXT
  5
14E2
330
2
100
AcDbEntity
  8
DIM
100
AcDbText
 10
-0.1869955288440983
 20
11.76885620345917
 30
0.0
 40
0.125
  1
*
100
AcDbText
  0
TEXT
  5
14E9
330
2
100
AcDbEntity
  8
DIM
 62
     7
100
AcDbText
 10
0.0374862870075958
 20
4.072064783584464
 30
4.669299999999999
 40
0.15625
  1
SOLERA-S-R5
 41
0.8
 11
0.0374862870075958
 21
4.150189783584464
 31
4.669299999999999
100
AcDbText
 73
     2
  0
VIEWPORT
  5
14F9
102
{ACAD_XDICTIONARY
360
1559
102
}
330
14F2
100
AcDbEntity
 67
     1
  8
0
100
AcDbViewport
 10
2.973629379250198
 20
3.211340570054871
 30
0.0
 40
28.89346439790256
 41
12.77319089850921
 68
     1
 69
     1
 12
2.973629379250198
 22
3.211340570054871
 13
0.0
 23
0.0
 14
0.5
 24
0.5
 15
0.5
 25
0.5
 16
0.0
 26
0.0
 36
1.0
 17
0.0
 27
0.0
 37
0.0
 42
50.0
 43
0.0
 44
0.0
 45
12.77319089850921
 50
0.0
 51
0.0
 72
   100
 90
   819232
  1

281
     0
 71
     1
 74
     0
110
0.0
120
0.0
130
0.0
111
1.0
121
0.0
131
0.0
112
0.0
122
1.0
132
0.0
 79
     0
146
0.0
  0
VIEWPORT
  5
14FC
102
{ACAD_XDICTIONARY
360
155B
102
}
330
14F2
100
AcDbEntity
 67
     1
  8
DIM
100
AcDbViewport
 10
3.969033760836676
 20
5.218527145887287
 30
0.0
 40
7.936496470235248
 41
10.43676800368056
 68
     2
 69
     2
 12
2.136146634880636
 22
-2.003133681673872
 13
0.0
 23
0.0
 14
1.0
 24
1.0
 15
0.0
 25
0.0
 16
0.0
 26
0.0
 36
25.01476333624329
 17
-2.369852662875236
 27
10.23953814862468
 37
0.0
 42
50.0
 43
0.0
 44
0.0
 45
10.16953261786565
 50
0.0
 51
0.0
 72
 10000
 90
   819200
  1

281
     0
 71
     1
 74
     0
110
0.0
120
0.0
130
0.0
111
1.0
121
0.0
131
0.0
112
0.0
122
1.0
132
0.0
 79
     0
146
0.0
  0
ENDSEC
  0
SECTION
  2
OBJECTS
  0
DICTIONARY
  5
7
330
0
100
AcDbDictionary
281
     1
  3
ACAD_BACKGROUND
350
150E
  3
ACAD_COLOR
350
112E
  3
ACAD_GROUP
350
4C9
  3
ACAD_LAYOUT
350
47F
  3
ACAD_MATERIAL
350
112D
  3
ACAD_MLINESTYLE
350
4CA
  3
ACAD_PLOTSETTINGS
350
4CB
  3
ACAD_PLOTSTYLENAME
350
6
  3
ACAD_TABLESTYLE
350
14AB
  3
ACAD_VISUALSTYLE
350
149A
  3
AcadDim
350
F4B
  3
AcDbVariableDictionary
350
859
  3
ASE_INDEX_DICTIONARY
350
13D7
  3
DWGPROPS
350
1547
  0
DICTIONARY
  5
14B0
330
4BC
100
AcDbDictionary
280
     1
281
     1
  3
ACAD_LAYERSTATES
360
14B1
  0
DICTIONARY
  5
47A
330
2
100
AcDbDictionary
280
     1
281
     1
  3
ACAD_LAYOUTSELFREF
360
10D9
  3
ACAD_SORTENTS
360
14D8
  0
DICTIONARY
  5
1559
330
14F9
100
AcDbDictionary
280
     1
281
     1
  3
ACAD_XREC_ROUNDTRIP
360
155A
  0
DICTIONARY
  5
155B
330
14FC
100
AcDbDictionary
280
     1
281
     1
  3
ACAD_XREC_ROUNDTRIP
360
155C
  0
DICTIONARY
  5
150E
102
{ACAD_REACTORS
330
7
102
}
330
7
100
AcDbDictionary
281
     1
  0
DICTIONARY
  5
112E
102
{ACAD_REACTORS
330
7
102
}
330
7
100
AcDbDictionary
281
     1
  0
DICTIONARY
  5
4C9
102
{ACAD_REACTORS
330
7
102
}
330
7
100
AcDbDictionary
281
     1
  0
DICTIONARY
  5
47F
102
{ACAD_REACTORS
330
7
102
}
330
7
100
AcDbDictionary
281
     1
  3
Layout1
350
14F3
  3
Model
350
47E
  0
DICTIONARY
  5
112D
102
{ACAD_REACTORS
330
7
102
}
330
7
100
AcDbDictionary
281
     1
  3
ByBlock
350
1498
  3
ByLayer
350
1497
  3
Global
350
1499
  0
DICTIONARY
  5
4CA
102
{ACAD_REACTORS
330
7
102
}
330
7
100
AcDbDictionary
281
     1
  3
STANDARD
350
4CC
  0
DICTIONARY
  5
4CB
102
{ACAD_REACTORS
330
7
102
}
330
7
100
AcDbDictionary
281
     1
  3
8.5X11
350
670
  3
8X10
350
675
  0
ACDBDICTIONARYWDFLT
  5
6
102
{ACAD_REACTORS
330
7
102
}
330
7
100
AcDbDictionary
281
     1
  3
Normal
350
5
100
AcDbDictionaryWithDefault
340
5
  0
DICTIONARY
  5
14AB
102
{ACAD_REACTORS
330
7
102
}
330
7
100
AcDbDictionary
281
     1
  3
Standard
350
14AC
  0
DICTIONARY
  5
149A
102
{ACAD_REACTORS
330
7
102
}
330
7
100
AcDbDictionary
281
     1
  3
2dWireframe
350
14A0
  3
3D Hidden
350
14A2
  3
3dWireframe
350
14A1
  3
Basic
350
149F
  3
Brighten
350
14A6
  3
ColorChange
350
14AA
  3
Conceptual
350
14A3
  3
Dim
350
14A5
  3
Facepattern
350
14A9
  3
Flat
350
149B
  3
FlatWithEdges
350
149C
  3
Gouraud
350
149D
  3
GouraudWithEdges
350
149E
  3
Linepattern
350
14A8
  3
Realistic
350
14A4
  3
Thicken
350
14A7
  0
XRECORD
  5
F4B
102
{ACAD_REACTORS
330
7
102
}
330
7
100
AcDbXrecord
280
     1
 90
   990106
  3

 60
     4
 61
     0
 62
     1
 63
     3
 64
     0
 65
     1
 66
     1
 67
     3
 68
     1
 69
     0
 70
     0
 71
     0
 72
     0
 40
0.0
170
     0
  0
DICTIONARY
  5
859
102
{ACAD_REACTORS
330
7
102
}
330
7
100
AcDbDictionary
281
     1
  3
CTABLESTYLE
350
14EA
  3
DIMASSOC
350
1146
  3
INDEXCTL
350
1546
  3
PROJECTNAME
350
1147
  3
SORTENTS
350
85A
  0
DICTIONARY
  5
13D7
102
{ACAD_REACTORS
330
7
102
}
330
7
100
AcDbDictionary
281
     1
  3
ASEBlockHierarchyIndexRecord
350
13D8
1001
DCO15
1040
1513488102.918
  0
XRECORD
  5
1547
102
{ACAD_REACTORS
330
7
102
}
330
7
100
AcDbXrecord
280
     1
  1
DWGPROPS COOKIE
  2

  3

  4

  6

  7

  8
x
  9

300
=
301
=
302
=
303
=
304
=
305
=
306
=
307
=
308
=
309
=
 40
3.821380590277777
 41
2449909.393659607
 42
2457892.649245567
  1

 90
        0
  0
DICTIONARY
  5
14B1
102
{ACAD_REACTORS
330
14B0
102
}
330
14B0
100
AcDbDictionary
281
     1
  0
XRECORD
  5
10D9
102
{ACAD_REACTORS
330
47A
102
}
330
47A
100
AcDbXrecord
280
     1
340
2
  0
SORTENTSTABLE
  5
14D8
102
{ACAD_REACTORS
330
47A
102
}
330
47A
100
AcDbSortentsTable
330
2
331
14C6
  5
14C7
331
B28
  5
B28
331
13ED
  5
13EE
331
14D7
  5
1375
331
EA5
  5
EA5
331
B1F
  5
B1F
331
407
  5
407
331
1380
  5
1381
331
14C4
  5
14C5
331
145E
  5
145F
331
B26
  5
B26
331
13EB
  5
13EC
331
EA3
  5
EA3
331
405
  5
405
331
14C2
  5
14C3
331
B24
  5
B24
331
13E9
  5
13EA
331
EA1
  5
EA1
331
403
  5
403
331
137E
  5
137F
331
13E7
  5
13E8
331
13C5
  5
13C6
331
13D6
  5
13E1
331
137C
  5
137D
331
E9F
  5
E9F
331
401
  5
401
331
E2A
  5
E2A
331
B20
  5
B20
331
1469
  5
146A
331
13E5
  5
13E6
331
13D4
  5
13D5
331
137A
  5
137C
331
3FF
  5
3FF
331
1A5
  5
1A5
331
1467
  5
1468
331
13E3
  5
13E4
331
14CD
  5
14CE
331
13D2
  5
13D3
331
1378
  5
1379
331
416
  5
416
331
3FD
  5
3FD
331
1A3
  5
1A3
331
14CB
  5
14CC
331
1465
  5
1466
331
13E1
  5
13E2
331
1454
  5
145D
331
1376
  5
1377
331
110C
  5
110C
331
1A1
  5
1A1
331
14C9
  5
14CA
331
1463
  5
1464
331
1452
  5
1453
331
13CE
  5
13CF
331
3F9
  5
3F9
331
14C7
  5
14C8
331
1461
  5
1462
331
1450
  5
1451
331
13EE
  5
13F3
331
13CC
  5
13CE
331
12C1
  5
12C1
331
19D
  5
19D
331
1381
  5
13C5
331
145F
  5
1461
331
14C5
  5
14C6
331
E31
  5
E31
331
B27
  5
B27
331
13EC
  5
13ED
331
EA4
  5
EA4
331
B1E
  5
B1E
331
406
  5
406
331
13F3
  5
1436
331
14C3
  5
14C4
331
145D
  5
145E
331
B25
  5
B25
331
13EA
  5
13EB
331
137F
  5
1380
331
12AD
  5
12AD
331
EA2
  5
EA2
331
404
  5
404
331
13E8
  5
13E9
331
13C6
  5
13CC
331
EA0
  5
EA0
331
671
  5
671
331
137D
  5
137E
331
146A
  5
14B9
331
13E6
  5
13E7
331
13D5
  5
13D6
331
400
  5
400
331
1468
  5
1469
331
1436
  5
1450
331
13E4
  5
13E5
331
13D3
  5
13D4
331
1379
  5
137A
331
3FE
  5
3FE
331
1A4
  5
1A4
331
1466
  5
1467
331
13E2
  5
13E3
331
110D
  5
110D
331
14CC
  5
14CD
331
13D1
  5
13D2
331
1377
  5
1378
331
415
  5
415
331
3FC
  5
3FC
331
1A2
  5
1A2
331
14B9
  5
14BA
331
14CA
  5
14CB
331
1464
  5
1465
331
1453
  5
1454
331
13CF
  5
13D1
331
1375
  5
1376
331
3FA
  5
3FA
331
1A0
  5
1A0
331
14C8
  5
14C9
331
1462
  5
1463
331
1451
  5
1452
331
EA7
  5
EA7
331
3F8
  5
3F8
  0
XRECORD
  5
155A
102
{ACAD_REACTORS
330
1559
102
}
330
1559
100
AcDbXrecord
280
     1
102
SHADEPLOT
 70
     0
  0
XRECORD
  5
155C
102
{ACAD_REACTORS
330
155B
102
}
330
155B
100
AcDbXrecord
280
     1
102
SHADEPLOT
 70
     0
  0
LAYOUT
  5
14F3
102
{ACAD_XDICTIONARY
360
151E
102
}
102
{ACAD_REACTORS
330
47F
102
}
330
47F
100
AcDbPlotSettings
  1

  2
pdfFactory
  4
Letter
  6

 40
7.143749713897705
 41
7.143756389617919
 42
7.14373779296875
 43
7.14373779296875
 44
215.8999938964844
 45
279.3999938964844
 46
0.0
 47
0.0
 48
0.0
 49
0.0
140
0.0
141
0.0
142
1.0
143
1.0
 70
   688
 72
     0
 73
     0
 74
     5
  7

 75
    16
147
1.0
148
0.0
149
0.0
100
AcDbLayout
  1
Layout1
 70
     1
 71
     1
 10
-0.2812499887361301
 20
-0.2812502515597606
 11
8.218749770967979
 21
10.71874950814435
 12
0.0
 22
0.0
 32
0.0
 14
0.0007855257190528
 24
0.000143144047005
 34
0.0
 15
7.9372819959543
 25
10.43691114772757
 35
0.0
146
0.0
 13
0.0
 23
0.0
 33
0.0
 16
1.0
 26
0.0
 36
0.0
 17
0.0
 27
1.0
 37
0.0
 76
     0
330
14F2
331
14F9
1001
ACAD_PSEXT
1000
pdfFactory
1000
pdfFactory 2
1000
FPP2:
1000

1070
     0
  0
LAYOUT
  5
47E
102
{ACAD_XDICTIONARY
360
1548
102
}
102
{ACAD_REACTORS
330
47F
102
}
330
47F
100
AcDbPlotSettings
  1

  2
\\VPOP\BROTHER 8500
  4
Letter
  6

 40
6.297083377838134
 41
7.143756389617919
 42
7.990402221679687
 43
7.14373779296875
 44
215.8999938964844
 45
279.3999938964844
 46
8.381999999999999
 47
4.825999999999999
 48
-4.04386001481113
 49
3.017084720440166
140
3.680177350642502
141
13.41275231443288
142
1.0
143
1.0
 70
 11956
 72
     0
 73
     0
 74
     1
  7
Default R14 pen assignments.ctb
 75
    16
147
1.0
148
98.29008576647659
149
-81.49735247015197
100
AcDbLayout
  1
Model
 70
     1
 71
     0
 10
0.0
 20
0.0
 11
12.0
 21
9.0
 12
0.0
 22
0.0
 32
0.0
 14
0.0
 24
0.0
 34
0.0
 15
0.0
 25
0.0
 35
0.0
146
0.0
 13
0.0
 23
0.0
 33
0.0
 16
1.0
 26
0.0
 36
0.0
 17
0.0
 27
1.0
 37
0.0
 76
     0
330
2
331
1495
  0
MATERIAL
  5
1498
102
{ACAD_XDICTIONARY
360
1552
102
}
102
{ACAD_REACTORS
330
112D
102
}
330
112D
100
AcDbMaterial
  1
ByBlock
  0
MATERIAL
  5
1497
102
{ACAD_XDICTIONARY
360
1550
102
}
102
{ACAD_REACTORS
330
112D
102
}
330
112D
100
AcDbMaterial
  1
ByLayer
  0
MATERIAL
  5
1499
102
{ACAD_XDICTIONARY
360
1554
102
}
102
{ACAD_REACTORS
330
112D
102
}
330
112D
100
AcDbMaterial
  1
Global
  0
MLINESTYLE
  5
4CC
102
{ACAD_REACTORS
330
4CA
102
}
330
4CA
100
AcDbMlineStyle
  2
STANDARD
 70
     0
  3

 62
   256
 51
90.0
 52
90.0
 71
     2
 49
0.5
 62
   256
  6
BYLAYER
 49
-0.5
 62
   256
  6
BYLAYER
  0
PLOTSETTINGS
  5
670
102
{ACAD_XDICTIONARY
360
154C
102
}
102
{ACAD_REACTORS
330
4CB
102
}
330
4CB
100
AcDbPlotSettings
  1
8.5X11
  2
HP DeskJet 1120C BW (Copy 2)
  4
Letter
  6

 40
7.143749713897705
 41
13.49374103546142
 42
7.14373779296875
 43
3.757080078125
 44
215.8999938964844
 45
279.3999938964844
 46
-9.906
 47
-11.43
 48
-4.980964767400481
 49
2.145278892330803
140
12.46838773409616
141
24.58626705782814
142
1.0
143
2.0
 70
  1716
 72
     0
 73
     0
 74
     4
  7
Default R14 pen assignments.ctb
 75
    17
147
0.5
148
126.5165050919722
149
-54.4900838652024
  0
PLOTSETTINGS
  5
675
102
{ACAD_XDICTIONARY
360
154E
102
}
102
{ACAD_REACTORS
330
4CB
102
}
330
4CB
100
AcDbPlotSettings
  1
8X10
  2
HP DeskJet 1120C BW (Copy 2)
  4
User273
  6

 40
5.873749732971191
 41
13.49374103546142
 42
5.704421997070312
 43
3.757080078125
 44
215.8999938964844
 45
279.3999938964844
 46
-0.254
 47
-3.556
 48
-4.566310289060632
 49
2.452162654035966
140
11.9454594588133
141
24.20322671175697
142
1.0
143
2.049999999999999
 70
  1700
 72
     0
 73
     0
 74
     4
  7
Default R14 pen assignments.ctb
 75
     0
147
0.4878048780487806
148
115.98428134214
149
-62.28493141251355
  0
ACDBPLACEHOLDER
  5
5
102
{ACAD_REACTORS
330
6
102
}
330
6
  0
TABLESTYLE
  5
14AC
102
{ACAD_XDICTIONARY
360
1556
102
}
102
{ACAD_REACTORS
330
14AB
102
}
330
14AB
100
AcDbTableStyle
  3
Standard
 70
     0
 71
     0
 40
0.06
 41
0.06
280
     0
281
     0
  7
STANDARD
140
0.18
170
     2
 62
     0
 63
     7
283
     0
274
    -2
284
     1
 64
     0
275
    -2
285
     1
 65
     0
276
    -2
286
     1
 66
     0
277
    -2
287
     1
 67
     0
278
    -2
288
     1
 68
     0
279
    -2
289
     1
 69
     0
  7
STANDARD
140
0.25
170
     5
 62
     0
 63
     7
283
     0
274
    -2
284
     1
 64
     0
275
    -2
285
     1
 65
     0
276
    -2
286
     1
 66
     0
277
    -2
287
     1
 67
     0
278
    -2
288
     1
 68
     0
279
    -2
289
     1
 69
     0
  7
STANDARD
140
0.18
170
     5
 62
     0
 63
     7
283
     0
274
    -2
284
     1
 64
     0
275
    -2
285
     1
 65
     0
276
    -2
286
     1
 66
     0
277
    -2
287
     1
 67
     0
278
    -2
288
     1
 68
     0
279
    -2
289
     1
 69
     0
  0
VISUALSTYLE
  5
14A0
102
{ACAD_REACTORS
330
149A
102
}
330
149A
100
AcDbVisualStyle
  2
2dWireframe
 70
     4
 71
     0
 72
     2
 73
     0
 90
        0
 40
-0.6
 41
-30.0
 62
     5
 63
     7
 74
     1
 91
        4
 64
     7
 65
   257
 75
     1
175
     1
 42
1.0
 92
        0
 66
   257
 43
1.0
 76
     1
 77
     6
 78
     2
 67
     7
 79
     5
170
     0
171
     0
290
     0
174
     0
 93
        1
 44
0.0
173
     0
291
     0
 45
0.0
1001
ACAD
1000
AcDbSavedByObjectVersion
1070
     0
  0
VISUALSTYLE
  5
14A2
102
{ACAD_REACTORS
330
149A
102
}
330
149A
100
AcDbVisualStyle
  2
3D Hidden
 70
     6
 71
     1
 72
     2
 73
     2
 90
        0
 40
-0.6
 41
-30.0
 62
     5
 63
     7
 74
     2
 91
        2
 64
     7
 65
   257
 75
     2
175
     1
 42
40.0
 92
        0
 66
   257
 43
1.0
 76
     1
 77
     6
 78
     2
 67
     7
 79
     3
170
     0
171
     0
290
     0
174
     0
 93
        1
 44
0.0
173
     0
291
     0
 45
0.0
1001
ACAD
1000
AcDbSavedByObjectVersion
1070
     0
  0
VISUALSTYLE
  5
14A1
102
{ACAD_REACTORS
330
149A
102
}
330
149A
100
AcDbVisualStyle
  2
3dWireframe
 70
     5
 71
     0
 72
     2
 73
     0
 90
        0
 40
-0.6
 41
-30.0
 62
     5
 63
     7
 74
     1
 91
        4
 64
     7
 65
   257
 75
     1
175
     1
 42
1.0
 92
        0
 66
   257
 43
1.0
 76
     1
 77
     6
 78
     2
 67
     7
 79
     5
170
     0
171
     0
290
     0
174
     0
 93
        1
 44
0.0
173
     0
291
     0
 45
0.0
1001
ACAD
1000
AcDbSavedByObjectVersion
1070
     0
  0
VISUALSTYLE
  5
149F
102
{ACAD_REACTORS
330
149A
102
}
330
149A
100
AcDbVisualStyle
  2
Basic
 70
     7
 71
     1
 72
     0
 73
     1
 90
        0
 40
-0.6
 41
-30.0
 62
     5
 63
     7
 74
     0
 91
        4
 64
     7
 65
   257
 75
     1
175
     1
 42
1.0
 92
        8
 66
     7
 43
1.0
 76
     1
 77
     6
 78
     2
 67
     7
 79
     5
170
     0
171
     0
290
     0
174
     0
 93
        1
 44
0.0
173
     0
291
     1
 45
0.0
1001
ACAD
1000
AcDbSavedByObjectVersion
1070
     0
  0
VISUALSTYLE
  5
14A6
102
{ACAD_REACTORS
330
149A
102
}
330
149A
100
AcDbVisualStyle
  2
Brighten
 70
    12
 71
     2
 72
     2
 73
     0
 90
        0
 40
-0.6
 41
-30.0
 62
     5
 63
     7
 74
     1
 91
        4
 64
     7
 65
   257
 75
     1
175
     1
 42
1.0
 92
        8
 66
     7
 43
1.0
 76
     1
 77
     6
 78
     2
 67
     7
 79
     5
170
     0
171
     0
290
     0
174
     0
 93
        1
 44
50.0
173
     0
291
     1
 45
0.0
1001
ACAD
1000
AcDbSavedByObjectVersion
1070
     0
  0
VISUALSTYLE
  5
14AA
102
{ACAD_REACTORS
330
149A
102
}
330
149A
100
AcDbVisualStyle
  2
ColorChange
 70
    16
 71
     2
 72
     2
 73
     3
 90
        0
 40
-0.6
 41
-30.0
 62
     5
 63
     8
 74
     1
 91
        4
 64
     7
 65
   257
 75
     1
175
     1
 42
1.0
 92
        8
 66
     8
 43
1.0
 76
     1
 77
     6
 78
     2
 67
     7
 79
     5
170
     0
171
     0
290
     0
174
     0
 93
        1
 44
0.0
173
     0
291
     1
 45
0.0
1001
ACAD
1000
AcDbSavedByObjectVersion
1070
     0
  0
VISUALSTYLE
  5
14A3
102
{ACAD_REACTORS
330
149A
102
}
330
149A
100
AcDbVisualStyle
  2
Conceptual
 70
     9
 71
     3
 72
     2
 73
     0
 90
        0
 40
-0.6
 41
-30.0
 62
     5
 63
     7
 74
     2
 91
        2
 64
     7
 65
   257
 75
     1
175
     1
 42
40.0
 92
        8
 66
     7
 43
1.0
 76
     1
 77
     6
 78
     2
 67
     7
 79
     3
170
     0
171
     0
290
     0
174
     0
 93
        1
 44
0.0
173
     0
291
     0
 45
0.0
1001
ACAD
1000
AcDbSavedByObjectVersion
1070
     0
  0
VISUALSTYLE
  5
14A5
102
{ACAD_REACTORS
330
149A
102
}
330
149A
100
AcDbVisualStyle
  2
Dim
 70
    11
 71
     2
 72
     2
 73
     0
 90
        0
 40
-0.6
 41
-30.0
 62
     5
 63
     7
 74
     1
 91
        4
 64
     7
 65
   257
 75
     1
175
     1
 42
1.0
 92
        8
 66
     7
 43
1.0
 76
     1
 77
     6
 78
     2
 67
     7
 79
     5
170
     0
171
     0
290
     0
174
     0
 93
        1
 44
-50.0
173
     0
291
     1
 45
0.0
1001
ACAD
1000
AcDbSavedByObjectVersion
1070
     0
  0
VISUALSTYLE
  5
14A9
102
{ACAD_REACTORS
330
149A
102
}
330
149A
100
AcDbVisualStyle
  2
Facepattern
 70
    15
 71
     2
 72
     2
 73
     0
 90
        0
 40
-0.6
 41
-30.0
 62
     5
 63
     7
 74
     1
 91
        4
 64
     7
 65
   257
 75
     1
175
     1
 42
1.0
 92
        8
 66
     7
 43
1.0
 76
     1
 77
     6
 78
     2
 67
     7
 79
     5
170
     0
171
     0
290
     0
174
     0
 93
        1
 44
0.0
173
     0
291
     1
 45
0.0
1001
ACAD
1000
AcDbSavedByObjectVersion
1070
     0
  0
VISUALSTYLE
  5
149B
102
{ACAD_REACTORS
330
149A
102
}
330
149A
100
AcDbVisualStyle
  2
Flat
 70
     0
 71
     2
 72
     1
 73
     1
 90
        2
 40
-0.6
 41
30.0
 62
     5
 63
     7
 74
     0
 91
        4
 64
     7
 65
   257
 75
     1
175
     1
 42
1.0
 92
        8
 66
     7
 43
1.0
 76
     1
 77
     6
 78
     2
 67
     7
 79
     5
170
     0
171
     0
290
     0
174
     0
 93
       13
 44
0.0
173
     0
291
     1
 45
0.0
1001
ACAD
1000
AcDbSavedByObjectVersion
1070
     0
  0
VISUALSTYLE
  5
149C
102
{ACAD_REACTORS
330
149A
102
}
330
149A
100
AcDbVisualStyle
  2
FlatWithEdges
 70
     1
 71
     2
 72
     1
 73
     1
 90
        2
 40
-0.6
 41
30.0
 62
     5
 63
     7
 74
     1
 91
        4
 64
     7
 65
   257
 75
     1
175
     1
 42
1.0
 92
        0
 66
   257
 43
1.0
 76
     1
 77
     6
 78
     2
 67
     7
 79
     5
170
     0
171
     0
290
     0
174
     0
 93
       13
 44
0.0
173
     0
291
     1
 45
0.0
1001
ACAD
1000
AcDbSavedByObjectVersion
1070
     0
  0
VISUALSTYLE
  5
149D
102
{ACAD_REACTORS
330
149A
102
}
330
149A
100
AcDbVisualStyle
  2
Gouraud
 70
     2
 71
     2
 72
     2
 73
     1
 90
        2
 40
-0.6
 41
30.0
 62
     5
 63
     7
 74
     0
 91
        4
 64
     7
 65
   257
 75
     1
175
     1
 42
1.0
 92
        0
 66
     7
 43
1.0
 76
     1
 77
     6
 78
     2
 67
     7
 79
     5
170
     0
171
     0
290
     0
174
     0
 93
       13
 44
0.0
173
     0
291
     1
 45
0.0
1001
ACAD
1000
AcDbSavedByObjectVersion
1070
     0
  0
VISUALSTYLE
  5
149E
102
{ACAD_REACTORS
330
149A
102
}
330
149A
100
AcDbVisualStyle
  2
GouraudWithEdges
 70
     3
 71
     2
 72
     2
 73
     1
 90
        2
 40
-0.6
 41
30.0
 62
     5
 63
     7
 74
     1
 91
        4
 64
     7
 65
   257
 75
     1
175
     1
 42
1.0
 92
        0
 66
   257
 43
1.0
 76
     1
 77
     6
 78
     2
 67
     7
 79
     5
170
     0
171
     0
290
     0
174
     0
 93
       13
 44
0.0
173
     0
291
     1
 45
0.0
1001
ACAD
1000
AcDbSavedByObjectVersion
1070
     0
  0
VISUALSTYLE
  5
14A8
102
{ACAD_REACTORS
330
149A
102
}
330
149A
100
AcDbVisualStyle
  2
Linepattern
 70
    14
 71
     2
 72
     2
 73
     0
 90
        0
 40
-0.6
 41
-30.0
 62
     5
 63
     7
 74
     1
 91
        4
 64
     7
 65
   257
 75
     7
175
     7
 42
1.0
 92
        8
 66
     7
 43
1.0
 76
     1
 77
     6
 78
     2
 67
     7
 79
     5
170
     0
171
     0
290
     0
174
     0
 93
        1
 44
0.0
173
     0
291
     1
 45
0.0
1001
ACAD
1000
AcDbSavedByObjectVersion
1070
     0
  0
VISUALSTYLE
  5
14A4
102
{ACAD_REACTORS
330
149A
102
}
330
149A
100
AcDbVisualStyle
  2
Realistic
 70
     8
 71
     2
 72
     2
 73
     0
 90
        0
 40
-0.6
 41
-30.0
 62
     5
 63
     7
 74
     1
 91
        0
 64
     7
 65
   257
 75
     1
175
     1
 42
1.0
 92
        8
 66
     8
 43
1.0
 76
     1
 77
     6
 78
     2
 67
     7
 79
     5
170
     0
171
     0
290
     0
174
     0
 93
       13
 44
0.0
173
     0
291
     0
 45
0.0
1001
ACAD
1000
AcDbSavedByObjectVersion
1070
     0
  0
VISUALSTYLE
  5
14A7
102
{ACAD_REACTORS
330
149A
102
}
330
149A
100
AcDbVisualStyle
  2
Thicken
 70
    13
 71
     2
 72
     2
 73
     0
 90
        0
 40
-0.6
 41
-30.0
 62
     5
 63
     7
 74
     1
 91
        4
 64
     7
 65
   257
 75
     1
175
     1
 42
1.0
 92
       12
 66
     7
 43
1.0
 76
     1
 77
     6
 78
     2
 67
     7
 79
     5
170
     0
171
     0
290
     0
174
     0
 93
        1
 44
0.0
173
     0
291
     1
 45
0.0
1001
ACAD
1000
AcDbSavedByObjectVersion
1070
     0
  0
DICTIONARYVAR
  5
14EA
102
{ACAD_REACTORS
330
859
102
}
330
859
100
DictionaryVariables
280
     0
  1
STANDARD
  0
DICTIONARYVAR
  5
1146
102
{ACAD_REACTORS
330
859
102
}
330
859
100
DictionaryVariables
280
     0
  1
1
  0
DICTIONARYVAR
  5
1546
102
{ACAD_REACTORS
330
859
102
}
330
859
100
DictionaryVariables
280
     0
  1
0
  0
DICTIONARYVAR
  5
1147
102
{ACAD_REACTORS
330
859
102
}
330
859
100
DictionaryVariables
280
     0
  1

  0
DICTIONARYVAR
  5
85A
102
{ACAD_REACTORS
330
859
102
}
330
859
100
DictionaryVariables
280
     0
  1
96
  0
XRECORD
  5
13D8
102
{ACAD_REACTORS
330
13D7
102
}
330
13D7
100
AcDbXrecord
280
     1
330
1453
330
1454
330
1482
330
1483
330
484
330
0
330
0
330
0
330
0
330
1150
330
1151
330
115B
330
115C
330
1167
330
1168
330
0
330
0
330
0
330
0
330
0
330
0
330
0
330
0
330
0
330
0
330
0
330
0
330
0
330
0
330
0
330
0
330
0
330
0
330
1488
330
1489
330
0
330
0
330
0
330
0
  0
DICTIONARY
  5
151E
330
14F3
100
AcDbDictionary
280
     1
281
     1
  3
ACAD_XREC_ROUNDTRIP
360
1558
  3
ADSK_XREC_LAYOUTTHUMBNAIL
360
151F
  0
DICTIONARY
  5
1548
330
47E
100
AcDbDictionary
280
     1
281
     1
  3
ACAD_XREC_ROUNDTRIP
360
1549
  0
DICTIONARY
  5
1552
330
1498
100
AcDbDictionary
280
     1
281
     1
  3
ACAD_XREC_ROUNDTRIP
360
1553
  0
DICTIONARY
  5
1550
330
1497
100
AcDbDictionary
280
     1
281
     1
  3
ACAD_XREC_ROUNDTRIP
360
1551
  0
DICTIONARY
  5
1554
330
1499
100
AcDbDictionary
280
     1
281
     1
  3
ACAD_XREC_ROUNDTRIP
360
1555
  0
DICTIONARY
  5
154C
330
670
100
AcDbDictionary
280
     1
281
     1
  3
ACAD_XREC_ROUNDTRIP
360
154D
  0
DICTIONARY
  5
154E
330
675
100
AcDbDictionary
280
     1
281
     1
  3
ACAD_XREC_ROUNDTRIP
360
154F
  0
DICTIONARY
  5
1556
330
14AC
100
AcDbDictionary
280
     1
281
     1
  3
ACAD_XREC_ROUNDTRIP
360
1557
  0
XRECORD
  5
1558
102
{ACAD_REACTORS
330
151E
102
}
330
151E
100
AcDbXrecord
280
     1
102
SHADEPLOT
 70
     0
102
SHADEPLOTRESLEVEL
 70
     2
102
SHADEPLOTCUSTOMDPI
 70
   300
  0
XRECORD
  5
151F
102
{ACAD_REACTORS
330
151E
102
}
330
151E
100
AcDbXrecord
280
     1
310
280000006C0000008C0000000100080000000000103B000000000000000000000001000000000000FFFFFF0000000000FFFFFF000000000000000000000000000000000000000000000000000000000000000000330000006600000099000000CC000000FF00000000330000333300006633000099330000CC330000FF3300
310
0000660000336600006666000099660000CC660000FF66000000990000339900006699000099990000CC990000FF99000000CC000033CC000066CC000099CC0000CCCC0000FFCC000000FF000033FF000066FF000099FF0000CCFF0000FFFF000000003300330033006600330099003300CC003300FF003300003333003333
310
33006633330099333300CC333300FF33330000663300336633006666330099663300CC663300FF66330000993300339933006699330099993300CC993300FF99330000CC330033CC330066CC330099CC3300CCCC3300FFCC330000FF330033FF330066FF330099FF3300CCFF3300FFFF330000006600330066006600660099
310
006600CC006600FF00660000336600333366006633660099336600CC336600FF33660000666600336666006666660099666600CC666600FF66660000996600339966006699660099996600CC996600FF99660000CC660033CC660066CC660099CC6600CCCC6600FFCC660000FF660033FF660066FF660099FF6600CCFF6600
310
FFFF660000009900330099006600990099009900CC009900FF00990000339900333399006633990099339900CC339900FF33990000669900336699006666990099669900CC669900FF66990000999900339999006699990099999900CC999900FF99990000CC990033CC990066CC990099CC9900CCCC9900FFCC990000FF99
310
0033FF990066FF990099FF9900CCFF9900FFFF99000000CC003300CC006600CC009900CC00CC00CC00FF00CC000033CC003333CC006633CC009933CC00CC33CC00FF33CC000066CC003366CC006666CC009966CC00CC66CC00FF66CC000099CC003399CC006699CC009999CC00CC99CC00FF99CC0000CCCC0033CCCC0066CC
310
CC0099CCCC00CCCCCC00FFCCCC0000FFCC0033FFCC0066FFCC0099FFCC00CCFFCC00FFFFCC000000FF003300FF006600FF009900FF00CC00FF00FF00FF000033FF003333FF006633FF009933FF00CC33FF00FF33FF000066FF003366FF006666FF009966FF00CC66FF00FF66FF000099FF003399FF006699FF009999FF00CC
310
99FF00FF99FF0000CCFF0033CCFF0066CCFF0099CCFF00CCCCFF00FFCCFF0000FFFF0033FFFF0066FFFF0099FFFF00CCFFFF00FFFFFF00000000000D0D0D001A1A1A00282828003535350043434300505050005D5D5D006B6B6B00787878008686860093939300A1A1A100AEAEAE00BBBBBB00C9C9C900D6D6D600E4E4E400
310
F1F1F100FFFFFF0000000000000000000000000000000000000000000000000000000000000000000000000000000000E2E2E2E2E2E2E2E2E2E2E2E2E2E2E2E2E2E2E2E2E2E2E2E2E2E2E2E2E2E2E2E2E2E2E2E2E2E2E2E2E2E2E2E2E2E2E2E2E2E2E2E2E2E2E2E2E2E2E2E2E2E2E2E2E2E2E2E2E2E2E2E2E2E2E2E2E2E2E2
310
E2E2E2E2E2E2E2E2E2E2E2E2E2E2E2E2E2E2E2E2E2E2E2E2E2E2E2E2E2E2F5F5F5F5F5F5F5F5F5F5F5F5F5F5F5F5F5F5F5F5F5F5F5F5F5F5F5F5F5F5F5F5F5F5F5F5F5F5F5F5F5F5F5F5F5F5F5F5F5F5F5F5F5F5F5F5F5F5F5F5F5F5F5F5F5F5F5F5F5F5F5F5F5F5F5F5F5F5F5F5F5F5F5F5F5F5F5F5F5F5F5F5F5F5F5F5F5
310
F5F5F5F5F5F5F5F5F5F5E2F5F5F5F5F5F5F5F5F5F5F5F5F5F5F5F5F5F5F5F5F5F5F5F5F5F5F5F5F5F5F5F5F5F5F5F5F5F5F5F5F5F5F5F5F5F5F5F5F5F5F5F5F5F5F5F5F5F5F5F5F5F5F5F5F5F5F5F5F5F5F5F5F5F5F5F5F5F5F5F5F5F5F5F5F5F5F5F5F5F5F5F5F5F5F5F5F5F5F5F5F5F5F5F5F5F5F5E2F5F5F5F5F5F5F5F5
310
F5F5F5F5F5F5F5F5F5F5F5F5F5F5F5F5F5F5F5F5F5F5F5F5F5F5F5F5F5F5F5F5F5F5F5F5F5F5F5F5F5F5F5F5F5F5F5F5F5F5F5F5F5F5F5F5F5F5F5F5F5F5F5F5F5F5F5F5F5F5F5F5F5F5F5F5F5F5F5F5F5F5F5F5F5F5F5F5F5F5F5F5F5F5F5F5F5F5F5E2F5F5F5E2E2E2E2E2E2E2E2E2E2E2E2E2E2E2E2E2E2E2E2E2E2E2E2
310
E2E2E2E2E2E2E2E2E2E2E2E2E2E2E2E2E2E2E2E2E2E2E2E2E2E2E2E2E2E2E2E2E2E2E2E2E2E2E2E2E2E2E2E2E2E2E2E2E2E2E2E2E2E2E2E2E2E2E2E2E2E2E2E2E2E2E2E2E2E2E2E2E2E2E2E2E2F5F5F5E2F5F5F5E2F5F5E2E2E2E2E2E2E2E2E2E2E2E2E2E2E2E2E2E2E2E2E2E2E2E2E2E2E2E2E2E2E2E2E2E2E2E2E2E2E2E2
310
E2E2E2E2E2E2E2E2E2E2E2E2E2E2E2E2E2E2E2E2E2E2E2E2E2E2E2E2E2E2E2E2E2E2E2E2E2E2E2E2E2E2E2E2E2E2E2E2E2E2E2E2E2E2E2F5F5E2F5F5F5E2F5F5F5E2F5F5E2F5F5F5F5F5F5F5F5F5F5F5F5F5F5F5F5F5F5F5F5F5F5F5F5F5F5F5F5F5F5F5F5F5F5F5F5F5F5F5F5F5F5E2E2E2E2E2F5F5E2E2F5F5F5F5F5E2F5
310
F5F5F5F5F5F5F5F5F5F5F5F5F5F5F5F5F5E2E2E2E2E2F5F5F5F5F5F5F5F5F5F5F5F5F5E2F5F5E2F5F5F5E2F5F5F5E2F5F5E2F5F5F5F5F5F5F5F5F5F5F5F5F5F5F5F5F5F5F5F5F5F5F5F5F5F5F5F5F5F5F5F5F5F5F5F5F5F5F5F5F5F5E2E2E2E2F5F5F5E2E2F5F5F5F5F5E2F5F5F5F5F5F5F5F5F5F5F5F5F5F5F5F5F5F5E2E2
310
F5E2F5F5F5F5F5F5F5F5F5F5F5F5F5F5E2F5F5E2F5F5F5E2F5F5F5E2F5F5E2F5F5F5F5F5F5F5F5F5F5F5F5F5F5F5F5F5F5F5F5F5F5F5F5F5F5F5F5F5F5F5F5F5F5F5F5F5F5F5F5F5F5E2E2E2E2E2E2E2E2E2E2E2E2E2E2E2E2E2E2E2E2E2E2E2E2E2E2E2E2E2E2E2E2E2E2E2E2E2E2E2E2E2E2E2E2E2E2E2E2E2E2E2E2F5F5
310
E2F5F5F5E2F5F5F5E2F5F5E2F5F5F5F5F5F5F5F5F5F5F5F5F5F5F5F5F5F5F5F5F5F5F5F5F5F5F5F5F5F5F5F5F5F5F5F5F5F5F5F5F5F5E2E2E2E2E2E2F5F5E2E2E2E2E2E2E2E2E2E2E2F5F5F5F5F5E2F5F5F5F5F5F5F5F5F5F5F5F5F5F5F5F5F5F5F5F5F5E2F5E2E2F5E2F5F5E2F5F5F5E2F5F5F5E2F5F5E2F5F5F5F5F5F5F5
310
F5F5F5F5F5F5F5F5F5F5F5F5F5F5F5F5F5F5F5F5F5F5F5F5F5F5F5F5F5F5F5F5F5F5F5E2E2F5E2E2E2F5F5E2E2E2E2E2F5E2E2F5E2E2E2F5F5F5F5E2F5F5F5F5F5F5F5F5F5F5F5F5F5F5F5F5F5F5F5F5F5E2F5E2E2F5E2F5F5E2F5F5F5E2F5F5F5E2F5F5E2E2E2E2E2E2E2E2E2E2E2E2E2E2E2E2E2E2E2E2E2E2E2E2E2E2E2
310
E2E2E2E2E2E2E2E2E2E2E2E2E2E2E2E2E2E2E2E2E2E2F5F5E2E2E2E2E2F5F5F5F5F5F5F5F5F5F5F5E2E2E2E2E2E2F5F5F5F5F5F5F5F5F5F5F5F5F5F5F5F5E2E2E2E2F5E2F5F5E2F5F5F5E2F5F5F5E2F5F5E2F5E2E2E2E2E2E2E2E2E2E2F5E2E2E2E2E2E2E2E2E2E2F5E2E2E2E2F5F5F5F5F5F5F5F5F5F5F5F5F5F5F5E2E2E2
310
E2E2F5F5F5E2E2E2E2E2F5F5F5F5F5F5F5F5F5F5F5E2E2E2E2E2F5F5F5F5F5F5F5F5F5F5F5F5F5F5F5F5F5E2E2E2E2F5E2F5F5E2F5F5F5E2F5F5F5E2F5F5E2F5E2E2E2E2E2E2E2E2E2E2E2E2E2E2E2E2E2E2E2E2E2F5E2E2E2F5F5F5F5F5F5F5F5F5F5F5F5F5F5F5F5E2E2E2E2E2E2E2E2E2E2E2E2E2E2E2E2E2E2E2E2E2E2
310
E2E2E2E2E2E2E2E2E2E2E2E2E2E2E2E2E2E2E2E2E2E2E2E2E2E2E2E2E2E2F5F5E2F5F5F5E2F5F5F5E2F5F5E2F5E2E2E2E2E2E2E2E2E2E2E2E2E2E2E2E2E2E2E2E2E2E2E2E2E2E2F5E2E2E2E2E2E2E2E2E2E2E2F5F5F5E2E2F5F5F5F5F5F5F5F5F5F5F5F5F5F5F5F5F5F5F5F5F5F5F5F5F5F5F5F5F5F5F5F5F5F5F5F5F5F5F5
310
F5F5F5F5F5F5F5F5F5F5E2F5F5E2F5F5F5E2F5F5F5E2F5F5E2F5E2E2E2E2E2E2E2E2E2E2E2E2E2F5E2E2E2E2E2E2E2E2E2E2E2E2E2E2E2E2E2E2E2E2E2E2E2E2F5F5F5E2E2F5F5F5F5F5F5F5F5F5F5F5F5F5F5F5F5F5F5F5F5F5F5F5F5F5F5F5F5F5F5F5F5F5F5F5F5F5F5F5F5F5F5F5F5F5F5F5F5F5E2F5F5E2F5F5F5E2F5
310
F5F5E2F5F5E2F5F5F5F5F5F5F5F5F5F5F5F5F5F5F5F5F5F5F5F5F5F5F5F5F5F5F5F5F5F5F5F5F5F5F5F5F5F5F5F5F5F5E2E2F5F5F5F5F5F5E2E2E2E2E2E2E2E2E2F5F5E2E2F5E2F5E2E2F5F5F5F5F5F5F5F5F5F5F5F5F5F5F5F5F5F5F5F5F5F5F5F5F5E2F5F5E2F5F5F5E2F5F5F5E2F5F5E2E2E2E2E2E2E2E2E2E2E2E2E2E2
310
E2E2E2E2E2E2E2E2E2E2E2E2E2E2E2E2E2E2E2E2E2E2E2E2E2E2E2E2E2E2E2F5F5F5F5F5F5E2E2E2E2E2E2E2E2E2E2E2E2E2E2E2E2E2E2F5F5F5F5F5F5F5F5F5F5F5F5F5F5F5F5F5F5F5F5F5F5F5F5F5E2F5F5E2F5F5F5E2F5F5F5E2F5F5E2F5E2E2E2E2E2E2E2E2E2E2E2E2E2F5E2E2E2E2E2E2E2E2E2E2E2E2F5E2E2E2E2
310
E2F5F5F5F5F5F5F5F5F5E2E2F5F5F5F5F5F5E2E2E2E2E2E2E2E2E2F5F5E2E2F5E2E2E2E2F5F5F5F5F5F5F5F5F5F5F5F5F5F5F5F5F5F5F5F5F5F5F5F5F5E2F5F5E2F5F5F5E2F5F5F5E2F5F5E2F5E2E2E2E2E2E2E2E2E2E2E2E2E2F5E2E2E2F5E2E2E2E2E2E2E2E2F5E2F5E2E2F5F5F5F5F5F5F5F5F5F5E2E2E2E2E2F5F5F5F5
310
F5F5F5F5F5F5F5F5F5F5F5F5F5F5F5F5F5F5F5F5F5F5F5F5F5F5F5F5F5F5F5F5F5F5F5F5F5F5F5F5F5F5E2F5F5E2F5F5F5E2F5F5F5E2F5F5E2F5F5F5F5F5F5F5F5F5F5F5F5F5F5F5F5F5F5F5F5F5F5F5F5F5F5F5F5F5F5F5F5F5F5F5F5F5F5F5F5F5F5E2E2E2E2E2F5F5F5F5F5F5F5F5F5F5F5F5F5F5F5F5F5F5F5F5F5F5F5
310
F5F5F5F5F5F5F5F5F5F5F5F5F5F5F5F5F5F5F5F5F5F5F5E2F5F5E2F5F5F5E2F5F5F5E2F5F5E2F5F5F5F5F5F5F5F5F5F5F5F5F5F5F5F5F5F5F5F5F5F5F5F5F5F5F5F5F5F5F5F5F5F5F5F5F5F5F5F5F5F5E2E2E2E2E2E2E2E2E2E2E2E2E2E2E2E2E2E2E2E2E2E2E2E2E2E2E2E2E2E2E2E2E2E2E2E2E2E2E2E2E2E2E2E2E2E2E2
310
E2E2E2E2E2F5F5E2F5F5F5E2F5F5F5E2F5F5E2F5F5E2E2F5E2E2F5E2E2E2E2E2E2F5E2E2F5E2E2F5F5F5F5F5F5F5F5F5F5F5F5F5F5F5F5F5F5F5F5F5F5E2E2F5F5F5F5F5F5F5F5F5F5F5F5F5F5F5F5F5F5F5F5F5F5F5F5F5F5F5F5F5F5F5F5F5F5F5F5F5F5F5F5F5F5F5F5F5F5F5F5F5E2F5F5E2F5F5F5E2F5F5F5E2F5F5E2
310
F5E2E2E2E2E2E2E2E2E2E2E2E2E2F5E2E2E2E2E2F5F5F5F5F5F5F5F5F5F5F5F5F5F5F5F5F5F5F5F5F5F5E2E2F5F5F5F5F5F5F5F5F5F5F5F5F5F5F5F5F5F5F5F5F5F5F5F5F5F5F5F5F5F5F5F5F5F5F5F5F5F5F5F5F5F5F5F5F5F5F5F5F5E2F5F5E2F5F5F5E2F5F5F5E2F5F5E2F5E2E2E2E2F5F5E2E2F5E2E2F5E2E2E2F5E2E2
310
F5F5F5F5F5F5F5F5F5F5F5F5F5F5F5F5F5F5F5F5F5F5F5E2E2F5F5F5F5F5F5F5F5F5F5F5F5F5F5F5F5F5F5F5F5F5F5F5F5F5F5F5F5F5F5F5F5F5F5F5F5F5F5F5F5F5F5F5F5F5F5F5F5F5E2F5F5E2F5F5F5E2F5F5F5E2F5F5E2F5E2F5E2E2E2E2E2E2F5E2E2F5E2F5E2F5E2E2F5F5F5F5F5F5F5F5F5F5F5F5F5F5F5F5F5F5F5
310
F5F5F5F5E2E2F5F5F5F5F5F5F5F5F5F5F5F5F5F5F5F5F5F5F5F5F5F5F5F5F5F5F5F5F5F5F5F5F5F5F5F5F5F5F5F5F5F5F5F5F5F5F5F5F5E2F5F5E2F5F5F5E2F5F5F5E2F5F5E2F5E2E2E2F5E2E2F5E2F5E2E2E2E2E2E2F5E2F5F5F5F5F5F5F5F5F5F5F5F5F5F5F5F5F5F5F5F5F5F5F5F5E2E2E2E2E2E2E2F5F5F5F5F5F5F5F5
310
F5F5F5F5F5F5F5F5F5F5F5F5F5F5F5F5F5F5F5F5F5F5F5F5F5F5F5F5F5F5F5F5F5F5F5F5E2F5F5E2F5F5F5E2F5F5F5E2F5F5E2E2E2E2E2E2E2E2E2E2E2E2E2E2E2E2E2E2E2E2E2E2E2E2E2E2E2E2E2E2E2E2E2E2E2E2E2E2E2E2E2E2E2E2E2E2E2E2E2E2E2E2E2E2E2E2E2E2E2E2E2E2E2E2E2E2E2E2E2E2E2E2E2E2E2E2E2
310
E2E2E2E2E2E2E2E2E2E2E2E2E2E2E2E2E2E2F5F5E2F5F5F5E2F5F5F5E2F5F5E2E2E2E2E2E2E2E2E2E2E2E2E2E2E2E2E2E2E2E2E2E2E2E2E2E2E2E2E2E2E2E2E2E2E2E2E2E2E2E2E2E2E2E2E2E2E2E2E2E2E2E2E2E2E2E2E2E2E2E2E2E2E2E2E2E2E2E2E2E2E2E2E2E2E2E2E2E2E2E2E2E2E2E2E2E2E2E2E2E2E2E2E2E2E2F5
310
F5E2F5F5F5E2F5F5F5E2F5F5E2F5E2E2E2E2E2E2E2E2E2E2E2F5E2E2E2E2E2F5F5F5F5F5F5F5F5F5F5F5F5F5F5F5F5F5F5F5F5F5F5F5F5F5F5F5F5F5F5F5F5F5F5F5F5F5F5F5F5F5F5F5F5F5F5F5F5F5F5F5F5F5F5F5F5F5F5F5F5F5F5F5F5F5F5F5F5F5F5F5F5F5F5F5E2F5F5E2F5F5F5E2F5F5F5E2F5F5E2F5E2E2E2E2E2
310
E2E2E2E2E2E2F5E2E2E2E2E2F5F5F5F5F5F5F5F5F5F5F5F5F5F5F5F5F5F5F5F5F5F5F5F5F5F5F5F5F5F5F5F5F5F5F5F5F5F5F5F5F5F5F5F5F5F5F5F5F5F5F5F5F5F5F5F5F5F5F5F5F5F5F5F5F5F5F5F5F5F5F5F5F5F5F5E2F5F5E2F5F5F5E2F5F5F5E2F5F5E2F5F5F5F5F5F5F5F5F5F5F5F5F5F5F5F5F5F5F5F5F5F5F5F5F5
310
F5F5F5F5F5F5F5F5F5F5F5F5F5F5F5F5F5F5F5F5F5F5F5F5F5F5F5F5F5F5F5F5F5F5F5F5F5F5F5F5F5F5F5F5F5F5F5F5F5F5F5F5F5F5F5F5F5F5F5F5F5F5F5F5F5F5F5F5E2F5F5E2F5F5F5E2F5F5F5E2F5F5E2F5F5F5F5F5F5F5F5F5F5F5F5F5E2F5F5F5F5F5F5F5F5F5F5F5F5F5F5F5F5F5F5F5F5F5F5F5F5F5F5F5F5F5F5
310
F5F5F5F5F5F5F5F5F5F5F5F5F5F5F5F5F5F5F5F5F5F5F5F5F5F5F5F5F5F5F5F5F5F5F5F5F5F5F5F5F5F5F5F5F5F5F5F5F5E2F5F5E2F5F5F5E2F5F5F5E2F5F5E2F5F5F5F5F5F5F5E2F5E2E2E2E2F5E2F5E2E2E2E2E2E2E2E2E2E2E2E2F5F5F5F5F5F5F5F5F5F5F5F5F5F5F5F5F5F5F5F5F5F5F5F5F5F5F5F5F5F5F5F5F5F5F5
310
F5F5F5F5F5F5F5F5F5F5F5F5F5F5F5F5F5F5F5F5F5F5F5F5F5F5F5F5F5F5E2F5F5E2F5F5F5E2F5F5F5E2F5F5E2F5F5F5F5F5E2E2E2E2E2E2E2E2F5E2F5E2E2E2E2E2E2E2F5E2E2E2E2E2F5F5F5F5F5F5F5F5F5F5F5F5F5F5F5F5F5F5F5F5F5F5F5F5F5F5F5F5F5F5F5F5F5F5F5F5F5F5F5F5F5F5F5F5F5F5F5F5F5F5F5F5F5
310
F5F5F5F5F5F5F5F5F5F5F5E2F5F5E2F5F5F5E2F5F5F5E2F5F5E2F5F5F5F5F5E2F5E2E2E2E2E2E2F5F5E2E2E2E2E2E2E2F5F5E2E2E2E2E2F5F5F5F5F5F5F5F5F5F5F5F5F5F5F5F5F5F5F5F5F5F5F5F5F5F5F5F5F5F5F5F5F5F5F5F5F5F5F5F5F5F5F5F5F5F5F5F5F5F5F5F5F5F5F5F5F5F5F5F5F5F5F5F5E2F5F5E2F5F5F5E2
310
F5F5F5E2F5F5E2F5F5F5F5F5F5F5F5F5F5F5F5F5F5F5F5F5F5F5F5F5F5F5F5F5F5F5F5F5F5F5F5F5F5F5F5F5F5F5F5F5F5F5F5F5F5F5F5F5F5F5F5F5F5F5F5F5F5F5F5F5F5F5F5F5F5F5F5F5F5F5F5F5F5F5F5F5F5F5F5F5F5F5F5F5F5F5F5F5F5F5F5F5E2F5F5E2F5F5F5E2F5F5F5E2F5F5E2F5F5F5F5F5F5F5F5F5F5F5F5
310
F5F5F5F5F5F5F5F5F5F5F5F5F5F5F5F5F5F5F5F5F5F5F5F5F5F5F5F5F5F5F5F5F5F5F5F5F5F5F5F5F5F5F5F5F5F5F5F5F5F5F5F5F5F5F5F5F5F5F5F5F5F5F5F5F5F5F5F5F5F5F5F5F5F5F5F5F5F5F5F5F5E2F5F5E2F5F5F5E2F5F5F5E2F5F5E2F5F5F5F5F5F5F5F5F5F5F5F5F5F5F5F5F5F5F5F5F5F5F5F5F5F5F5F5F5F5F5
310
F5F5F5F5F5F5F5F5F5F5F5F5F5F5F5F5F5F5F5F5F5F5F5F5F5F5F5F5F5F5F5F5F5F5F5F5F5F5F5F5F5F5F5F5F5F5F5F5F5F5F5F5F5F5F5F5F5F5F5F5F5F5E2F5F5E2F5F5F5E2F5F5F5E2F5F5E2F5F5F5F5F5F5F5F5F5F5F5F5F5F5F5F5F5F5F5F5F5F5F5F5F5F5F5F5F5F5F5F5F5F5F5F5F5F5F5F5F5F5F5F5F5F5F5F5F5F5
310
F5F5F5F5F5F5F5F5F5F5F5F5F5F5F5F5F5F5F5F5F5F5F5F5F5F5F5F5F5F5F5F5F5F5F5F5F5F5F5F5F5F5F5E2F5F5E2F5F5F5E2F5F5F5E2F5F5E2F5F5F5F5F5F5F5F5F5F5F5F5F5F5F5F5F5F5F5F5F5F5F5F5F5F5F5F5F5F5F5F5F5F5F5F5F5F5F5F5F5F5F5F5F5F5F5F5F5F5F5F5F5F5F5F5E2F5E2E2E2E2F5E2E2E2E2E2E2
310
E2E2E2E2F5E2E2E2E2E2E2E2F5E2E2E2E2E2E2F5F5F5F5F5E2F5F5E2F5F5F5E2F5F5F5E2F5F5E2F5F5F5F5F5F5F5F5F5F5F5F5F5F5F5F5F5F5F5F5F5F5F5F5F5F5F5F5F5F5F5F5F5F5F5F5F5F5F5F5F5F5F5F5F5F5F5F5F5F5F5F5F5F5F5F5E2E2E2E2E2E2F5E2E2E2E2E2E2E2E2E2E2E2E2E2E2E2E2E2F5E2E2E2E2E2E2E2
310
F5F5F5F5F5E2F5F5E2F5F5F5E2F5F5F5E2F5F5E2F5F5F5F5F5F5F5F5F5F5F5F5F5F5F5F5F5F5F5F5F5F5F5F5F5F5F5F5F5F5F5F5F5F5F5F5F5F5F5F5F5F5F5F5F5F5F5F5F5F5F5F5F5F5F5F5E2E2E2E2E2E2E2E2E2E2E2E2E2E2E2E2E2E2E2E2E2E2E2E2E2E2E2E2E2E2E2E2F5F5F5F5F5E2F5F5E2F5F5F5E2F5F5F5E2F5F5
310
E2F5F5F5F5F5F5F5F5F5F5F5F5F5F5F5F5F5F5F5F5F5F5F5F5F5F5F5F5F5F5F5F5F5F5F5F5F5F5F5F5F5F5F5F5F5F5F5F5F5F5F5F5F5F5F5F5E2F5E2E2E2E2F5E2E2E2E2E2E2E2E2E2E2E2E2E2E2E2E2E2E2E2E2E2E2E2E2E2E2E2F5F5F5E2F5F5E2F5F5F5E2F5F5F5E2F5F5E2F5F5F5F5F5F5F5F5F5F5F5F5F5F5F5F5F5F5
310
F5F5F5F5F5F5F5F5F5F5F5F5F5F5F5F5F5F5F5F5F5F5F5F5F5F5F5F5F5F5F5F5F5F5F5F5F5F5E2E2E2E2E2E2F5E2E2E2E2E2E2E2E2E2E2E2E2E2E2E2E2E2E2E2F5E2E2E2E2E2E2E2F5F5F5E2F5F5E2F5F5F5E2F5F5F5E2F5F5E2F5F5F5F5F5F5F5F5F5F5F5F5F5F5F5F5F5F5F5F5F5F5F5F5F5F5F5F5F5F5F5F5F5F5F5F5F5
310
F5F5F5F5F5F5F5F5F5F5F5F5F5F5F5F5F5F5F5E2E2E2E2E2E2E2E2E2E2E2E2E2E2E2E2E2F5E2E2E2E2E2E2E2E2E2F5E2E2E2E2E2E2F5F5F5E2F5F5E2F5F5F5E2F5F5F5E2F5F5E2F5F5F5F5F5F5F5F5F5F5F5F5F5F5F5F5F5F5F5F5F5F5F5F5F5F5F5F5F5F5F5F5F5F5F5F5F5F5F5F5F5F5F5F5F5F5F5F5F5F5F5F5F5F5F5F5
310
E2E2E2E2E2E2E2E2E2E2E2E2F5E2E2E2E2E2E2E2F5F5F5F5F5F5F5F5F5F5F5F5F5F5F5F5F5E2F5F5E2F5F5F5E2F5F5F5E2F5F5E2F5F5F5F5F5F5F5F5F5F5F5F5F5F5F5F5F5F5F5F5F5F5F5F5F5F5F5F5F5F5F5F5F5F5F5F5F5F5F5F5F5F5F5F5F5F5F5F5F5F5F5F5F5F5F5F5E2E2E2E2E2E2E2E2E2E2E2E2F5E2E2E2E2E2E2
310
E2F5F5F5F5F5F5F5F5F5F5F5F5F5F5F5F5F5E2F5F5E2F5F5F5E2F5F5F5E2F5F5E2F5F5F5F5F5F5F5F5F5F5F5F5F5F5F5F5F5F5F5F5F5F5F5F5F5F5F5F5F5F5F5F5F5F5F5F5F5F5F5F5F5F5F5F5F5F5F5F5F5F5F5F5F5F5F5F5E2E2E2E2E2E2E2E2E2F5E2E2E2E2E2E2E2E2E2E2E2F5F5F5F5F5F5F5F5F5F5F5F5F5F5F5F5E2
310
F5F5E2F5F5F5E2F5F5F5E2F5F5E2F5F5F5F5F5F5F5F5F5F5F5F5F5F5F5F5F5F5F5F5F5F5F5F5F5F5F5F5F5F5F5F5F5F5F5F5F5F5F5F5F5F5F5F5F5F5F5F5F5F5F5F5F5F5F5F5E2E2E2E2E2E2E2E2E2F5E2E2E2E2E2E2E2E2E2E2E2E2E2F5F5F5F5F5F5F5F5F5F5F5F5F5F5E2F5F5E2F5F5F5E2F5F5F5E2F5F5E2F5F5F5F5F5
310
F5F5F5F5F5F5F5F5F5F5F5F5F5F5F5F5F5F5F5F5F5F5F5F5F5F5F5F5F5F5F5F5F5F5F5F5F5F5F5F5F5F5F5F5F5F5F5F5F5F5F5E2E2E2E2E2E2E2E2E2F5E2E2E2E2E2E2E2E2E2E2E2F5F5F5F5F5F5F5F5F5F5F5F5F5F5F5F5E2F5F5E2F5F5F5E2F5F5F5E2F5F5E2F5F5F5F5F5F5F5F5F5F5F5F5F5F5F5F5F5F5F5F5F5F5F5F5
310
F5F5F5F5F5F5F5F5F5F5F5F5F5F5F5F5F5F5F5F5F5F5F5F5F5F5F5F5F5F5F5F5E2E2E2E2E2E2F5E2E2F5F5F5F5F5F5F5F5F5F5F5F5F5F5F5F5F5F5F5F5F5F5F5F5F5F5F5F5E2F5F5E2F5F5F5E2F5F5F5E2F5F5E2F5F5F5F5F5F5F5F5F5F5F5F5F5F5F5F5F5F5F5F5F5F5F5F5F5F5F5F5F5F5F5F5F5F5F5F5F5F5F5F5F5F5F5
310
F5F5F5F5F5F5F5F5F5F5F5F5F5E2E2E2E2E2E2E2E2E2F5F5F5F5F5F5F5F5F5F5F5F5F5F5F5F5F5F5F5F5F5F5F5F5F5F5F5F5E2F5F5E2F5F5F5E2F5F5F5E2F5F5E2F5F5F5F5F5F5F5F5F5F5F5F5F5F5F5F5F5F5F5F5F5F5F5F5F5F5F5F5F5F5F5F5F5F5F5F5F5F5F5F5F5F5F5F5F5F5F5F5F5F5F5F5F5F5F5F5E2E2E2E2E2E2
310
E2E2E2F5F5F5F5F5F5F5F5F5F5F5F5F5F5F5F5F5F5F5F5F5F5F5F5F5F5F5F5E2F5F5E2F5F5F5E2F5F5F5E2F5F5E2F5F5F5F5F5F5F5F5F5F5F5F5F5F5F5F5F5F5F5F5F5F5F5F5F5F5F5F5F5F5F5F5F5F5F5F5F5F5F5F5F5F5F5F5F5F5F5F5F5F5F5F5F5F5F5F5F5F5F5F5F5F5F5F5F5F5F5F5F5F5F5F5F5F5F5F5F5F5F5F5F5
310
F5F5F5F5F5F5F5F5F5F5F5F5E2F5F5E2F5F5F5E2F5F5F5E2F5F5E2F5F5F5F5F5F5F5F5F5F5F5F5F5F5F5F5F5F5F5F5F5F5F5F5F5F5F5F5F5F5F5F5F5F5F5F5F5F5F5F5F5F5F5F5F5F5F5F5F5F5F5F5F5F5F5F5F5F5F5F5F5F5F5F5F5F5F5F5F5F5F5F5F5F5F5F5F5F5F5F5F5F5F5F5F5F5F5F5F5F5F5F5F5E2F5F5E2F5F5F5
310
E2F5F5F5E2F5F5E2F5F5F5F5F5F5F5F5F5F5F5F5F5F5F5F5F5F5F5F5F5F5F5F5F5F5F5F5F5F5F5F5F5F5F5F5F5F5F5F5F5F5F5F5F5F5F5F5F5F5F5F5F5F5F5F5F5F5F5F5F5F5F5F5F5F5F5F5F5F5F5F5F5F5F5F5F5F5F5F5F5F5F5F5F5F5F5F5F5F5F5F5F5E2F5F5E2F5F5F5E2F5F5F5E2F5F5E2F5F5F5F5F5F5F5F5F5F5F5
310
F5F5F5F5F5F5F5F5F5F5F5F5F5F5F5F5F5F5F5F5F5F5F5F5F5F5F5F5F5F5F5F5F5F5F5F5F5F5F5F5F5F5F5F5F5F5F5F5F5F5F5F5F5F5F5F5F5F5F5F5F5F5F5F5F5F5F5F5F5F5F5F5F5F5F5F5F5F5F5F5F5F5E2F5F5E2F5F5F5E2F5F5F5E2F5F5E2F5F5F5F5F5F5F5F5F5F5F5F5F5F5F5F5F5F5F5F5F5F5F5F5F5F5F5F5F5F5
310
F5F5F5F5F5F5F5F5F5F5F5F5F5F5F5F5F5F5F5F5F5F5F5F5F5F5F5F5F5F5F5F5F5F5F5F5F5F5F5F5F5F5F5F5F5F5F5F5F5F5F5F5F5F5F5F5F5F5F5F5F5F5F5E2F5F5E2F5F5F5E2F5F5F5E2F5F5E2F5F5F5F5F5F5F5F5F5F5F5F5F5F5F5F5F5F5F5F5F5F5F5F5F5F5F5F5F5F5F5F5F5F5F5F5F5F5F5F5F5F5F5F5F5F5F5F5F5
310
F5F5F5F5F5F5F5F5F5F5F5F5F5F5F5F5F5F5F5F5F5F5F5F5F5F5F5F5F5F5F5F5F5F5F5F5F5F5F5F5F5F5F5F5E2F5F5E2F5F5F5E2F5F5F5E2F5F5E2F5F5F5F5F5F5F5F5F5F5F5F5F5F5F5F5F5F5F5F5F5F5F5F5F5F5F5F5F5F5F5F5F5F5F5F5F5F5F5F5F5F5F5F5F5F5F5F5F5F5F5F5F5F5F5F5F5F5F5F5F5F5F5F5F5F5F5F5
310
F5F5F5F5F5F5F5F5F5F5F5F5F5F5F5F5F5F5F5F5F5F5F5F5F5E2F5F5E2F5F5F5E2F5F5F5E2F5F5E2F5F5F5F5F5F5F5F5F5F5F5F5F5F5F5F5F5F5F5F5F5F5F5F5F5F5F5F5F5F5F5F5F5F5F5F5F5F5F5F5F5F5F5F5F5F5F5F5F5F5F5F5F5F5F5F5F5F5F5F5F5F5F5F5F5F5F5F5F5F5F5F5F5F5F5F5F5F5F5F5F5F5F5F5F5F5F5
310
F5F5F5F5F5F5E2F5F5E2F5F5F5E2F5F5F5E2F5F5E2F5F5F5F5F5F5F5F5F5F5F5F5F5F5F5F5F5F5F5F5F5F5F5F5F5F5F5F5F5F5F5F5F5F5F5F5F5F5F5F5F5F5F5F5F5F5F5F5F5F5F5F5F5F5F5F5F5E2E2F5F5E2E2F5E2E2E2E2E2F5F5E2E2E2E2E2E2E2F5E2E2E2E2E2F5F5F5F5F5F5F5F5F5E2F5F5E2F5F5F5E2F5F5F5E2F5
310
F5E2F5F5F5F5F5F5F5F5F5F5F5F5F5F5F5F5F5F5F5F5F5F5F5F5F5F5F5F5F5F5F5F5F5F5F5F5F5F5F5F5F5F5F5F5F5F5F5F5F5F5F5F5F5F5F5F5F5E2E2F5E2E2E2F5E2E2E2E2F5E2F5E2E2E2E2E2E2E2F5E2E2E2E2E2F5F5F5F5F5F5F5F5F5E2F5F5E2F5F5F5E2F5F5F5E2F5F5E2F5F5F5F5F5F5F5F5F5F5F5F5F5F5F5F5F5
310
F5F5F5F5F5F5F5F5F5F5F5F5F5F5F5F5F5F5F5F5F5F5F5F5F5F5F5F5F5F5F5F5F5F5F5F5F5F5F5F5E2E2E2F5E2E2F5E2E2E2E2F5F5E2E2E2E2E2E2E2E2F5E2E2E2E2E2F5F5F5F5F5F5F5F5F5E2F5F5E2F5F5F5E2F5F5F5E2F5F5E2F5F5F5F5F5F5F5F5F5F5F5F5F5F5F5F5F5F5F5F5F5F5F5F5F5F5F5F5F5F5F5F5F5F5F5F5
310
F5F5F5F5F5F5F5F5F5F5F5F5F5F5F5F5F5F5F5F5F5E2E2E2E2E2E2E2E2E2F5E2E2E2E2E2E2E2E2E2E2F5E2E2E2E2E2E2F5F5F5F5F5F5F5F5F5E2F5F5E2F5F5F5E2F5F5F5E2F5F5E2F5F5F5F5F5F5F5F5F5F5F5F5F5F5F5F5F5F5F5F5F5F5F5F5F5F5F5F5F5F5F5F5F5F5F5F5F5F5F5F5F5F5F5F5F5F5F5F5F5F5F5F5F5F5F5
310
F5F5E2E2E2E2E2E2E2E2E2F5E2E2F5E2E2E2E2E2E2E2F5E2E2E2E2E2E2F5F5F5F5F5F5F5F5F5E2F5F5E2F5F5F5E2F5F5F5E2F5F5E2F5F5F5F5F5F5F5F5F5F5F5F5F5F5F5F5F5F5F5F5F5F5F5F5F5F5F5F5F5F5F5F5F5F5F5F5F5F5F5F5F5F5F5F5F5F5F5F5F5F5F5F5F5F5F5F5F5E2E2E2E2E2F5F5E2F5F5F5F5F5F5F5F5F5
310
F5F5F5F5F5F5F5F5F5F5F5F5F5F5F5F5F5F5F5E2F5F5E2F5F5F5E2F5F5F5E2F5F5E2F5F5F5F5F5F5F5F5F5F5F5F5F5F5F5F5F5F5F5F5F5F5F5F5F5F5F5F5F5F5F5F5F5F5F5F5F5F5F5F5F5F5F5F5F5F5F5F5F5F5F5F5F5F5F5F5F5E2E2E2E2E2F5F5E2F5F5F5F5F5F5F5F5F5F5F5F5F5F5F5F5F5F5F5F5F5F5F5F5F5F5F5F5
310
E2F5F5E2F5F5F5E2F5F5F5E2F5F5E2F5F5F5F5F5F5F5F5F5F5F5F5F5F5F5F5F5F5F5F5F5F5F5F5F5F5F5F5F5F5F5F5F5F5F5F5F5F5F5F5F5F5F5F5F5F5F5F5F5F5F5F5F5F5F5F5F5E2E2E2E2E2F5E2E2F5F5F5F5F5F5F5F5F5F5F5F5F5F5F5F5F5F5F5F5F5F5F5F5F5F5F5F5E2F5F5E2F5F5F5E2F5F5F5E2F5F5E2F5F5F5F5
310
F5F5F5F5F5F5F5F5F5F5F5F5F5F5F5F5F5F5F5F5F5F5F5F5F5F5F5F5F5F5F5F5F5F5F5F5F5F5F5F5F5F5F5F5F5F5F5F5F5F5F5F5F5F5F5F5F5F5F5F5F5F5F5F5F5F5F5F5F5F5F5F5F5F5F5F5F5F5F5F5F5F5F5F5F5F5F5F5F5E2F5F5E2F5F5F5E2F5F5F5E2F5F5E2F5F5F5F5F5F5F5F5F5F5F5F5F5F5F5F5F5F5F5F5F5F5F5
310
F5F5F5F5F5F5F5F5F5F5F5F5F5F5F5F5F5F5F5F5F5F5F5F5F5F5F5F5F5F5F5F5F5F5F5F5F5F5F5F5F5F5F5F5F5F5F5F5F5F5F5F5F5F5F5F5F5F5F5F5F5F5F5F5F5F5F5F5F5F5E2F5F5E2F5F5F5E2F5F5F5E2F5F5E2F5F5F5F5F5F5F5F5F5F5F5F5F5F5F5F5F5F5F5F5F5F5F5F5F5F5F5F5F5F5F5F5F5E2E2E2E2E2E2E2E2E2
310
E2E2E2E2E2E2E2E2E2E2E2F5F5F5F5F5F5F5F5F5F5F5F5F5F5F5F5F5F5F5F5F5F5F5F5F5F5F5F5F5F5F5F5F5F5F5F5F5F5F5F5E2F5F5E2F5F5F5E2F5F5F5E2F5F5E2F5F5F5F5F5F5F5F5F5F5F5F5F5F5F5F5F5F5F5F5F5F5F5F5F5F5F5F5F5F5F5F5F5E2E2E2E2E2E2E2E2E2E2E2E2E2F5E2E2E2E2E2E2F5F5F5F5F5F5F5F5
310
F5F5F5F5F5F5F5F5F5F5F5F5F5F5F5F5F5F5F5F5F5F5F5F5F5F5F5F5F5F5F5F5E2F5F5E2F5F5F5E2F5F5F5E2F5F5E2F5F5F5F5F5F5F5F5F5F5F5F5F5F5F5F5F5F5F5F5F5F5F5F5F5F5F5F5F5F5F5F5F5E2F5F5F5F5F5F5F5F5F5F5F5F5F5F5F5F5F5F5E2E2F5F5F5F5F5F5F5F5F5F5F5F5F5F5F5F5F5F5F5F5F5F5F5F5F5F5
310
F5F5F5F5F5F5F5F5F5F5F5F5F5E2F5F5E2F5F5F5E2F5F5F5E2F5F5E2F5F5F5F5F5F5F5F5F5F5F5F5F5F5F5F5F5F5F5F5F5F5F5F5F5F5F5F5F5F5F5F5E2F5F5F5F5F5F5F5F5F5F5F5F5F5F5F5F5F5F5F5F5E2F5F5F5F5F5F5F5F5F5F5F5F5F5F5F5F5F5F5F5F5F5F5F5F5F5F5F5F5F5F5F5F5F5F5F5F5F5F5F5E2F5F5E2F5F5
310
F5E2F5F5F5E2F5F5E2F5F5F5F5F5F5F5F5F5F5F5F5F5F5F5F5F5F5F5F5F5F5F5F5F5F5F5F5F5F5F5F5E2F5F5F5F5F5F5F5F5F5F5F5F5F5F5F5F5F5F5F5F5F5E2F5F5F5F5F5F5F5F5F5F5F5F5F5F5F5F5F5F5F5F5F5F5F5F5F5F5F5F5F5F5F5F5F5F5F5F5F5F5E2F5F5E2F5F5F5E2F5F5F5E2F5F5E2F5F5F5F5F5F5F5F5F5F5
310
F5F5F5F5F5F5F5F5F5F5F5F5F5F5F5F5F5F5F5F5F5F5E2F5F5F5F5F5F5F5F5F5F5E2E2E2E2E2E2E2E2F5F5F5E2E2F5F5F5F5F5F5F5F5F5F5F5F5F5F5F5F5F5F5F5F5F5F5F5F5F5F5F5F5F5F5F5F5F5F5F5F5F5E2F5F5E2F5F5F5E2F5F5F5E2F5F5E2F5F5F5F5F5F5F5F5F5F5F5F5F5F5F5F5F5F5F5F5F5F5F5F5F5F5F5F5F5
310
F5F5E2F5F5F5F5F5E2E2E2E2E2E2E2E2E2E2E2E2E2E2F5F5F5F5E2E2F5F5F5F5F5F5F5F5F5F5F5F5F5F5F5F5F5F5F5F5F5F5F5F5F5F5F5F5F5F5F5F5F5F5F5F5E2F5F5E2F5F5F5E2F5F5F5E2F5F5E2F5F5F5F5F5F5F5F5F5F5F5F5F5F5F5F5F5F5F5F5F5F5F5F5F5F5F5F5F5F5F5E2F5F5F5F5E2E2F5F5F5F5F5E2E2F5E2E2
310
E2E2E2F5F5F5F5F5E2E2F5F5F5F5F5F5F5F5F5F5F5F5F5F5F5F5F5F5F5F5F5F5F5F5F5F5F5F5F5F5F5F5F5F5F5E2F5F5E2F5F5F5E2F5F5F5E2F5F5E2F5F5F5F5F5F5F5F5F5F5F5F5F5F5F5F5F5F5F5F5F5F5F5F5F5F5F5F5F5F5E2F5F5F5F5F5E2F5F5F5F5F5F5F5F5F5F5F5F5F5F5F5F5F5F5F5F5E2E2F5F5F5F5F5F5F5F5
310
F5F5F5F5F5F5F5F5F5F5F5F5F5F5F5F5F5F5F5F5F5F5F5F5F5F5E2F5F5E2F5F5F5E2F5F5F5E2F5F5E2F5F5F5F5F5F5F5F5F5F5F5F5F5F5F5F5F5F5F5F5F5F5F5F5F5E2E2E2E2E2E2E2E2E2E2E2E2E2E2E2E2E2E2E2E2E2E2E2E2E2E2E2E2E2E2E2E2E2E2E2E2E2E2E2E2F5F5F5F5F5F5F5F5F5F5F5F5F5F5F5F5F5F5F5F5F5
310
F5F5F5F5F5F5F5E2F5F5E2F5F5F5E2F5F5F5E2F5F5E2F5F5F5F5F5F5F5F5F5F5F5F5F5F5F5F5F5F5F5F5F5F5F5F5F5E2F5F5E2E2E2E2F5F5F5F5F5F5F5F5F5F5F5F5F5F5F5F5F5F5F5F5F5F5F5F5F5E2E2E2E2E2F5F5E2F5F5F5F5F5F5F5F5F5F5F5F5F5F5F5F5F5F5F5F5F5F5F5F5F5F5F5F5E2F5F5E2F5F5F5E2F5F5F5E2
310
F5F5E2F5F5F5F5F5F5F5F5F5F5F5F5F5F5F5F5F5F5F5F5F5F5F5F5F5E2F5F5E2E2E2F5F5F5F5F5F5F5F5F5F5F5F5F5F5F5F5F5F5F5F5F5F5F5F5F5F5F5E2E2E2E2F5F5E2F5E2F5F5F5F5F5F5F5F5F5F5F5F5F5F5F5F5F5F5F5F5F5F5F5F5F5F5E2F5F5E2F5F5F5E2F5F5F5E2F5F5E2F5F5F5F5F5F5F5F5F5F5F5F5F5F5F5F5
310
F5F5F5F5F5F5F5F5F5E2F5F5E2E2F5F5F5F5F5F5F5F5F5F5F5F5F5F5F5F5F5F5F5F5F5F5F5F5F5F5F5F5F5E2E2E2F5F5E2E2E2E2E2E2E2F5E2E2E2E2F5E2E2E2E2E2F5E2F5F5F5F5F5F5F5F5F5E2F5F5E2F5F5F5E2F5F5F5E2F5F5E2F5F5F5F5F5F5F5F5F5F5F5F5F5F5F5F5F5F5F5F5F5F5F5F5F5E2F5F5E2E2F5F5F5F5F5
310
F5F5F5F5F5F5F5F5F5F5F5F5F5F5F5F5F5F5F5F5F5F5F5F5E2E2E2F5F5E2F5F5F5F5F5F5F5E2E2E2E2F5E2E2E2E2E2F5E2F5F5F5F5F5F5F5F5F5E2F5F5E2F5F5F5E2F5F5F5E2F5F5E2F5F5F5F5F5F5F5F5F5F5F5F5F5F5F5F5F5F5F5F5F5F5F5F5F5E2F5F5E2E2F5F5F5F5F5F5F5F5F5F5F5F5F5F5F5F5F5F5F5F5F5F5F5F5
310
F5F5F5F5F5E2E2E2F5F5E2F5F5F5F5F5F5F5E2F5E2E2E2E2E2F5F5F5F5F5F5F5F5F5F5F5F5F5F5E2F5F5E2F5F5F5E2F5F5F5E2F5F5E2F5F5F5F5F5F5F5F5F5F5F5F5F5F5F5F5F5F5F5F5F5F5F5F5F5E2F5F5E2E2E2E2E2E2E2E2E2E2E2E2E2E2E2E2E2E2E2E2E2E2E2E2E2E2E2E2E2E2E2E2E2E2F5F5E2E2E2E2E2E2E2F5E2
310
F5E2E2E2E2E2F5F5F5F5F5F5F5F5F5F5F5F5F5F5E2F5F5E2F5F5F5E2F5F5F5E2F5F5E2F5F5F5F5F5F5F5F5F5F5F5F5F5F5F5F5F5F5F5F5F5F5F5F5F5E2F5F5E2E2F5F5F5F5F5F5F5F5F5F5F5F5F5F5F5F5F5F5F5F5F5F5F5F5F5F5F5F5F5F5E2E2F5F5E2F5F5F5F5F5F5F5E2E2E2E2E2E2E2F5F5F5F5F5F5F5F5F5F5F5F5F5
310
F5E2F5F5E2F5F5F5E2F5F5F5E2F5F5E2F5F5F5F5F5F5F5F5F5F5F5F5F5F5F5F5F5F5F5F5F5F5F5F5F5E2F5F5E2E2E2E2E2E2E2E2F5F5E2E2E2E2E2E2F5F5E2E2E2E2E2E2F5E2E2E2E2E2E2E2E2E2F5F5E2F5F5F5F5F5F5F5F5F5F5F5F5F5F5F5F5F5F5F5F5F5F5F5F5F5F5F5F5E2F5F5E2F5F5F5E2F5F5F5E2F5F5E2F5F5F5
310
F5F5F5F5F5F5F5F5F5F5F5F5F5F5F5F5F5F5F5F5F5F5E2F5F5E2E2F5F5F5F5F5F5F5F5F5F5F5F5F5F5F5F5F5F5F5F5F5F5F5F5F5F5F5F5F5F5E2E2F5F5E2F5F5F5F5F5F5F5F5F5F5F5F5F5F5F5F5F5F5F5F5F5F5F5F5F5F5F5F5E2F5F5E2F5F5F5E2F5F5F5E2F5F5E2F5F5F5F5F5F5F5F5F5F5F5F5F5F5F5F5F5F5F5F5F5F5
310
F5F5F5E2F5F5E2E2E2E2F5F5E2E2E2E2E2E2F5F5E2E2E2E2E2E2F5E2E2E2E2E2E2E2F5E2E2E2E2E2F5F5E2F5F5F5F5F5F5F5F5F5F5F5F5F5F5F5F5F5F5F5F5F5F5F5F5F5F5F5F5E2F5F5E2F5F5F5E2F5F5F5E2F5F5E2F5F5F5F5F5F5F5F5F5F5F5F5F5F5F5F5F5F5F5F5F5F5F5F5F5E2F5F5E2F5F5F5F5F5F5F5F5F5F5F5F5
310
F5F5F5F5F5F5F5F5F5F5F5F5F5F5F5F5F5F5F5F5E2F5F5E2F5F5F5F5F5F5F5F5F5F5F5F5F5F5F5F5F5F5F5F5F5F5F5F5F5F5F5F5E2F5F5E2F5F5F5E2F5F5F5E2F5F5E2F5F5F5F5F5F5F5F5F5F5F5F5F5F5F5F5F5F5F5F5F5F5F5F5F5E2F5F5E2F5F5F5F5F5F5F5F5F5F5F5F5F5F5F5F5F5F5F5F5F5F5F5F5F5F5F5F5F5F5F5
310
F5E2F5F5E2F5F5F5F5F5F5F5F5F5F5F5F5F5F5F5F5F5F5F5F5F5F5F5F5F5F5F5F5E2F5F5E2F5F5F5E2F5F5F5E2F5F5E2F5F5F5F5F5F5F5F5F5F5F5F5F5F5F5F5F5F5F5F5F5F5F5F5F5E2F5F5E2E2E2E2E2E2E2E2E2E2E2E2E2E2E2E2E2E2E2E2E2E2E2E2E2E2E2E2E2E2E2E2E2E2F5F5E2F5F5F5F5F5F5F5F5F5F5F5F5F5F5
310
F5F5F5F5F5F5F5F5F5F5F5F5F5F5E2F5F5E2F5F5F5E2F5F5F5E2F5F5E2F5F5F5F5F5F5F5F5F5F5F5F5F5F5F5F5F5F5F5F5F5F5F5F5F5E2F5F5E2F5F5F5F5F5F5F5F5F5F5F5F5F5F5F5F5F5F5F5F5F5F5F5F5F5F5F5F5F5F5F5F5E2F5F5E2F5F5F5F5F5F5F5F5F5F5F5F5F5F5F5F5F5F5F5F5F5F5F5F5F5F5F5F5E2F5F5E2F5
310
F5F5E2F5F5F5E2F5F5E2F5F5F5F5F5F5F5F5F5F5F5F5F5F5F5F5F5F5F5F5F5F5F5F5F5E2F5F5E2E2E2E2F5F5E2E2E2E2E2E2F5F5E2E2E2E2E2E2F5E2E2E2E2E2E2E2F5E2E2E2E2E2F5F5E2F5F5F5F5F5F5F5F5F5F5F5F5F5F5F5F5F5F5F5F5F5F5F5F5F5F5F5F5E2F5F5E2F5F5F5E2F5F5F5E2F5F5E2F5F5F5F5F5F5F5F5F5
310
F5F5F5F5F5F5F5F5F5F5F5F5F5F5F5F5E2F5F5E2F5F5F5F5F5F5F5F5F5F5F5F5F5F5F5F5F5F5F5F5F5F5F5F5F5F5F5F5F5F5F5F5E2F5F5E2F5F5F5F5F5F5F5F5F5F5F5F5F5F5F5F5F5F5F5F5F5F5F5F5F5F5F5F5E2F5F5E2F5F5F5E2F5F5F5E2F5F5E2F5F5F5F5F5F5F5F5F5F5F5F5F5F5F5F5F5F5F5F5F5F5F5F5F5E2F5F5
310
E2F5F5F5F5F5F5F5F5F5F5F5F5F5F5F5F5F5F5F5F5F5F5F5F5F5F5F5F5F5F5F5F5E2F5F5E2F5F5F5F5F5F5F5F5F5F5F5F5F5F5F5F5F5F5F5F5F5F5F5F5F5F5F5F5E2F5F5E2F5F5F5E2F5F5F5E2F5F5E2F5F5F5F5F5F5F5F5F5F5F5F5F5F5F5F5F5F5F5F5F5F5F5F5F5E2F5F5E2E2E2E2F5F5E2E2E2E2E2E2F5F5E2E2E2E2E2
310
E2F5E2E2E2E2E2E2E2F5E2E2E2E2E2F5F5E2F5F5F5F5F5F5F5F5F5F5F5F5F5F5F5F5F5F5F5F5F5F5F5F5F5F5F5F5E2F5F5E2F5F5F5E2F5F5F5E2F5F5E2F5F5F5F5F5F5F5F5F5F5F5F5F5F5F5F5F5F5F5F5F5F5F5F5F5E2F5F5E2F5F5F5F5F5F5F5F5F5F5F5F5F5F5F5F5F5F5F5F5F5F5F5F5F5F5F5F5F5F5E2E2E2F5F5E2F5
310
F5F5F5F5F5F5F5F5F5F5F5F5F5F5F5F5F5F5F5F5F5F5F5F5F5F5F5E2F5F5E2F5F5F5E2F5F5F5E2F5F5E2F5F5F5F5F5F5F5F5F5F5F5F5F5F5F5F5F5F5F5F5F5F5F5F5F5E2F5F5E2E2E2E2E2E2E2E2E2E2E2E2E2E2E2E2E2E2E2E2E2E2E2E2E2E2E2E2E2E2E2E2E2E2E2F5E2F5F5F5F5F5F5F5F5F5F5F5F5F5F5F5F5F5F5F5F5
310
F5F5F5F5F5F5F5F5E2F5F5E2F5F5F5E2F5F5F5E2F5F5E2F5F5F5F5F5F5F5F5F5F5F5F5F5F5F5F5F5F5F5F5F5F5F5F5F5E2F5F5E2F5F5F5F5F5F5F5F5F5F5F5F5F5F5F5F5F5F5F5F5F5F5F5F5F5F5F5F5F5F5F5F5E2F5E2E2F5F5F5F5F5F5F5F5F5F5F5F5F5F5F5F5F5F5F5F5F5F5F5F5F5F5F5F5E2F5F5E2F5F5F5E2F5F5F5
310
E2F5F5E2F5F5F5F5F5F5F5F5F5F5F5F5F5F5F5F5F5F5F5F5F5F5F5F5F5E2F5F5E2F5F5F5F5F5F5F5F5F5F5F5F5F5F5F5F5F5F5F5F5F5F5F5F5F5F5F5F5F5F5F5F5E2F5F5E2E2E2F5F5F5F5F5F5F5F5F5F5F5F5F5F5F5F5F5F5F5F5F5F5F5F5F5F5E2F5F5E2F5F5F5E2F5F5F5E2F5F5E2F5F5F5F5F5F5F5F5F5F5F5F5F5F5F5
310
F5F5F5F5F5F5F5F5F5F5E2F5F5E2E2E2E2F5F5E2E2E2E2E2E2F5F5E2E2E2E2E2E2F5E2E2E2E2E2E2E2F5E2E2E2E2E2F5F5E2F5F5E2E2E2E2E2E2E2E2E2E2E2E2E2F5E2E2E2E2E2F5F5F5F5F5F5F5E2F5F5E2F5F5F5E2F5F5F5E2F5F5E2F5F5F5F5F5F5F5F5F5F5F5F5F5F5F5F5F5F5F5F5F5F5F5F5F5E2F5F5E2E2E2E2F5F5
310
E2E2E2E2E2E2F5F5E2E2E2E2E2E2F5E2E2E2E2E2E2E2F5E2E2E2E2E2E2F5E2F5F5E2E2E2E2E2E2E2E2E2E2E2E2E2F5E2E2E2E2E2F5F5F5F5F5F5F5E2F5F5E2F5F5F5E2F5F5F5E2F5F5E2F5F5F5F5F5F5F5F5F5F5F5F5F5F5F5F5F5F5F5F5F5F5F5F5F5E2F5F5E2F5F5F5F5F5F5F5F5F5F5F5F5F5F5F5F5F5F5E2E2F5F5F5F5
310
F5F5F5F5F5F5F5F5E2E2E2E2F5F5E2E2E2E2E2E2E2E2E2E2E2E2E2F5E2E2E2E2E2F5F5F5F5F5F5F5E2F5F5E2F5F5F5E2F5F5F5E2F5F5E2F5F5F5F5F5F5F5F5F5F5F5F5F5F5F5F5F5F5F5F5F5F5F5F5F5E2F5F5E2F5F5F5F5F5F5F5F5F5F5F5F5F5F5F5F5E2E2F5E2F5F5F5F5F5F5F5F5F5F5F5F5E2F5E2E2F5F5F5F5F5F5F5
310
F5F5F5F5F5F5F5F5F5F5F5F5F5F5F5F5F5F5F5F5F5E2F5F5E2F5F5F5E2F5F5F5E2F5F5E2F5F5F5F5F5F5F5F5F5F5F5F5F5F5F5F5F5F5E2E2E2E2E2E2E2E2E2E2E2E2E2E2E2E2E2E2E2E2E2E2E2E2E2E2E2F5F5E2E2E2E2E2E2E2E2E2E2E2E2E2E2E2E2E2E2E2E2E2E2E2F5F5F5F5F5F5F5F5F5F5F5F5F5F5F5F5F5F5F5F5F5
310
F5F5E2F5F5E2F5F5F5E2F5F5F5E2F5F5E2F5F5F5F5F5F5F5F5F5F5F5F5F5F5F5F5F5F5F5F5F5F5F5F5F5F5F5F5F5F5F5F5F5F5F5F5F5F5F5F5F5E2E2F5F5F5F5F5F5F5F5F5F5F5F5F5F5F5F5F5F5E2F5F5E2F5F5F5F5F5F5F5F5F5F5F5F5F5F5F5F5F5F5F5F5F5F5F5F5F5F5F5F5E2F5F5E2F5F5F5E2F5F5F5E2F5F5E2F5F5
310
F5F5F5F5F5F5F5F5F5F5F5F5F5F5F5F5F5F5F5F5F5F5F5E2F5F5E2F5F5F5F5F5F5F5F5F5F5F5F5F5F5F5F5F5F5F5F5F5F5F5F5F5F5F5F5F5F5F5F5E2F5F5E2E2F5F5F5F5F5F5F5F5F5F5F5F5F5F5F5F5F5F5F5F5F5F5F5F5F5F5F5E2F5F5E2F5F5F5E2F5F5F5E2F5F5E2F5F5F5F5F5F5F5F5F5F5F5F5F5F5F5F5F5F5F5F5F5
310
F5F5F5F5E2F5F5E2F5F5F5F5F5F5F5F5F5F5F5F5F5F5F5F5F5F5F5F5F5F5F5F5F5F5F5F5F5F5F5F5E2F5F5E2E2F5F5F5F5F5F5F5F5F5F5F5F5F5F5F5F5F5F5F5F5F5F5F5F5F5F5F5E2F5F5E2F5F5F5E2F5F5F5E2F5F5E2F5F5F5F5F5F5F5F5F5F5F5F5F5F5F5F5F5F5F5F5F5F5F5F5F5E2F5E2E2F5F5F5F5F5F5F5F5F5F5F5
310
F5F5F5F5F5F5F5F5F5F5F5F5F5F5F5F5F5F5F5F5E2E2F5F5E2E2F5F5F5F5F5F5F5F5F5F5F5F5F5F5F5F5F5F5F5F5F5F5F5F5F5F5F5E2F5F5E2F5F5F5E2F5F5F5E2F5F5E2F5F5F5F5F5F5F5F5F5F5F5F5F5F5F5F5F5F5F5F5F5F5F5F5F5E2F5F5E2E2E2E2E2E2E2E2E2E2E2E2E2E2E2E2E2E2E2E2E2E2E2E2E2E2E2E2E2E2E2
310
E2E2E2F5F5E2F5E2F5F5F5F5F5F5F5F5F5F5F5F5F5F5F5F5F5F5F5F5F5F5F5F5F5F5E2F5F5E2F5F5F5E2F5F5F5E2F5F5E2F5F5F5F5F5F5F5F5F5F5F5F5F5F5F5F5F5F5F5F5F5F5F5F5F5E2F5F5E2E2F5F5F5F5F5F5F5F5F5F5F5F5E2E2E2E2F5F5F5F5F5F5F5F5F5F5F5F5F5F5F5E2F5F5E2F5E2E2E2E2E2E2E2E2E2E2E2F5
310
E2E2E2E2E2E2F5E2E2E2F5F5F5F5F5E2F5F5E2F5F5F5E2F5F5F5E2F5F5E2F5F5F5F5F5F5F5F5F5F5F5F5F5F5F5F5F5F5F5F5F5F5F5F5F5E2F5F5F5F5F5F5F5F5F5F5F5F5F5F5F5F5F5E2E2E2F5F5F5F5F5F5F5F5F5F5F5F5F5F5F5F5F5F5E2F5F5E2E2F5E2E2E2E2F5E2E2F5E2E2E2E2E2E2E2E2E2E2F5F5F5F5F5E2F5F5E2
310
F5F5F5E2F5F5F5E2F5F5E2F5F5F5F5F5F5F5F5F5F5F5F5F5F5F5F5F5F5F5F5F5F5F5F5F5E2F5F5F5F5F5F5F5F5F5F5F5F5F5F5F5F5F5E2F5E2E2E2F5F5F5F5F5F5F5F5F5F5F5F5F5F5F5F5E2F5F5F5F5F5F5F5F5F5F5F5F5F5F5F5F5F5F5F5F5F5F5F5F5F5F5F5F5E2F5F5E2F5F5F5E2F5F5F5E2F5F5E2F5F5F5F5F5F5F5F5
310
F5F5F5F5F5F5F5F5F5F5F5F5F5F5F5F5F5E2F5F5F5F5F5F5F5F5F5F5F5F5F5F5F5F5F5F5E2E2F5E2F5F5F5F5F5F5F5F5F5F5F5F5F5F5F5F5E2F5F5F5F5F5F5F5F5F5F5F5F5F5F5F5F5F5F5F5F5F5F5F5F5F5F5F5F5E2F5F5E2F5F5F5E2F5F5F5E2F5F5E2F5F5F5F5F5F5F5F5F5F5F5F5F5F5F5F5F5F5F5F5F5F5F5F5F5E2F5
310
F5F5F5F5F5F5F5F5F5F5F5F5F5F5F5F5F5F5F5F5F5F5F5F5F5F5F5F5F5F5F5F5F5F5F5F5F5E2F5F5F5F5F5F5F5F5F5F5F5F5F5F5F5F5F5F5F5F5F5F5F5F5F5F5F5F5E2F5F5E2F5F5F5E2F5F5F5E2F5F5E2F5F5F5F5F5F5F5F5F5F5F5F5F5F5F5F5F5F5F5F5F5F5F5F5E2E2F5F5F5F5F5F5F5F5F5F5F5F5F5F5F5F5F5F5F5F5
310
F5F5F5F5F5F5F5F5F5F5F5F5F5F5F5F5F5E2E2F5F5F5F5F5F5F5F5F5F5F5F5F5F5F5F5F5F5F5F5F5F5F5F5F5F5F5F5E2F5F5E2F5F5F5E2F5F5F5E2F5F5E2F5F5F5F5F5F5F5F5F5F5F5F5F5F5F5F5F5F5F5F5F5F5F5F5E2E2E2E2E2E2E2E2E2E2E2E2E2E2E2E2E2E2E2E2E2E2E2E2E2E2E2E2E2E2E2E2E2E2E2E2E2E2E2E2E2
310
F5F5F5F5F5F5F5F5F5F5F5F5F5F5F5F5F5F5F5F5F5F5F5F5F5F5F5F5E2F5F5E2F5F5F5E2F5F5F5E2F5F5E2F5F5F5F5F5F5F5F5F5F5F5F5F5F5F5F5F5F5F5F5F5F5F5F5F5E2E2F5F5F5F5F5F5F5F5F5F5E2E2E2E2E2F5E2E2E2E2E2E2E2F5E2E2F5F5F5F5F5F5F5F5F5F5F5E2E2F5F5F5F5F5F5F5F5F5F5F5F5F5F5F5F5F5F5
310
F5F5F5F5F5F5F5F5F5E2F5F5E2F5F5F5E2F5F5F5E2F5F5E2F5F5F5F5F5F5F5F5F5F5F5F5F5F5F5F5F5F5F5F5F5F5F5F5F5E2F5F5F5F5F5F5F5F5F5F5F5E2E2E2E2E2F5E2E2E2E2E2E2F5F5E2E2F5F5F5F5F5F5F5F5F5F5F5E2F5F5F5F5F5F5F5F5F5F5F5F5F5F5F5F5F5F5F5F5F5F5F5F5F5F5F5F5E2F5F5E2F5F5F5E2F5F5
310
F5E2F5F5E2F5F5F5F5F5F5F5F5F5F5F5F5F5F5F5F5F5F5F5F5F5F5F5F5F5F5F5F5F5F5F5F5F5F5F5F5F5E2E2E2E2E2F5E2E2E2E2E2E2E2F5E2E2F5F5F5F5F5F5F5F5F5F5F5F5F5F5F5F5F5F5F5F5F5F5F5F5F5F5F5F5F5F5F5F5F5F5F5F5F5F5F5F5E2F5F5E2F5F5F5E2F5F5F5E2F5F5E2F5F5F5F5F5F5F5F5F5F5F5F5F5F5
310
F5F5F5F5F5F5F5F5F5F5F5F5F5F5F5F5F5F5F5F5F5F5F5F5F5F5F5F5F5F5F5F5F5F5F5F5F5F5F5F5F5F5F5F5F5F5F5F5F5F5F5F5F5F5F5F5F5F5F5F5F5F5F5F5F5F5F5F5F5F5F5F5F5F5F5F5F5F5F5E2F5F5E2F5F5F5E2F5F5F5E2F5F5E2F5F5F5F5F5F5F5F5F5F5F5F5F5F5F5F5F5F5F5F5F5F5F5F5F5F5F5F5F5F5F5F5F5
310
F5F5F5F5F5F5F5F5F5F5F5F5F5F5F5F5F5F5F5F5F5F5F5F5F5F5F5F5F5F5F5F5F5F5F5F5F5F5F5F5F5F5F5F5F5F5F5F5F5F5F5F5F5F5F5F5F5F5F5F5E2F5F5E2F5F5F5E2F5F5F5E2F5F5E2F5F5F5F5F5F5F5F5F5F5F5F5F5F5F5F5F5F5F5F5F5F5F5F5F5F5F5F5F5F5F5F5F5F5F5F5F5F5F5F5F5F5F5F5F5F5F5F5F5F5F5F5
310
F5F5F5F5F5F5F5F5F5F5F5F5F5F5F5F5F5F5F5F5F5F5F5F5F5F5F5F5F5F5F5F5F5F5F5F5F5F5F5F5F5E2F5F5E2F5F5F5E2F5F5F5E2F5F5E2F5F5F5F5F5F5F5F5F5F5F5F5F5F5F5F5F5F5F5F5F5F5F5F5F5F5F5F5F5F5F5F5F5F5F5F5F5F5F5F5F5F5F5F5F5F5F5F5F5F5F5F5F5F5F5F5F5F5F5F5F5F5F5F5F5F5F5F5F5F5F5
310
F5F5F5F5F5F5F5F5F5F5F5F5F5F5F5F5F5F5F5F5F5F5E2F5F5E2F5F5F5E2F5F5F5E2F5F5E2F5F5F5F5F5F5F5F5F5F5F5F5F5F5F5F5F5F5F5F5F5F5F5F5F5F5F5F5F5F5F5F5F5F5F5F5F5F5F5F5F5F5F5F5F5F5F5F5F5F5F5F5F5F5F5F5F5F5F5F5F5F5F5F5F5F5F5F5F5F5F5F5F5F5F5F5F5F5F5F5F5F5F5F5F5F5F5F5F5F5
310
F5F5F5E2F5F5E2F5F5F5E2F5F5F5E2F5F5E2F5F5F5F5F5F5F5F5F5F5F5F5F5F5F5F5F5F5F5F5F5F5F5F5F5F5F5F5F5F5F5F5F5F5F5F5F5F5F5F5F5F5F5F5F5F5F5F5F5F5F5F5F5F5F5F5F5F5F5F5F5F5F5F5F5F5F5F5F5F5F5F5F5F5F5F5F5F5F5F5F5F5F5F5F5F5F5F5F5F5F5F5F5E2F5F5E2F5F5F5E2F5F5F5E2F5F5E2F5
310
F5F5F5F5F5F5F5F5F5F5F5F5F5F5F5F5F5F5F5F5F5F5F5F5F5F5F5F5F5F5F5F5F5F5F5F5F5F5F5F5F5F5F5F5F5F5F5F5F5F5F5F5F5F5F5F5F5F5F5F5F5F5F5F5F5F5F5F5F5F5F5F5F5F5F5F5F5F5F5F5F5F5F5F5F5F5F5F5F5F5F5F5E2F5F5E2F5F5F5E2F5F5F5E2F5F5E2F5F5F5F5F5F5F5F5F5F5F5F5F5F5F5F5F5F5F5F5
310
F5F5F5F5F5F5F5F5F5F5F5F5F5F5F5F5F5F5F5F5F5F5F5F5F5F5F5F5F5F5F5F5F5F5F5F5F5F5F5F5F5F5F5F5F5F5F5F5F5F5F5F5F5F5F5F5F5F5F5F5F5F5F5F5F5F5F5F5F5F5F5F5F5E2F5F5E2F5F5F5E2F5F5F5E2F5F5E2F5F5F5F5F5F5F5F5F5F5F5F5F5F5F5F5F5F5F5F5F5F5F5F5F5F5F5F5F5F5F5F5F5F5F5F5F5F5F5
310
F5F5F5F5F5F5F5F5F5F5F5F5F5F5F5F5F5F5F5F5F5F5F5F5F5F5F5F5F5F5F5F5F5F5F5F5F5F5F5F5F5F5F5F5F5F5F5F5F5F5F5F5F5F5E2F5F5E2F5F5F5E2F5F5F5E2F5F5E2F5F5F5F5F5F5F5F5F5F5F5F5F5F5F5F5F5F5F5F5F5F5F5F5F5F5F5F5F5F5F5F5F5F5F5F5F5F5F5F5F5F5F5F5F5F5F5F5F5F5F5F5F5F5F5F5F5F5
310
F5F5F5F5F5F5F5F5F5F5F5F5F5F5F5F5F5F5F5F5F5F5F5F5F5F5F5F5F5F5F5F5F5F5F5E2F5F5E2F5F5F5E2F5F5F5E2F5F5E2E2E2E2E2E2E2E2E2E2E2E2E2E2E2E2E2E2E2E2E2E2E2E2E2E2E2E2E2E2E2E2E2E2E2E2E2E2E2E2E2E2E2E2E2E2E2E2E2E2E2E2E2E2E2E2E2E2E2E2E2E2E2E2E2E2E2E2E2E2E2E2E2E2E2E2E2E2
310
E2E2E2E2E2E2E2E2E2E2E2E2E2E2E2E2E2F5F5E2F5F5F5E2F5F5F5E2E2E2E2E2E2E2E2E2E2E2E2E2E2E2E2E2E2E2E2E2E2E2E2E2E2E2E2E2E2E2E2E2E2E2E2E2E2E2E2E2E2E2E2E2E2E2E2E2E2E2E2E2E2E2E2E2E2E2E2E2E2E2E2E2E2E2E2E2E2E2E2E2E2E2E2E2E2E2E2E2E2E2E2E2E2E2E2E2E2E2E2E2E2E2E2E2E2E2E2
310
E2F5F5F5E2F5F5F5F5F5F5F5F5F5F5F5F5F5F5F5F5F5F5F5F5F5F5F5F5F5F5F5F5F5F5F5F5F5F5F5F5F5F5F5F5F5F5F5F5F5F5F5F5F5F5F5F5F5F5F5F5F5F5F5F5F5F5F5F5F5F5F5F5F5F5F5F5F5F5F5F5F5F5F5F5F5F5F5F5F5F5F5F5F5F5F5F5F5F5F5F5F5F5F5F5F5F5F5F5F5F5F5E2F5F5F5F5F5F5F5F5F5F5F5F5F5F5
310
F5F5F5F5F5F5F5F5F5F5F5F5F5F5F5F5F5F5F5F5F5F5F5F5F5F5F5F5F5F5F5F5F5F5F5F5F5F5F5F5F5F5F5F5F5F5F5F5F5F5F5F5F5F5F5F5F5F5F5F5F5F5F5F5F5F5F5F5F5F5F5F5F5F5F5F5F5F5F5F5F5F5F5F5F5F5F5F5F5F5F5F5F5E2F5F5F5F5F5F5F5F5F5F5F5F5F5F5F5F5F5F5F5F5F5F5F5F5F5F5F5F5F5F5F5F5F5
310
F5F5F5F5F5F5F5F5F5F5F5F5F5F5F5F5F5F5F5F5F5F5F5F5F5F5F5F5F5F5F5F5F5F5F5F5F5F5F5F5F5F5F5F5F5F5F5F5F5F5F5F5F5F5F5F5F5F5F5F5F5F5F5F5F5F5F5F5F5F5F5F5F5F5E2E2E2E2E2E2E2E2E2E2E2E2E2E2E2E2E2E2E2E2E2E2E2E2E2E2E2E2E2E2E2E2E2E2E2E2E2E2E2E2E2E2E2E2E2E2E2E2E2E2E2E2E2
310
E2E2E2E2E2E2E2E2E2E2E2E2E2E2E2E2E2E2E2E2E2E2E2E2E2E2E2E2E2E2E2E2E2E2E2E2E2E2E2E2E2E2E2E2E2E2E2E2E2E2E2E2E2E2E2
  0
XRECORD
  5
1549
102
{ACAD_REACTORS
330
1548
102
}
330
1548
100
AcDbXrecord
280
     1
102
SHADEPLOT
 70
     0
102
SHADEPLOTRESLEVEL
 70
     2
102
SHADEPLOTCUSTOMDPI
 70
   300
  0
XRECORD
  5
1553
102
{ACAD_REACTORS
330
1552
102
}
330
1552
100
AcDbXrecord
280
     1
102
MATERIAL
148
0.0
149
0.0
149
0.0
 93
        0
 94
       63
282
     0
 72
     1
 77
     1
171
     1
175
     1
179
     1
273
     0
  0
XRECORD
  5
1551
102
{ACAD_REACTORS
330
1550
102
}
330
1550
100
AcDbXrecord
280
     1
102
MATERIAL
148
0.0
149
0.0
149
0.0
 93
        0
 94
       63
282
     0
 72
     1
 77
     1
171
     1
175
     1
179
     1
273
     0
  0
XRECORD
  5
1555
102
{ACAD_REACTORS
330
1554
102
}
330
1554
100
AcDbXrecord
280
     1
102
MATERIAL
148
0.0
149
0.0
149
0.0
 93
        0
 94
       63
282
     0
 72
     1
 77
     1
171
     1
175
     1
179
     1
273
     0
  0
XRECORD
  5
154D
102
{ACAD_REACTORS
330
154C
102
}
330
154C
100
AcDbXrecord
280
     1
102
SHADEPLOT
 70
     0
102
SHADEPLOTRESLEVEL
 70
     2
102
SHADEPLOTCUSTOMDPI
 70
   300
  0
XRECORD
  5
154F
102
{ACAD_REACTORS
330
154E
102
}
330
154E
100
AcDbXrecord
280
     1
102
SHADEPLOT
 70
     0
102
SHADEPLOTRESLEVEL
 70
     2
102
SHADEPLOTCUSTOMDPI
 70
   300
  0
XRECORD
  5
1557
102
{ACAD_REACTORS
330
1556
102
}
330
1556
100
AcDbXrecord
280
     1
102
ACAD_ROUNDTRIP_PRE2007_TABLESTYLE
 90
      512
 91
        0
  1

 92
      512
 93
        0
  2

 94
      512
 95
        0
  3

  0
ENDSEC
  0
EOF
